Subcategories

V.A. - York Presents: Best Of Planet Chill Vol. 1 (2015)

Posted By: gribovar
V.A. - York Presents: Best Of Planet Chill Vol. 1 (2015)

V.A. - York Presents: Best Of Planet Chill Vol. 1 (2015)
EAC Rip | FLAC (tracks+.cue+log) - 870 MB | MP3 CBR 320 kbps (LAME 3.93) - 322 MB | Covers - 164 MB
Genre: Chillout, Downtempo, Synthpop | RAR 3% Rec. | Label: ZYX Music (ZYX 82798-2)

York presents Best Of Planet Chill Vol. 1. Behind York hides the music producer Torsten Stenzel, who is behind the productions of Kai Tracid, Sakin & Friends and many more. The series "Planet Chill" has been enjoying great popularity among friends of ambient / chill-out music for some years now and is hereby also appearing as a physical sound carrier! This first issue contains a Best Of the Most Beautiful Titles that have appeared on the (digital) Planet Chill Samplers in recent years. Handpicked and put together with great attention to detail by York a.k.a. Torsten Stenzel.
CD 1 Tracklist:
01. Matt Darey feat. Kate Louise Smith - See the Sun
02. York feat. Jennifer Paige - Lost Under the Sun (Max Denoise & Harnam Remix)
03. Asheni - Only Magic (Original)
04. Ayla - Angelfalls
05. Sunlounger - Lumumba (Chill Mix)
06. Tiesto - Battleship Grey
07. Dousk - Anagram
08. DT8 Rroject - Perfect World (Album Edit)
09. York - Inmortal
10. Domenico Cascarino & Luca Lombardi - Air from the Moon
11. Jus Bus & Vinnie Hamilton - Sounds of Revolution
12. Conjure One - Center of the Sun
13. Super8 & Tab feat. Alyna - Perfect Day

Total time: 01:06:05

CD 2 Tracklist:
01. Delerium - A Poem for Byzantium
02. Oceanlab - Ashes
03. Fauxliage - Rafe
04. York feat. Angie Ott - Circles in the Sand
05. Kenny Fontana - U R the Sun (Toni Riviera Mix)
06. Chicane - Sunstroke (White Mix)
07. Solarstone - Seven Cities (Ambient Dub)
08. Lustral - Everytime (Way Out West Edit)
09. York with Mohamed Bahi - Maarif 71 (Marco Torrance's Marrakesh Reprise)
10. Mike Foyle - Shipwrecked (Chill Out Mix)
11. Project Blue Sun - Besame (Palnet Chill Mix)
12. York with Hammer feat. Asheni - Lost in a Circle (R.I.B. & Seven24 Remix)
13. tyDi - Ariana (Chill Out Mix)

Total time: 01:09:19

Exact Audio Copy V1.0 beta 3 from 29. August 2011

EAC extraction logfile from 6. May 2015, 21:37

Various / York Planet Chill: The Best of Volume I

Used drive : ASUS DRW-24F1ST a Adapter: 2 ID: 0

Read mode : Secure
Utilize accurate stream : Yes
Defeat audio cache : Yes
Make use of C2 pointers : No

Read offset correction : 6
Overread into Lead-In and Lead-Out : No
Fill up missing offset samples with silence : Yes
Delete leading and trailing silent blocks : No
Null samples used in CRC calculations : Yes
Used interface : Native Win32 interface for Win NT & 2000
Gap handling : Appended to previous track

Used output format : User Defined Encoder
Selected bitrate : 1024 kBit/s
Quality : High
Add ID3 tag : No
Command line compressor : C:\Program Files (x86)\Exact Audio Copy\Flac\flac.exe
Additional command line options : -8 -V -T "COMMENT=ripped by DrStandBy special for new-team.org" -T "ARTIST=%artist%" -T "TITLE=%title%" -T "ALBUM=%albumtitle%" -T "DATE=%year%" -T "TRACKNUMBER=%tracknr%" -T "GENRE=%genre%" %source%


TOC of the extracted CD

Track | Start | Length | Start sector | End sector
––––––––––––––––––––––––––––-
1 | 0:00.00 | 5:22.72 | 0 | 24221
2 | 5:22.72 | 5:21.16 | 24222 | 48312
3 | 10:44.13 | 6:10.39 | 48313 | 76101
4 | 16:54.52 | 4:00.01 | 76102 | 94102
5 | 20:54.53 | 5:33.18 | 94103 | 119095
6 | 26:27.71 | 4:49.73 | 119096 | 140843
7 | 31:17.69 | 4:17.06 | 140844 | 160124
8 | 35:35.00 | 5:07.03 | 160125 | 183152
9 | 40:42.03 | 5:46.09 | 183153 | 209111
10 | 46:28.12 | 6:06.48 | 209112 | 236609
11 | 52:34.60 | 3:37.35 | 236610 | 252919
12 | 56:12.20 | 4:45.66 | 252920 | 274360
13 | 60:58.11 | 5:06.71 | 274361 | 297381


Track 1

Filename I:\2015 - VA - York Planet Chill- The Best of Volume I (ZYX 82798-2)\1-01. Matt Darey feat. Kate Louise Smith - See the Sun (Original Mix).wav

Pre-gap length 0:00:02.00

Peak level 65.8 %
Extraction speed 1.9 X
Track quality 100.0 %
Test CRC 52A33DBD
Copy CRC 52A33DBD
Track not present in AccurateRip database
Copy OK

Track 2

Filename I:\2015 - VA - York Planet Chill- The Best of Volume I (ZYX 82798-2)\1-02. York feat. Jennifer Paige - Lost Under the Sun (Max Denoise & Harnam Remix).wav

Peak level 67.2 %
Extraction speed 2.2 X
Track quality 100.0 %
Test CRC BB88F4E2
Copy CRC BB88F4E2
Track not present in AccurateRip database
Copy OK

Track 3

Filename I:\2015 - VA - York Planet Chill- The Best of Volume I (ZYX 82798-2)\1-03. Asheni - Only Magic (Original).wav

Peak level 95.2 %
Extraction speed 2.2 X
Track quality 99.9 %
Test CRC C5642AB2
Copy CRC C5642AB2
Track not present in AccurateRip database
Copy OK

Track 4

Filename I:\2015 - VA - York Planet Chill- The Best of Volume I (ZYX 82798-2)\1-04. Ayla - Angelfalls.wav

Peak level 92.4 %
Extraction speed 2.1 X
Track quality 99.9 %
Test CRC A5683CB3
Copy CRC A5683CB3
Track not present in AccurateRip database
Copy OK

Track 5

Filename I:\2015 - VA - York Planet Chill- The Best of Volume I (ZYX 82798-2)\1-05. Sunlounger - Lumumba (Chill Mix).wav

Peak level 98.8 %
Extraction speed 2.8 X
Track quality 100.0 %
Test CRC B27D0EE6
Copy CRC B27D0EE6
Track not present in AccurateRip database
Copy OK

Track 6

Filename I:\2015 - VA - York Planet Chill- The Best of Volume I (ZYX 82798-2)\1-06. Tiesto - Battleship Grey.wav

Peak level 98.8 %
Extraction speed 3.0 X
Track quality 100.0 %
Test CRC 9832833D
Copy CRC 9832833D
Track not present in AccurateRip database
Copy OK

Track 7

Filename I:\For new-team.org\2015 - VA - York Planet Chill- The Best of Volume I (ZYX 82798-2)\1-07. Dousk - Anagram.wav

Peak level 98.8 %
Extraction speed 3.0 X
Track quality 100.0 %
Test CRC A345204F
Copy CRC A345204F
Track not present in AccurateRip database
Copy OK

Track 8

Filename I:\2015 - VA - York Planet Chill- The Best of Volume I (ZYX 82798-2)\1-08. DT8 Rroject - Perfect World (Album Edit).wav

Peak level 87.5 %
Extraction speed 3.3 X
Track quality 100.0 %
Test CRC E0234883
Copy CRC E0234883
Track not present in AccurateRip database
Copy OK

Track 9

Filename I:\2015 - VA - York Planet Chill- The Best of Volume I (ZYX 82798-2)\1-09. York - Inmortal.wav

Peak level 98.8 %
Extraction speed 3.4 X
Track quality 100.0 %
Test CRC 1EAC2CEE
Copy CRC 1EAC2CEE
Track not present in AccurateRip database
Copy OK

Track 10

Filename I:\2015 - VA - York Planet Chill- The Best of Volume I (ZYX 82798-2)\1-10. Domenico Cascarino & Luca Lombardi - Air from the Moon.wav

Peak level 88.7 %
Extraction speed 3.6 X
Track quality 100.0 %
Test CRC C121D9A4
Copy CRC C121D9A4
Track not present in AccurateRip database
Copy OK

Track 11

Filename I:\2015 - VA - York Planet Chill- The Best of Volume I (ZYX 82798-2)\1-11. Jus Bus & Vinnie Hamilton - Sounds of Revolution.wav

Peak level 72.6 %
Extraction speed 2.5 X
Track quality 99.9 %
Test CRC FC1E1B4D
Copy CRC FC1E1B4D
Track not present in AccurateRip database
Copy OK

Track 12

Filename I:\2015 - VA - York Planet Chill- The Best of Volume I (ZYX 82798-2)\1-12. Conjure One - Center of the Sun.wav

Peak level 87.5 %
Extraction speed 2.8 X
Track quality 99.9 %
Test CRC 194001A1
Copy CRC 194001A1
Track not present in AccurateRip database
Copy OK

Track 13

Filename I:\2015 - VA - York Planet Chill- The Best of Volume I (ZYX 82798-2)\1-13. Super8 & Tab feat. Alyna - Perfect Day.wav

Peak level 97.7 %
Extraction speed 3.9 X
Track quality 100.0 %
Test CRC 7D4481D5
Copy CRC 7D4481D5
Track not present in AccurateRip database
Copy OK


None of the tracks are present in the AccurateRip database

No errors occurred

End of status report

–– CUETools DB Plugin V2.1.6

[CTDB TOCID: ZPDdNUSvbhcTej64RFWLaQ2e95M-] found
Submit result: already submitted
Track | CTDB Status
1 | (1/1) Accurately ripped
2 | (1/1) Accurately ripped
3 | (1/1) Accurately ripped
4 | (1/1) Accurately ripped
5 | (1/1) Accurately ripped
6 | (1/1) Accurately ripped
7 | (1/1) Accurately ripped
8 | (1/1) Accurately ripped
9 | (1/1) Accurately ripped
10 | (1/1) Accurately ripped
11 | (1/1) Accurately ripped
12 | (1/1) Accurately ripped
13 | (1/1) Accurately ripped


==== Log checksum 60271B42C0344EE583A13709BBF7FE88ED462692F2CE7D8FC333BB7A940B2C97 ====

[CUETools log; Date: 19.11.2019 16:47:26; Version: 2.1.4]
[CTDB TOCID: ZPDdNUSvbhcTej64RFWLaQ2e95M-] found.
Track | CTDB Status
1 | (1/1) Accurately ripped
2 | (1/1) Accurately ripped
3 | (1/1) Accurately ripped
4 | (1/1) Accurately ripped
5 | (1/1) Accurately ripped
6 | (1/1) Accurately ripped
7 | (1/1) Accurately ripped
8 | (1/1) Accurately ripped
9 | (1/1) Accurately ripped
10 | (1/1) Accurately ripped
11 | (1/1) Accurately ripped
12 | (1/1) Accurately ripped
13 | (1/1) Accurately ripped
[AccurateRip ID: 00204af7-01414e37-bd0f7d0d] found.
Track [ CRC | V2 ] Status
01 [a481e4a0|8b782e25] (0+2/2) Accurately ripped
02 [adcc4b4d|5957d45d] (0+2/2) Accurately ripped
03 [1a8b57ee|0c55747f] (0+2/2) Accurately ripped
04 [084cf3e7|1824ce99] (0+2/2) Accurately ripped
05 [2f85f17f|56d49bec] (0+2/2) Accurately ripped
06 [b94193c3|d0208b72] (0+2/2) Accurately ripped
07 [8df212cb|978afbf4] (0+2/2) Accurately ripped
08 [8e25372c|64eebc33] (0+2/2) Accurately ripped
09 [a2e6363b|87dbc4f5] (0+2/2) Accurately ripped
10 [eeb0405b|51a625da] (0+2/2) Accurately ripped
11 [e5d5c6f1|6598eb86] (0+2/2) Accurately ripped
12 [6bfb9121|18c6d878] (0+2/2) Accurately ripped
13 [1ac9746d|c2b34b9f] (0+2/2) Accurately ripped

Track Peak [ CRC32 ] [W/O NULL] [ LOG ]
– 98,8 [CF08922F] [14C09DBB]
01 65,8 [52A33DBD] [81C7E846] CRC32
02 67,2 [BB88F4E2] [B7044C49] CRC32
03 95,2 [C5642AB2] [B29F0C1B] CRC32
04 92,4 [A5683CB3] [AF9933FF] CRC32
05 98,8 [B27D0EE6] [03F6CEF9] CRC32
06 98,8 [9832833D] [8E77A505] CRC32
07 98,8 [A345204F] [6466A8DB] CRC32
08 87,5 [E0234883] [C4F1F1A9] CRC32
09 98,8 [1EAC2CEE] [ACC332A7] CRC32
10 88,7 [C121D9A4] [60A9A755] CRC32
11 72,6 [FC1E1B4D] [1C381A1B] CRC32
12 87,5 [194001A1] [26A39F7E] CRC32
13 97,7 [7D4481D5] [2B8CE165] CRC32

Exact Audio Copy V1.0 beta 3 from 29. August 2011

EAC extraction logfile from 6. May 2015, 20:43

Various / York Planet Chill: The Best of Volume I

Used drive : ASUS DRW-24F1ST a Adapter: 2 ID: 0

Read mode : Secure
Utilize accurate stream : Yes
Defeat audio cache : Yes
Make use of C2 pointers : No

Read offset correction : 6
Overread into Lead-In and Lead-Out : No
Fill up missing offset samples with silence : Yes
Delete leading and trailing silent blocks : No
Null samples used in CRC calculations : Yes
Used interface : Native Win32 interface for Win NT & 2000
Gap handling : Appended to previous track

Used output format : User Defined Encoder
Selected bitrate : 1024 kBit/s
Quality : High
Add ID3 tag : No
Command line compressor : C:\Program Files (x86)\Exact Audio Copy\Flac\flac.exe
Additional command line options : -8 -V -T "COMMENT=ripped by DrStandBy special for new-team.org" -T "ARTIST=%artist%" -T "TITLE=%title%" -T "ALBUM=%albumtitle%" -T "DATE=%year%" -T "TRACKNUMBER=%tracknr%" -T "GENRE=%genre%" %source%


TOC of the extracted CD

Track | Start | Length | Start sector | End sector
––––––––––––––––––––––––––––-
1 | 0:00.00 | 5:40.40 | 0 | 25539
2 | 5:40.40 | 6:23.44 | 25540 | 54308
3 | 12:04.09 | 4:55.51 | 54309 | 76484
4 | 16:59.60 | 5:10.61 | 76485 | 99795
5 | 22:10.46 | 5:50.66 | 99796 | 126111
6 | 28:01.37 | 6:36.28 | 126112 | 155839
7 | 34:37.65 | 5:34.25 | 155840 | 180914
8 | 40:12.15 | 3:32.09 | 180915 | 196823
9 | 43:44.24 | 4:51.53 | 196824 | 218701
10 | 48:36.02 | 4:59.38 | 218702 | 241164
11 | 53:35.40 | 7:51.72 | 241165 | 276561
12 | 61:27.37 | 4:34.23 | 276562 | 297134
13 | 66:01.60 | 3:17.05 | 297135 | 311914


Track 1

Filename I:\2015 - VA - York Planet Chill- The Best of Volume I (ZYX 82798-2)\2-01. Delerium - A Poem for Byzantium.wav

Pre-gap length 0:00:02.00

Peak level 81.5 %
Extraction speed 2.1 X
Track quality 100.0 %
Test CRC 848927BA
Copy CRC 848927BA
Track not present in AccurateRip database
Copy OK

Track 2

Filename I:\2015 - VA - York Planet Chill- The Best of Volume I (ZYX 82798-2)\2-02. Oceanlab - Ashes.wav

Peak level 98.8 %
Extraction speed 2.4 X
Track quality 100.0 %
Test CRC F3A9C59C
Copy CRC F3A9C59C
Track not present in AccurateRip database
Copy OK

Track 3

Filename I:\2015 - VA - York Planet Chill- The Best of Volume I (ZYX 82798-2)\2-03. Fauxliage - Rafe.wav

Peak level 81.1 %
Extraction speed 2.6 X
Track quality 100.0 %
Test CRC D747F922
Copy CRC D747F922
Track not present in AccurateRip database
Copy OK

Track 4

Filename I:\2015 - VA - York Planet Chill- The Best of Volume I (ZYX 82798-2)\2-04. York feat. Angie Ott - Circles in the Sand.wav

Peak level 98.8 %
Extraction speed 2.8 X
Track quality 100.0 %
Test CRC B2BE27AB
Copy CRC B2BE27AB
Track not present in AccurateRip database
Copy OK

Track 5

Filename I:\2015 - VA - York Planet Chill- The Best of Volume I (ZYX 82798-2)\2-05. Kenny Fontana - U R the Sun (Toni Riviera Mix).wav

Peak level 63.4 %
Extraction speed 3.0 X
Track quality 100.0 %
Test CRC B365891E
Copy CRC B365891E
Track not present in AccurateRip database
Copy OK

Track 6

Filename I:\2015 - VA - York Planet Chill- The Best of Volume I (ZYX 82798-2)\2-06. Chicane - Sunstroke (White Mix).wav

Peak level 98.8 %
Extraction speed 2.8 X
Track quality 99.9 %
Test CRC 3E7199E4
Copy CRC 3E7199E4
Track not present in AccurateRip database
Copy OK

Track 7

Filename I:\2015 - VA - York Planet Chill- The Best of Volume I (ZYX 82798-2)\2-07. Solarstone - Seven Cities (Ambient Dub).wav

Peak level 98.8 %
Extraction speed 2.8 X
Track quality 99.9 %
Test CRC AD758693
Copy CRC AD758693
Track not present in AccurateRip database
Copy OK

Track 8

Filename I:\2015 - VA - York Planet Chill- The Best of Volume I (ZYX 82798-2)\2-08. Lustral - Everytime (Way Out West Edit).wav

Peak level 71.1 %
Extraction speed 2.4 X
Track quality 99.9 %
Test CRC 583D745E
Copy CRC 583D745E
Track not present in AccurateRip database
Copy OK

Track 9

Filename I:\2015 - VA - York Planet Chill- The Best of Volume I (ZYX 82798-2)\2-09. York with Mohamed Bahi - Maarif 71 (Marco Torrance's Marrakesh Reprise).wav

Peak level 98.8 %
Extraction speed 3.6 X
Track quality 100.0 %
Test CRC 9E968195
Copy CRC 9E968195
Track not present in AccurateRip database
Copy OK

Track 10

Filename I:\2015 - VA - York Planet Chill- The Best of Volume I (ZYX 82798-2)\2-10. Mike Foyle - Shipwrecked (Chill Out Mix).wav

Peak level 98.8 %
Extraction speed 3.7 X
Track quality 100.0 %
Test CRC 98F3E251
Copy CRC 98F3E251
Track not present in AccurateRip database
Copy OK

Track 11

Filename I:\2015 - VA - York Planet Chill- The Best of Volume I (ZYX 82798-2)\2-11. Project Blue Sun - Besame (Palnet Chill Mix).wav

Peak level 78.3 %
Extraction speed 4.1 X
Track quality 100.0 %
Test CRC 9FD93002
Copy CRC 9FD93002
Track not present in AccurateRip database
Copy OK

Track 12

Filename I:\2015 - VA - York Planet Chill- The Best of Volume I (ZYX 82798-2)\2-12. York with Hammer feat. Asheni - Lost in a Circle (R.I.B. & Seven24 Remix).wav

Peak level 64.1 %
Extraction speed 4.0 X
Track quality 100.0 %
Test CRC 00D7D588
Copy CRC 00D7D588
Track not present in AccurateRip database
Copy OK

Track 13

Filename I:\2015 - VA - York Planet Chill- The Best of Volume I (ZYX 82798-2)\2-13. tyDi - Ariana (Chill Out Mix).wav

Peak level 98.8 %
Extraction speed 3.9 X
Track quality 100.0 %
Test CRC 74EDBA34
Copy CRC 74EDBA34
Track not present in AccurateRip database
Copy OK


None of the tracks are present in the AccurateRip database

No errors occurred

End of status report

–– CUETools DB Plugin V2.1.6

[CTDB TOCID: h62Sz6ior1y_kX3oQHBIlEOCiZQ-] found
Submit result: already submitted
Track | CTDB Status
1 | (1/1) Accurately ripped
2 | (1/1) Accurately ripped
3 | (1/1) Accurately ripped
4 | (1/1) Accurately ripped
5 | (1/1) Accurately ripped
6 | (1/1) Accurately ripped
7 | (1/1) Accurately ripped
8 | (1/1) Accurately ripped
9 | (1/1) Accurately ripped
10 | (1/1) Accurately ripped
11 | (1/1) Accurately ripped
12 | (1/1) Accurately ripped
13 | (1/1) Accurately ripped


==== Log checksum 1D5CDE036D498CD5DC9399D3525EFE0F5646AE29DD68D365EF49F12D4D25852D ====

[CUETools log; Date: 19.11.2019 16:48:02; Version: 2.1.4]
[CTDB TOCID: h62Sz6ior1y_kX3oQHBIlEOCiZQ-] found.
Track | CTDB Status
1 | (1/1) Accurately ripped
2 | (1/1) Accurately ripped
3 | (1/1) Accurately ripped
4 | (1/1) Accurately ripped
5 | (1/1) Accurately ripped
6 | (1/1) Accurately ripped
7 | (1/1) Accurately ripped
8 | (1/1) Accurately ripped
9 | (1/1) Accurately ripped
10 | (1/1) Accurately ripped
11 | (1/1) Accurately ripped
12 | (1/1) Accurately ripped
13 | (1/1) Accurately ripped
[AccurateRip ID: 00228134-0156ea90-b6103e0d] found.
Track [ CRC | V2 ] Status
01 [93d8b585|577c69cc] (0+2/2) Accurately ripped
02 [41c0f127|3fb0463c] (0+2/2) Accurately ripped
03 [5944013f|71da3073] (0+2/2) Accurately ripped
04 [c5608ad7|c0635746] (0+2/2) Accurately ripped
05 [fb1acebb|497c2b5a] (0+2/2) Accurately ripped
06 [d000e0e7|5fdaa5f4] (0+2/2) Accurately ripped
07 [9cf32805|d1de3d06] (0+2/2) Accurately ripped
08 [3735f465|70210c12] (0+2/2) Accurately ripped
09 [d7444601|4cceee7b] (0+2/2) Accurately ripped
10 [02db6b2d|7aff7d1c] (0+2/2) Accurately ripped
11 [1abacc91|b534301c] (0+2/2) Accurately ripped
12 [2bc5277d|bc617c14] (0+2/2) Accurately ripped
13 [f358ccd9|1930238b] (0+2/2) Accurately ripped

Track Peak [ CRC32 ] [W/O NULL] [ LOG ]
– 98,8 [C5295F3D] [FF451A29]
01 81,5 [848927BA] [968250F2] CRC32
02 98,8 [F3A9C59C] [41766432] CRC32
03 81,1 [D747F922] [FB23C162] CRC32
04 98,8 [B2BE27AB] [87EAF4F7] CRC32
05 63,4 [B365891E] [6703C700] CRC32
06 98,8 [3E7199E4] [E3E3F9A6] CRC32
07 98,8 [AD758693] [3590C14F] CRC32
08 71,1 [583D745E] [ACFFDA88] CRC32
09 98,8 [9E968195] [0484A406] CRC32
10 98,8 [98F3E251] [6F44FC5A] CRC32
11 78,3 [9FD93002] [D48F2209] CRC32
12 64,1 [00D7D588] [6A3492CC] CRC32
13 98,8 [74EDBA34] [BFC3D647] CRC32

Thanks to DrStandBy

See also:
York - Traveller (2016)