Subcategories

VA - Young Gifted & Blues (2012)

Posted By: jclane
VA - Young Gifted & Blues (2012)

VA - Young Gifted & Blues (2012)
EAC Rip | FLAC Image + Cue + Log | Scans Included | 383 MB
MP3 CBR @320 kbps (LAME 3.99) | Joint Stereo | 136 MB
Future Records | #: 2100003564689 | Blues

Young Gifted & Blues CD compilation contains 15 tracks featured by The Strypes, Ginger St James, Joanne Shaw Taylor, Krissy Matthews, Danny Giles, The Mentulls and more.
Track Listing

01. The Strypes - You Can't Judge A Book By The Cover
02. Crow Black Chicken - White Lightning
03. Gruhak - Take Me To Heaven
04. Lucy Zirins - Hours To Waste
05. Liam Tarpey Band - Krypto Blues
06. Ginger St James - Please Mr Driver
07. Oli Brown - Solid Ground
08. Joanne Shaw Taylor - Almost Always Never
09. Jo Harman & Co - Sweet Man Moses
10. Krissy Matthews - Feeling For The Blues
11. Cherry Lee Mewis - Man Overboard
12. Hooson - Hard To Breathe
13. Danny Giles - I Won't Let Love
14. The Mentulls - I Got The Blues
15. Alister Atkin - Beautiful Child


Exact Audio Copy V1.0 beta 2 from 29. April 2011

Отчёт EAC об извлечении, выполненном 9. февраля 2013, 17:29

Various / Young Gifted & Blues

Дисковод: ATAPI iHAS124 B Adapter: 1 ID: 1

Режим чтения : Достоверность
Использование точного потока : Да
Отключение кэша аудио : Да
Использование указателей C2 : Нет

Коррекция смещения при чтении : 6
Способность читать области Lead-in и Lead-out : Нет
Заполнение пропущенных сэмплов тишиной : Да
Удаление блоков с тишиной в начале и конце : Нет
При вычислениях CRC использовались нулевые сэмплы : Да
Интерфейс : Встроенный Win32-интерфейс для Win NT/2000

Выходной формат : Пользовательский кодировщик
Выбранный битрейт : 1024 kBit/s
Качество : Высокий
Добавление ID3-тега : Нет
Утилита сжатия : C:\Program Files\Exact Audio Copy\FLAC\FLAC.EXE
Дополнительные параметры : -6 -V -T "ARTIST=%artist%" -T "TITLE=%title%" -T "ALBUM=%albumtitle%" -T "DATE=%year%" -T "TRACKNUMBER=%tracknr%" -T "GENRE=%genre%" -T "COMMENT=%comment%" -T "BAND=%albuminterpret%" -T "COMPOSER=%composer%" %haslyrics%–tag-from-

TOC извлечённого CD

Трек | Старт | Длительность | Начальный сектор | Конечный сектор
––––––––––––––––––––––––––––––––––-
1 | 0:00.00 | 2:24.46 | 0 | 10845
2 | 2:24.46 | 4:10.17 | 10846 | 29612
3 | 6:34.63 | 3:16.39 | 29613 | 44351
4 | 9:51.27 | 3:38.72 | 44352 | 60773
5 | 13:30.24 | 4:35.65 | 60774 | 81463
6 | 18:06.14 | 2:54.70 | 81464 | 94583
7 | 21:01.09 | 3:35.41 | 94584 | 110749
8 | 24:36.50 | 3:50.36 | 110750 | 128035
9 | 28:27.11 | 5:45.65 | 128036 | 153975
10 | 34:13.01 | 3:35.00 | 153976 | 170100
11 | 37:48.01 | 3:14.24 | 170101 | 184674
12 | 41:02.25 | 3:41.22 | 184675 | 201271
13 | 44:43.47 | 4:35.72 | 201272 | 221968
14 | 49:19.44 | 3:25.60 | 221969 | 237403
15 | 52:45.29 | 5:12.17 | 237404 | 260820

Характеристики диапазона извлечения и сообщения об ошибках

Выбранный диапазон

Имя файла D:\Muzika\VA - Young Gifted & Blues (2012)\Various - Young Gifted & Blues.wav

Пиковый уровень 100.0 %
Скорость извлечения 8.3 X
Качество диапазона 100.0 %
CRC теста 2504752C
CRC копии 2504752C
Копирование… OK

Ошибок не произошло

AccurateRip: сводка

Трек 1 : извлечено точно (доверие 2) [BCBE1AEA] (AR v2)
Трек 2 : извлечено точно (доверие 2) [C3EC38D2] (AR v2)
Трек 3 : извлечено точно (доверие 2) [3930DCCE] (AR v2)
Трек 4 : извлечено точно (доверие 2) [AFC548D1] (AR v2)
Трек 5 : извлечено точно (доверие 2) [B7901E77] (AR v2)
Трек 6 : извлечено точно (доверие 2) [76E8CA4D] (AR v2)
Трек 7 : извлечено точно (доверие 2) [32549DA0] (AR v2)
Трек 8 : извлечено точно (доверие 2) [7FBB1859] (AR v2)
Трек 9 : извлечено точно (доверие 2) [7808320B] (AR v2)
Трек 10 : извлечено точно (доверие 2) [55F2CAB2] (AR v2)
Трек 11 : извлечено точно (доверие 2) [29E17335] (AR v2)
Трек 12 : извлечено точно (доверие 2) [F6A0E304] (AR v2)
Трек 13 : извлечено точно (доверие 2) [22AC6CB3] (AR v2)
Трек 14 : извлечено точно (доверие 2) [007B7FE8] (AR v2)
Трек 15 : извлечено точно (доверие 2) [D8274364] (AR v2)

Все треки извлечены точно

Конец отчёта

==== Контрольная сумма отчёта BC0B90615E58B95C5154DFC7B629814E8F22DFDFA3F465D237DA416CD3651158 ====


[CUETools log; Date: 22/02/2013 01:10:37 p.m.; Version: 2.1.4]
[AccurateRip ID: 001e5fed-015ce963-dc0d950f] found.
Track [ CRC | V2 ] Status
01 [1a2adc33|bcbe1aea] (0+2/2) Accurately ripped
02 [df62c9f7|c3ec38d2] (0+2/2) Accurately ripped
03 [a480cfee|3930dcce] (0+2/2) Accurately ripped
04 [ca61f8c3|afc548d1] (0+2/2) Accurately ripped
05 [71de46fd|b7901e77] (0+2/2) Accurately ripped
06 [676c0884|76e8ca4d] (0+2/2) Accurately ripped
07 [8b93bec9|32549da0] (0+2/2) Accurately ripped
08 [890ff4f9|7fbb1859] (0+2/2) Accurately ripped
09 [5c0e642c|7808320b] (0+2/2) Accurately ripped
10 [ad760faf|55f2cab2] (0+2/2) Accurately ripped
11 [81980af8|29e17335] (0+2/2) Accurately ripped
12 [744b1011|f6a0e304] (0+2/2) Accurately ripped
13 [ac832989|22ac6cb3] (0+2/2) Accurately ripped
14 [d10f82f8|007b7fe8] (0+2/2) Accurately ripped
15 [93090c39|d8274364] (0+2/2) Accurately ripped

Track Peak [ CRC32 ] [W/O NULL] [ LOG ]
– 100.0 [2504752C] [BDDE0D69] CRC32
01 100.0 [3CE3CCCA] [9E5DAA66]
02 94.5 [2F85F4CD] [254E5D89]
03 95.4 [BAB1F59B] [FE5E2002]
04 85.6 [9F137BC2] [0DBD4915]
05 98.3 [89756FF0] [353FADAB]
06 99.4 [FEEFBDA0] [8530251D]
07 96.5 [39E7213A] [951C2E3F]
08 100.0 [A6B1EFBC] [DB4E3B7A]
09 100.0 [2F94EFEA] [36BB7518]
10 98.8 [4C6A872E] [AAD46D87]
11 100.0 [3548480C] [40A076D2]
12 98.8 [6B947F7C] [F01EBA45]
13 66.3 [9473677A] [154B096F]
14 100.0 [F09FF86C] [D541D6AB]
15 98.8 [931C2985] [D64E7F8C]


Released Date: 2012
Format: CD, Compilation
Length: 69:22

VA - Young Gifted & Blues (2012)
VA - Young Gifted & Blues (2012)

******************************************************

Many Thanks to audelas

The files are interchangeable!