Subcategories

V.A. - 40 Jahre Disco: 70's Disco [2CD] (2011)

Posted By: Andi_Deris
V.A. - 40 Jahre Disco: 70's Disco [2CD] (2011)

V.A. - 40 Jahre Disco: 70's Disco [2CD] (2011)
EAC Rip | FLAC: Image+Cue+Log | 1 Gb | MP3 CBR 320 kbps | 338 Mb | Scans | 179 Mb
Genre: Pop, Disco | Label: Sony Music (Germany) | Cat.№: 88697 82501 2

This is a great collection of 70's songs with many hits. All should be familiar to anyone who grew up in the 70's or just likes the music. As well as the famous disco tunes that we all know so well, you also get tons of lesser known foot stomping gems.



V.A. - 40 Jahre Disco: 70's Disco [2CD] (2011)


CD1

01. Boney M. - Ma Baker (4:05)
02. Patrick Hernandez - Born To Be Alive (3:10)
03. John Paul Young - Standing In The Rain (4:08)
04. George McCrae - Rock Your Baby (3:19)
05. Hot Chocolate - You Sexy Thing (4:01)
06. Marianne Rosenberg - Lieder Der Nacht (2:57)
07. Silver Convention - Get Up And Boogie (3:00)
08. Amanda Lear - Queen Of Chinatown (4:14)
09. Harpo - Moviestar (3:21)
10. Snoopy - No Time For A Tango (2:42)
11. Bay City Rollers - Bye Bye Baby (2:49)
12. Baccara - Sorry, I'm A Lady (3:36)
13. Pussycat - Georgie (2:28)
14. Juliane Werding - Am Tag, Als Conny Kramer Starb (3:25)
15. Sailor - A Glass Of Champagne (2:40)
16. Chicory Tip - Son Of My Father (3:10)
17. Windows - How Do You Do (3:39)
18. Los Bravos - Black Is black (2:55)
19. Clout - Substitute (3:23)
20. The Teens - Gimme Gimme Gimme Your Love (Heartache Number One) (3:36)

V.A. - 40 Jahre Disco: 70's Disco [2CD] (2011)


CD2

01. Albert Hammond - The Free Electric Band (3:23)
02. Kincade - Dreams Are Ten A Penny (2:37)
03. Mungo Jerry - Lady Rose (3:06)
04. Udo Lindenberg & Das Panikorchester - Alles Klar Auf Der Andrea Doria (3:45)
05. Smokie - If You Think You Know How To Love Me (3:23)
06. Lobo - I'd Love You To Want Me (4:00)
07. Rod Stewart - Maggie May (5:13)
08. Bonnie Tyler - Lost In France (3:52)
09. Peter Maffay - Ein Bild Kann Nicht Lachen So Wie Du (4:40)
10. Fox - Only You Can (3:26)
11. Middle Of The Road - Bottoms Up (3:13)
12. Oliver Onions - Orzowei (3:43)
13. Les Humphries Singers - Mama Loo (3:44)
14. Dschinghis Khan - Dschinghis Khan (3:02)
15. Showaddywaddy - Under The Moon Of Love (3:03)
16. Hello - New York Groove (2:45)
17. Gary Glitter - I Love You Love Me Love (3:09)
18. Suzi Quatro - 48 Crash (3:52)
19. 5000 Volts - I'm On Fire (2:49)
20. Village People - In The Navy (Bonus track) (5:38)

V.A. - 40 Jahre Disco: 70's Disco [2CD] (2011)


Exact Audio Copy V0.99 prebeta 5 from 4. May 2009

Отчёт EAC об извлечении, выполненном 8. апреля 2011, 21:58

Various / 70's Disco - 40 Jahre Disco - Ilja Richter Prasentiert CD 1

Дисковод: PIONEER DVD-RW DVR-107D Adapter: 3 ID: 0

Режим чтения : Достоверность
Использование точного потока : Да
Отключение кэша аудио : Да
Использование указателей C2 : Нет

Коррекция смещения при чтении : 48
Способность читать области Lead-in и Lead-out : Нет
Заполнение пропущенных сэмплов тишиной : Да
Удаление блоков с тишиной в начале и конце : Нет
При вычислениях CRC использовались нулевые сэмплы : Да
Интерфейс : Встроенный Win32-интерфейс для Win NT/2000

Выходной формат : Внутренние WAV-операции
Формат сэмплов : 44.100 Гц; 16 бит; стерео


TOC извлечённого CD

Трек | Старт | Длительность | Начальный сектор | Конечный сектор
––––––––––––––––––––––––––––––––––-
1 | 0:00.00 | 4:05.70 | 0 | 18444
2 | 4:05.70 | 3:10.37 | 18445 | 32731
3 | 7:16.32 | 4:08.38 | 32732 | 51369
4 | 11:24.70 | 3:19.09 | 51370 | 66303
5 | 14:44.04 | 4:01.71 | 66304 | 84449
6 | 18:46.00 | 2:57.62 | 84450 | 97786
7 | 21:43.62 | 3:00.22 | 97787 | 111308
8 | 24:44.09 | 4:14.00 | 111309 | 130358
9 | 28:58.09 | 3:21.48 | 130359 | 145481
10 | 32:19.57 | 2:42.18 | 145482 | 157649
11 | 35:02.00 | 2:49.56 | 157650 | 170380
12 | 37:51.56 | 3:36.35 | 170381 | 186615
13 | 41:28.16 | 2:28.19 | 186616 | 197734
14 | 43:56.35 | 3:25.40 | 197735 | 213149
15 | 47:22.00 | 2:40.00 | 213150 | 225149
16 | 50:02.00 | 3:10.70 | 225150 | 239469
17 | 53:12.70 | 3:39.61 | 239470 | 255955
18 | 56:52.56 | 2:55.47 | 255956 | 269127
19 | 59:48.28 | 3:23.47 | 269128 | 284399
20 | 63:12.00 | 3:36.70 | 284400 | 300669


Характеристики диапазона извлечения и сообщения об ошибках

Выбранный диапазон

Имя файла D:\All\Music\Various - 70's Disco - 40 Jahre Disco - Ilja Richter Prasentiert\Various - 70's Disco - 40 Jahre Disco - Ilja Richter Prasentiert CD 1\Various - 70's Disco - 40 Jahre Disco - Ilja Richter Prasentiert CD 1.wav

Пиковый уровень 98.8 %
Качество диапазона 100.0 %
CRC теста EEDE39D3
CRC копии EEDE39D3
Копирование… OK

Ошибок не произошло


AccurateRip: сводка

Трек 1 нет в базе данных
Трек 2 нет в базе данных
Трек 3 нет в базе данных
Трек 4 нет в базе данных
Трек 5 нет в базе данных
Трек 6 нет в базе данных
Трек 7 нет в базе данных
Трек 8 нет в базе данных
Трек 9 нет в базе данных
Трек 10 нет в базе данных
Трек 11 нет в базе данных
Трек 12 нет в базе данных
Трек 13 нет в базе данных
Трек 14 нет в базе данных
Трек 15 нет в базе данных
Трек 16 нет в базе данных
Трек 17 нет в базе данных
Трек 18 нет в базе данных
Трек 19 нет в базе данных
Трек 20 нет в базе данных

Ни одного трека нет в базе AccurateRip

Конец отчёта

Exact Audio Copy V0.99 prebeta 5 from 4. May 2009

Отчёт EAC об извлечении, выполненном 8. апреля 2011, 22:21

Various / 70's Disco - 40 Jahre Disco - Ilja Richter Prasentiert CD 2

Дисковод: PIONEER DVD-RW DVR-107D Adapter: 3 ID: 0

Режим чтения : Достоверность
Использование точного потока : Да
Отключение кэша аудио : Да
Использование указателей C2 : Нет

Коррекция смещения при чтении : 48
Способность читать области Lead-in и Lead-out : Нет
Заполнение пропущенных сэмплов тишиной : Да
Удаление блоков с тишиной в начале и конце : Нет
При вычислениях CRC использовались нулевые сэмплы : Да
Интерфейс : Встроенный Win32-интерфейс для Win NT/2000

Выходной формат : Внутренние WAV-операции
Формат сэмплов : 44.100 Гц; 16 бит; стерео


TOC извлечённого CD

Трек | Старт | Длительность | Начальный сектор | Конечный сектор
––––––––––––––––––––––––––––––––––-
1 | 0:00.00 | 3:23.66 | 0 | 15290
2 | 3:23.66 | 2:37.06 | 15291 | 27071
3 | 6:00.72 | 3:06.07 | 27072 | 41028
4 | 9:07.04 | 3:45.44 | 41029 | 57947
5 | 12:52.48 | 3:23.28 | 57948 | 73200
6 | 16:16.01 | 4:00.05 | 73201 | 91205
7 | 20:16.06 | 5:13.55 | 91206 | 114735
8 | 25:29.61 | 3:52.37 | 114736 | 132172
9 | 29:22.23 | 4:40.41 | 132173 | 153213
10 | 34:02.64 | 3:26.24 | 153214 | 168687
11 | 37:29.13 | 3:13.68 | 168688 | 183230
12 | 40:43.06 | 3:43.09 | 183231 | 199964
13 | 44:26.15 | 3:44.49 | 199965 | 216813
14 | 48:10.64 | 3:02.37 | 216814 | 230500
15 | 51:13.26 | 3:03.42 | 230501 | 244267
16 | 54:16.68 | 2:45.36 | 244268 | 256678
17 | 57:02.29 | 3:09.36 | 256679 | 270889
18 | 60:11.65 | 3:52.36 | 270890 | 288325
19 | 64:04.26 | 2:49.56 | 288326 | 301056
20 | 66:54.07 | 5:38.41 | 301057 | 326447


Характеристики диапазона извлечения и сообщения об ошибках

Выбранный диапазон

Имя файла D:\All\Music\Various - 70's Disco - 40 Jahre Disco - Ilja Richter Prasentiert\Various - 70's Disco - 40 Jahre Disco - Ilja Richter Prasentiert CD 2\Various - 70's Disco - 40 Jahre Disco - Ilja Richter Prasentiert CD 2.wav

Пиковый уровень 98.8 %
Качество диапазона 100.0 %
CRC теста 9962742B
CRC копии 9962742B
Копирование… OK

Ошибок не произошло


AccurateRip: сводка

Трек 1 нет в базе данных
Трек 2 нет в базе данных
Трек 3 нет в базе данных
Трек 4 нет в базе данных
Трек 5 нет в базе данных
Трек 6 нет в базе данных
Трек 7 нет в базе данных
Трек 8 нет в базе данных
Трек 9 нет в базе данных
Трек 10 нет в базе данных
Трек 11 нет в базе данных
Трек 12 нет в базе данных
Трек 13 нет в базе данных
Трек 14 нет в базе данных
Трек 15 нет в базе данных
Трек 16 нет в базе данных
Трек 17 нет в базе данных
Трек 18 нет в базе данных
Трек 19 нет в базе данных
Трек 20 нет в базе данных

Ни одного трека нет в базе AccurateRip

Конец отчёта


Many thanks to the original uploader: Pol Alex

–––––––––
Nitroflare