Subcategories

V.A. - 40 Jahre Disco: Schlager Disco [2CD] (2011)

Posted By: Andi_Deris
V.A. - 40 Jahre Disco: Schlager Disco [2CD] (2011)

V.A. - 40 Jahre Disco: Schlager Disco [2CD] (2011)
EAC Rip | FLAC: Image+Cue+Log | 975 Mb | MP3 CBR 320 kbps | 334 Mb | Scans | 182 Mb
Genre: Pop, Rock, Disco | Label: Sony Music (Germany) | Cat.№: 88697 82497 2

Schlager Disco: It’s sweet, it’s yummy - this is one of the most popular dances for two that can be danced on each floor! After the success of disc 1, CD2 is not just as good - it is much better!



V.A. - 40 Jahre Disco: Schlager Disco [2CD] (2011)


CD1

01. Peter Maffay - Josie (4:05)
02. Wolfgang Ambros - I Bin's Ned (3:01)
03. Stefan Hallberg - Hotel California (5:51)
04. Georg Danzer - Jetzt Oder Nie (5:10)
05. Beatles Revival Band - Ein Harter Tag (2:28)
06. Holger Thomas - Er Hat 'Ne Punk-Rock-Band In Oberhausen (3:18)
07. Volker Lechtenbrink - Leben So Wie Ich Es Mag (3:34)
08. Jutta Weinhold - Cadillac (3:29)
09. Benny - Bin Wieder Frei (3:06)
10. Rudolf Rock Und Die Schocker - Das Ist Ne Party (3:04)
11. Helga Feddersen & Dieter Hallervorden - Du Die Wanne Ist Voll (3:06)
12. Willem - Tarzan Ist Wieder Da (4:07)
13. Gebruder Blattschuss - Kreuzberger Nachte (3:23)
14. Frank Zander - Oh, Susi (4:10)
15. Inga & Wolf - Gute Nacht Freunde (3:01)
16. Wolfgang Petry - Gianna (Liebe Im Auto) (3:39)
17. Hoffmann & Hoffmann - Himbeereis Zum Fruhstuck (3:39)
18. Marianne Rosenberg - Marleen (4:12)
19. Bernhard Brink - Frei Und Abgebrannt (3:55)

V.A. - 40 Jahre Disco: Schlager Disco [2CD] (2011)


CD2

01. Drafi Deutscher - Marmor, Stein Und Eisen Bricht (2:37)
02. Jack White - Mit All Deiner Liebe (2:49)
03. Michael Holm - Mendocino (2:32)
04. Daisy Door - Strasse Der Vergangenheit (3:12)
05. Frank Farian - Spring Uber Deinen Schatten, Tommy (4:30)
06. Lars Berghagen - Es War Einmal Eine Gitarre (3:23)
07. Christian Anders - In Den Augen Der Andern (2:25)
08. Tony - Madchen Mit Roten Haaren (4:39)
09. Chris Roberts - Ich Mach Ein Gluckliches Madchen Aus Dir (2:39)
10. Costa Cordalis - Steig In Das Boot Heute Nacht, Anna Lena (3:15)
11. Saragossa Band - Zabadak (3:59)
12. Dschinghis Khan - Moskau (4:32)
13. Gunter Gabriel - Will Klein, Der Fernsehmann (3:37)
14. Truck Stop - Ich Mocht' So Gern Dave Dudley Hor'n (3:27)
15. Howard Carpendale - Nachts, Wenn Alles Schlaft (4:51)
16. Demis Roussos - Goodbye, My Love Goodbye (3:55)
17. Barry Ryan - Zeit Macht Nur Vor Dem Teufel Halt (2:43)
18. Jurgen Marcus - Ein Festival Der Liebe (2:27)
19. Rex Gildo - Fiesta Mexicana (3:05)
20. Ilja Richter - Tip Tap In Die Tulpen (Bonustrack) (2:10)

V.A. - 40 Jahre Disco: Schlager Disco [2CD] (2011)


Exact Audio Copy V0.99 prebeta 5 from 4. May 2009

Отчёт EAC об извлечении, выполненном 8. апреля 2011, 22:54

Various / Schlager Disco - 40 Jahre Disco - Ilja Richter Prasentiert CD 1

Дисковод: PIONEER DVD-RW DVR-107D Adapter: 3 ID: 0

Режим чтения : Достоверность
Использование точного потока : Да
Отключение кэша аудио : Да
Использование указателей C2 : Нет

Коррекция смещения при чтении : 48
Способность читать области Lead-in и Lead-out : Нет
Заполнение пропущенных сэмплов тишиной : Да
Удаление блоков с тишиной в начале и конце : Нет
При вычислениях CRC использовались нулевые сэмплы : Да
Интерфейс : Встроенный Win32-интерфейс для Win NT/2000

Выходной формат : Внутренние WAV-операции
Формат сэмплов : 44.100 Гц; 16 бит; стерео


TOC извлечённого CD

Трек | Старт | Длительность | Начальный сектор | Конечный сектор
––––––––––––––––––––––––––––––––––-
1 | 0:00.00 | 4:05.53 | 0 | 18427
2 | 4:05.53 | 3:01.34 | 18428 | 32036
3 | 7:07.12 | 5:51.17 | 32037 | 58378
4 | 12:58.29 | 5:10.08 | 58379 | 81636
5 | 18:08.37 | 2:28.31 | 81637 | 92767
6 | 20:36.68 | 3:18.03 | 92768 | 107620
7 | 23:54.71 | 3:34.69 | 107621 | 123739
8 | 27:29.65 | 3:29.11 | 123740 | 139425
9 | 30:59.01 | 3:06.58 | 139426 | 153433
10 | 34:05.59 | 3:04.14 | 153434 | 167247
11 | 37:09.73 | 3:06.61 | 167248 | 181258
12 | 40:16.59 | 4:07.41 | 181259 | 199824
13 | 44:24.25 | 3:23.71 | 199825 | 215120
14 | 47:48.21 | 4:10.25 | 215121 | 233895
15 | 51:58.46 | 3:01.23 | 233896 | 247493
16 | 54:59.69 | 3:39.61 | 247494 | 263979
17 | 58:39.55 | 3:39.60 | 263980 | 280464
18 | 62:19.40 | 4:12.22 | 280465 | 299386
19 | 66:31.62 | 3:55.25 | 299387 | 317036


Характеристики диапазона извлечения и сообщения об ошибках

Выбранный диапазон

Имя файла D:\All\Music\Various - Schlager Disco - 40 Jahre Disco - Ilja Richter Prasentiert\Various - Schlager Disco - 40 Jahre Disco - Ilja Richter Prasentiert CD 1\Various - Schlager Disco - 40 Jahre Disco - Ilja Richter Prasentiert CD 1.wav

Пиковый уровень 98.8 %
Качество диапазона 99.9 %
CRC теста CB973B08
CRC копии CB973B08
Копирование… OK

Ошибок не произошло


AccurateRip: сводка

Трек 1 нет в базе данных
Трек 2 нет в базе данных
Трек 3 нет в базе данных
Трек 4 нет в базе данных
Трек 5 нет в базе данных
Трек 6 нет в базе данных
Трек 7 нет в базе данных
Трек 8 нет в базе данных
Трек 9 нет в базе данных
Трек 10 нет в базе данных
Трек 11 нет в базе данных
Трек 12 нет в базе данных
Трек 13 нет в базе данных
Трек 14 нет в базе данных
Трек 15 нет в базе данных
Трек 16 нет в базе данных
Трек 17 нет в базе данных
Трек 18 нет в базе данных
Трек 19 нет в базе данных

Ни одного трека нет в базе AccurateRip

Конец отчёта

Exact Audio Copy V0.99 prebeta 5 from 4. May 2009

Отчёт EAC об извлечении, выполненном 8. апреля 2011, 23:26

Various / Schlager Disco - 40 Jahre Disco - Ilja Richter Prasentiert CD 2

Дисковод: PIONEER DVD-RW DVR-107D Adapter: 3 ID: 0

Режим чтения : Достоверность
Использование точного потока : Да
Отключение кэша аудио : Да
Использование указателей C2 : Нет

Коррекция смещения при чтении : 48
Способность читать области Lead-in и Lead-out : Нет
Заполнение пропущенных сэмплов тишиной : Да
Удаление блоков с тишиной в начале и конце : Нет
При вычислениях CRC использовались нулевые сэмплы : Да
Интерфейс : Встроенный Win32-интерфейс для Win NT/2000

Выходной формат : Внутренние WAV-операции
Формат сэмплов : 44.100 Гц; 16 бит; стерео


TOC извлечённого CD

Трек | Старт | Длительность | Начальный сектор | Конечный сектор
––––––––––––––––––––––––––––––––––-
1 | 0:00.00 | 2:37.18 | 0 | 11792
2 | 2:37.18 | 2:49.62 | 11793 | 24529
3 | 5:27.05 | 2:32.00 | 24530 | 35929
4 | 7:59.05 | 3:12.71 | 35930 | 50400
5 | 11:12.01 | 4:30.18 | 50401 | 70668
6 | 15:42.19 | 3:23.67 | 70669 | 85960
7 | 19:06.11 | 2:25.68 | 85961 | 96903
8 | 21:32.04 | 4:39.62 | 96904 | 117890
9 | 26:11.66 | 2:39.34 | 117891 | 129849
10 | 28:51.25 | 3:15.52 | 129850 | 144526
11 | 32:07.02 | 3:59.04 | 144527 | 162455
12 | 36:06.06 | 4:32.58 | 162456 | 182913
13 | 40:38.64 | 3:37.00 | 182914 | 199188
14 | 44:15.64 | 3:27.35 | 199189 | 214748
15 | 47:43.24 | 4:51.33 | 214749 | 236606
16 | 52:34.57 | 3:55.67 | 236607 | 254298
17 | 56:30.49 | 2:43.01 | 254299 | 266524
18 | 59:13.50 | 2:27.53 | 266525 | 277602
19 | 61:41.28 | 3:05.15 | 277603 | 291492
20 | 64:46.43 | 2:10.42 | 291493 | 301284


Характеристики диапазона извлечения и сообщения об ошибках

Выбранный диапазон

Имя файла D:\All\Music\Various - Schlager Disco - 40 Jahre Disco - Ilja Richter Prasentiert\Various - Schlager Disco - 40 Jahre Disco - Ilja Richter Prasentiert CD 2\Various - Schlager Disco - 40 Jahre Disco - Ilja Richter Prasentiert CD 2.wav

Пиковый уровень 98.8 %
Качество диапазона 100.0 %
CRC теста 7722B51B
CRC копии 7722B51B
Копирование… OK

Ошибок не произошло


AccurateRip: сводка

Трек 1 нет в базе данных
Трек 2 нет в базе данных
Трек 3 нет в базе данных
Трек 4 нет в базе данных
Трек 5 нет в базе данных
Трек 6 нет в базе данных
Трек 7 нет в базе данных
Трек 8 нет в базе данных
Трек 9 нет в базе данных
Трек 10 нет в базе данных
Трек 11 нет в базе данных
Трек 12 нет в базе данных
Трек 13 нет в базе данных
Трек 14 нет в базе данных
Трек 15 нет в базе данных
Трек 16 нет в базе данных
Трек 17 нет в базе данных
Трек 18 нет в базе данных
Трек 19 нет в базе данных
Трек 20 нет в базе данных

Ни одного трека нет в базе AccurateRip

Конец отчёта


Many thanks to the original uploader: Pol Alex

–––––––––
Nitroflare