Subcategories

V.A. - 40 Jahre Disco: The Disco Pop Years [2CD] (2011)

Posted By: Andi_Deris
V.A. - 40 Jahre Disco: The Disco Pop Years [2CD] (2011)

V.A. - 40 Jahre Disco: The Disco Pop Years [2CD] (2011)
EAC Rip | FLAC: Image+Cue+Log | 954 Mb | MP3 CBR 320 kbps | 330 Mb | Scans | 181 Mb
Genre: Pop, Rock, Disco | Label: Sony Music (Germany) | Cat.№: 88697 82494 2

“The Disco Pop Years” is a true collector's item featuring all the stars of the genre… delight all those who loved the others parts!



V.A. - 40 Jahre Disco: The Disco Pop Years [2CD] (2011)


CD1

01. The Rubettes - Sugar Baby Love (3:28)
02. Leif Garrett - Surfin' USA (2:21)
03. La Bionda - Baby Make Love (3:36)
04. Shakin' Stevens - Marie, Marie (2:43)
05. Darts - Reet Petite (2:52)
06. Georgie Fame & Alan Price - Rosetta (2:46)
07. Cliff Richard - Power To All Our Friends (3:01)
08. Christie - San Bernadino (3:11)
09. Middle Of The Road - Sacramento (A Wonderful Town) (2:54)
10. Slade - Far Far Away (3:36)
11. Sweet - Co-Co (3:08)
12. T. Rex - Hot Love (4:56)
13. Sailor - One Drink Too Many (4:00)
14. Billy Swan - I Can Help (3:58)
15. Albert Hammond - I'm A Train (3:19)
16. Don McLean - American Pie (Part 1) (4:07)
17. Jurgen Drews - Ein Bett Im Kornfeld (3:33)
18. Bay City Rollers - It's A Game (2:55)
19. The Buggles - Video Killed The Radio Star (3:24)
20. Electric Light Orchestra - Hold On Tight (Bonustrack) (3:06)

V.A. - 40 Jahre Disco: The Disco Pop Years [2CD] (2011)


CD2

01. Tom Jones - She's A Lady (2:53)
02. Tony Christie - I Did What I Did For Maria (3:28)
03. Lynn Anderson - Rose Garden (2:52)
04. The New Seekers - Beg, Steal Or Borrow (2:46)
05. Tony Orlando & Dawn - Knock Three Times (3:00)
06. Chris Andrews - Pretty Belinda (2:37)
07. Mouth & MacNeal - Hello-A (3:59)
08. Oliver Onions - Flying Through The Air (2:50)
09. Brotherhood Of Man - Save Your Kisses For Me (3:01)
10. Luv' - You're The Greatest Lover (2:49)
11. Baccara - Yes Sir, I Can Boogie (4:31)
12. Harpo - Motorcycle Mama (3:24)
13. Smokie - Living Next Door To Alice (3:25)
14. Peter Maffay - Und Es War Sommer (4:05)
15. Boney M. - Rivers Of Babylon (4:14)
16. Al Bano & Romina Power - Sharazan (4:25)
17. Jeanette - Porque Te Vas (3:22)
18. Medicine Head - One And One Is One (3:24)
19. George Baker Selection - Paloma Blanca (3:25)
20. The Alan Parsons Project - Lucifer (Bonustrack) (4:09)

V.A. - 40 Jahre Disco: The Disco Pop Years [2CD] (2011)


Exact Audio Copy V0.99 prebeta 5 from 4. May 2009

Отчёт EAC об извлечении, выполненном 8. апреля 2011, 22:44

Various / The Disco Pop Years - 40 Jahre Disco - Ilja Richter Prasentiert CD 1

Дисковод: Optiarc DVD RW AD-5200A Adapter: 0 ID: 0

Режим чтения : Достоверность
Использование точного потока : Да
Отключение кэша аудио : Да
Использование указателей C2 : Нет

Коррекция смещения при чтении : 48
Способность читать области Lead-in и Lead-out : Нет
Заполнение пропущенных сэмплов тишиной : Да
Удаление блоков с тишиной в начале и конце : Нет
При вычислениях CRC использовались нулевые сэмплы : Да
Интерфейс : Встроенный Win32-интерфейс для Win NT/2000

Выходной формат : Внутренние WAV-операции
Формат сэмплов : 44.100 Гц; 16 бит; стерео


TOC извлечённого CD

Трек | Старт | Длительность | Начальный сектор | Конечный сектор
––––––––––––––––––––––––––––––––––-
1 | 0:00.00 | 3:28.00 | 0 | 15599
2 | 3:28.00 | 2:21.53 | 15600 | 26227
3 | 5:49.53 | 3:36.18 | 26228 | 42445
4 | 9:25.71 | 2:43.71 | 42446 | 54741
5 | 12:09.67 | 2:52.48 | 54742 | 67689
6 | 15:02.40 | 2:46.33 | 67690 | 80172
7 | 17:48.73 | 3:01.12 | 80173 | 93759
8 | 20:50.10 | 3:11.09 | 93760 | 108093
9 | 24:01.19 | 2:54.26 | 108094 | 121169
10 | 26:55.45 | 3:36.50 | 121170 | 137419
11 | 30:32.20 | 3:08.66 | 137420 | 151585
12 | 33:41.11 | 4:56.57 | 151586 | 173842
13 | 38:37.68 | 4:00.12 | 173843 | 191854
14 | 42:38.05 | 3:58.23 | 191855 | 209727
15 | 46:36.28 | 3:19.39 | 209728 | 224691
16 | 49:55.67 | 4:07.44 | 224692 | 243260
17 | 54:03.36 | 3:33.07 | 243261 | 259242
18 | 57:36.43 | 2:55.70 | 259243 | 272437
19 | 60:32.38 | 3:24.28 | 272438 | 287765
20 | 63:56.66 | 3:06.52 | 287766 | 301767


Характеристики диапазона извлечения и сообщения об ошибках

Выбранный диапазон

Имя файла D:\All\Music\Various - The Disco Pop Years - 40 Jahre Disco - Ilja Richter Prasentiert\Various - The Disco Pop Years - 40 Jahre Disco - Ilja Richter Prasentiert CD 1\Various - The Disco Pop Years - 40 Jahre Disco - Ilja Richter Prasentiert

Пиковый уровень 98.8 %
Качество диапазона 99.9 %
CRC теста 2D070294
CRC копии 2D070294
Копирование… OK

Ошибок не произошло


AccurateRip: сводка

Трек 1 точность не определена (достоверность 1) [13C6D31D], AccurateRip вернул [5A14FDDF]
Трек 2 точность не определена (достоверность 1) [065CEA10], AccurateRip вернул [643E7DA3]
Трек 3 точность не определена (достоверность 1) [29762AE2], AccurateRip вернул [6DFCF184]
Трек 4 точность не определена (достоверность 1) [83DD0646], AccurateRip вернул [2EC6184A]
Трек 5 точность не определена (достоверность 1) [C1B1AA2E], AccurateRip вернул [8ABFA95B]
Трек 6 точность не определена (достоверность 1) [843ECE70], AccurateRip вернул [34C294FE]
Трек 7 точность не определена (достоверность 1) [22167A9B], AccurateRip вернул [1C020E74]
Трек 8 точность не определена (достоверность 1) [05F3183E], AccurateRip вернул [CA01719F]
Трек 9 точность не определена (достоверность 1) [408A0FB3], AccurateRip вернул [A1F6D51C]
Трек 10 точность не определена (достоверность 1) [0EF78A11], AccurateRip вернул [CC750E5E]
Трек 11 точность не определена (достоверность 1) [E8AE29DB], AccurateRip вернул [C80284D5]
Трек 12 точность не определена (достоверность 1) [708E58B4], AccurateRip вернул [43112A5B]
Трек 13 точность не определена (достоверность 1) [AA846AC2], AccurateRip вернул [EBFA7FCF]
Трек 14 точность не определена (достоверность 1) [70A0CDF8], AccurateRip вернул [DB479368]
Трек 15 точность не определена (достоверность 1) [41F0EF44], AccurateRip вернул [C1D1F3CB]
Трек 16 точность не определена (достоверность 1) [F872759E], AccurateRip вернул [62C34A7B]
Трек 17 точность не определена (достоверность 1) [5E7785C5], AccurateRip вернул [0DD8CD52]
Трек 18 точность не определена (достоверность 1) [5D9F88F9], AccurateRip вернул [78119C7A]
Трек 19 точность не определена (достоверность 1) [9AEA85C4], AccurateRip вернул [02FCB175]
Трек 20 точность не определена (достоверность 1) [B8ED9A14], AccurateRip вернул [11CD7D35]

Ни один трек не прошёл проверки на точность
В вашей базе может быть иной вариант штамповки диска

Конец отчёта

Exact Audio Copy V0.99 prebeta 5 from 4. May 2009

Отчёт EAC об извлечении, выполненном 9. апреля 2011, 0:30

Various / The Disco Pop Years - 40 Jahre Disco - Ilja Richter Prasentiert CD 2

Дисковод: Optiarc DVD RW AD-5200A Adapter: 0 ID: 0

Режим чтения : Достоверность
Использование точного потока : Да
Отключение кэша аудио : Да
Использование указателей C2 : Нет

Коррекция смещения при чтении : 48
Способность читать области Lead-in и Lead-out : Нет
Заполнение пропущенных сэмплов тишиной : Да
Удаление блоков с тишиной в начале и конце : Нет
При вычислениях CRC использовались нулевые сэмплы : Да
Интерфейс : Встроенный Win32-интерфейс для Win NT/2000

Выходной формат : Внутренние WAV-операции
Формат сэмплов : 44.100 Гц; 16 бит; стерео


TOC извлечённого CD

Трек | Старт | Длительность | Начальный сектор | Конечный сектор
––––––––––––––––––––––––––––––––––-
1 | 0:00.00 | 2:53.43 | 0 | 13017
2 | 2:53.43 | 3:28.53 | 13018 | 28670
3 | 6:22.21 | 2:52.10 | 28671 | 41580
4 | 9:14.31 | 2:46.53 | 41581 | 54083
5 | 12:01.09 | 3:00.01 | 54084 | 67584
6 | 15:01.10 | 2:37.19 | 67585 | 79378
7 | 17:38.29 | 3:59.09 | 79379 | 97312
8 | 21:37.38 | 2:50.45 | 97313 | 110107
9 | 24:28.08 | 3:01.42 | 110108 | 123724
10 | 27:29.50 | 2:49.64 | 123725 | 136463
11 | 30:19.39 | 4:31.51 | 136464 | 156839
12 | 34:51.15 | 3:24.17 | 156840 | 172156
13 | 38:15.32 | 3:25.19 | 172157 | 187550
14 | 41:40.51 | 4:05.44 | 187551 | 205969
15 | 45:46.20 | 4:14.74 | 205970 | 225093
16 | 50:01.19 | 4:25.17 | 225094 | 244985
17 | 54:26.36 | 3:22.46 | 244986 | 260181
18 | 57:49.07 | 3:24.07 | 260182 | 275488
19 | 61:13.14 | 3:25.26 | 275489 | 290889
20 | 64:38.40 | 4:09.65 | 290890 | 309629


Характеристики диапазона извлечения и сообщения об ошибках

Выбранный диапазон

Имя файла D:\All\Music\Various - The Disco Pop Years - 40 Jahre Disco - Ilja Richter Prasentiert\Various - The Disco Pop Years - 40 Jahre Disco - Ilja Richter Prasentiert CD 2\Various - The Disco Pop Years - 40 Jahre Disco - Ilja Richter Prasentiert C

Пиковый уровень 98.8 %
Качество диапазона 100.0 %
CRC теста E2D3B3E9
CRC копии E2D3B3E9
Копирование… OK

Ошибок не произошло


AccurateRip: сводка

Трек 1 точность не определена (достоверность 1) [EEBDFA2A], AccurateRip вернул [5D2A218C]
Трек 2 точность не определена (достоверность 1) [BE11EF75], AccurateRip вернул [21C0A07E]
Трек 3 точность не определена (достоверность 1) [1B3B7042], AccurateRip вернул [1C9330E0]
Трек 4 точность не определена (достоверность 1) [6836D277], AccurateRip вернул [BF26657A]
Трек 5 точность не определена (достоверность 1) [2A8B20FB], AccurateRip вернул [10A28D71]
Трек 6 точность не определена (достоверность 1) [52B0F1C7], AccurateRip вернул [7BA6600D]
Трек 7 точность не определена (достоверность 1) [5B2C96CC], AccurateRip вернул [7AF26503]
Трек 8 точность не определена (достоверность 1) [ED9FA1CF], AccurateRip вернул [825979B2]
Трек 9 точность не определена (достоверность 1) [BC9EDF00], AccurateRip вернул [33503960]
Трек 10 точность не определена (достоверность 1) [C339C9D8], AccurateRip вернул [7DE06F41]
Трек 11 точность не определена (достоверность 1) [1BC03E00], AccurateRip вернул [DDB6A4D9]
Трек 12 точность не определена (достоверность 1) [453176FE], AccurateRip вернул [C9DC5516]
Трек 13 точность не определена (достоверность 1) [C1FF9119], AccurateRip вернул [02517A1F]
Трек 14 точность не определена (достоверность 1) [CA586E21], AccurateRip вернул [BA705294]
Трек 15 точность не определена (достоверность 1) [7A39D6CD], AccurateRip вернул [95DFC581]
Трек 16 точность не определена (достоверность 1) [3615FA88], AccurateRip вернул [B2D46B6E]
Трек 17 точность не определена (достоверность 1) [A136B74B], AccurateRip вернул [7396D770]
Трек 18 точность не определена (достоверность 1) [3B6D36EF], AccurateRip вернул [EE19DD29]
Трек 19 точность не определена (достоверность 1) [C8BC1404], AccurateRip вернул [8473DC4B]
Трек 20 точность не определена (достоверность 1) [5F57EC24], AccurateRip вернул [56480EBF]

Ни один трек не прошёл проверки на точность
В вашей базе может быть иной вариант штамповки диска

Конец отчёта


Many thanks to the original uploader: Pol Alex

–––––––––
Nitroflare