Subcategories

V.A. - The Perfect Jazz Collection 2 (25CD Box Set, 2011)

Posted By: Discograf_man
V.A. - The Perfect Jazz Collection 2 (25CD Box Set, 2011)

V.A. - The Perfect Jazz Collection 2 (25CD Box Set, 2011)
EAC Rip | FLAC (*tracks + .cue,log,scans) | Run Time: 23:29:48 | 7,28 Gb
Genre: Jazz, Fusion | Label: Sony Music

Import 25 CD boxset containing 25 of the finest Jazz albums ever released. Each album is packaged in a card wallet, and the box set includes a 40 page booklet in both English and French. The collection contains the following albums: Duke Ellington - Ellington Uptown; Dave Brubeck - Jazz Goes To College; Louis Armstrong - Satch Plays Fats; Miles Davis - Round About Midnight; Various Artists - The Sound Of Jazz; Charles Mingus - Mingus Ah Um; Sonny Rollins - The Bridge; Paul Desmond - Desmond Blue; Thelonious Monk - Underground; Freddie Hubbard - Straight Life; Mahavishnu Orchestra - Birds Of Fire; Clifford Brown - The Beginning And The End; George Benson - Beyond The Blue Horizon; Herbie Hancock - Thrust; Wayne Shorter - Native Dancer; Gerry Mulligan & Chet Baker - Carnegie Hall; Chet Baker - She Was Too Good To Me; Jim Hall - Concierto; Stanley Clarke - School Days; Return To Forever - Romantic Warrior; Weather Report - 08:30; John McLaughlan, Al Di Meola, & Paco De Lucia - Friday Night In San Francisco; Dexter Gordon - Round Midnight; Carmen McRae - Carmen Sings Monk; Wynton Marsalis - Standard Times Vol.3. Sony.
V.A. - The Perfect Jazz Collection 2 (25CD Box Set, 2011)

Contents:

CD 01 • Duke Ellington - Ellington Uptown (1953)
CD 02 • Dave Brubeck - Jazz Goes To College (1954)
CD 03 • Louis Armstrong - Satch Plays Fats (1955)
CD 04 • Miles Davis - 'Round About Midnight (1956)
CD 05 • V.A. - The Sound of Jazz (1958)
CD 06 • Charles Mingus - Mingus Ah Um (1959)
CD 07 • Paul Desmond - Desmond Blue (1962)
CD 08 • Sonny Rollins - The Bridge (1962)
CD 09 • Thelonious Monk - Underground (1968)
CD 10 • Freddie Hubbard - Straight Life (1970)
CD 11 • George Benson - Beyond The Blue Horizon (1971)
CD 12 • Mahavishnu Orchestra - Birds of Fire (1973)
CD 13 • Clifford Brown - The Beginning And The End (1973)
CD 14 • Chet Baker - She Was Too Good To Me (1974)
CD 15 • Gerry Mulligan & Chet Baker - Carnegie Hall Concert (1974)
CD 16 • Herbie Hancock - Thrust (1974)
CD 17 • Wayne Shorter - Native Dancer (Featuring M. Nascimento) (1975)
CD 18 • Jim Hall - Concierto (1975)
CD 19 • Return To Forever - Romantic Warrior (1976)
CD 20 • Stanley Clarke - School Days (1976)
CD 21 • Weather Report - 8-30 (1979)
CD 22 • Friday Night In San Francisco (1981)
CD 23 • V.A. - Round Midnight (OST) (1986)
CD 24 • Carmen McRae - Carmen Sings Monk (1988)
CD 25 • Wynton Marsalis - Standard Time Vol. 3 (1990)

Disc: 1
1. Skin Deep - Duke Ellington
2. The Mooche - Duke Ellington
3. Take the 'A' Train - Duke Ellington
4. A Tone Parallel to Harlem (The Harlem Suite) - Duke Ellington & His Orchestra
5. Perdido - Duke Ellington
6. Before My Time - Duke Ellington
7. Later - Duke Ellington
8. I Like the Sunrise - Duke Ellington
9. Dance No. 1 - Duke Ellington
10. Dance No. 2 - Duke Ellington
11. Dance No. 3 - Duke Ellington
12. Dance No. 4 - Duke Ellington
13. Dance No. 5 - Duke Ellington

Disc: 2
1. Balcony Rock - The Dave Brubeck Quartet
2. Out of Nowhere - The Dave Brubeck Quartet
3. Le Souk - The Dave Brubeck Quartet
4. Take the "A" Train - The Dave Brubeck Quartet
5. The Song Is You - The Dave Brubeck Quartet
6. Don't Worry 'Bout Me - The Dave Brubeck Quartet
7. I Want to Be Happy - The Dave Brubeck Quartet

Disc: 3
1. Honeysuckle Rose - Louis Armstrong & His All Stars
2. Blue Turning Grey Over You - Louis Armstrong & His All Stars
3. I'm Crazy 'Bout My Baby - Louis Armstrong & His All Stars
4. Squeeze Me - Louis Armstrong & His All Stars
5. Keepin' Out of Mischief Now - Louis Armstrong & His All Stars
6. All That Meat And No Potatoes - Louis Armstrong
7. I've Got a Feeling I'm Falling - Louis Armstrong & His All Stars
8. (What Did I Do To Be So) Black And Blue - Louis Armstrong
9. Ain't Misbehavin' - Louis Armstrong
10. (What Did I Do To Be So) Black And Blue - Louis Armstrong
11. I'm Crazy 'Bout My Baby - Louis Armstrong
12. Blue Turning Grey Over You - Louis Armstrong
13. I've Got a Feeling I'm Falling - Louis Armstrong
14. Squeeze Me - Louis Armstrong
15. (What Did I Do To Be So) Black And Blue - Louis Armstrong
16. Ain't Misbehavin' - Louis Armstrong
17. Blue Turning Grey Over You - Louis Armstrong
18. Keepin' Out of Mischief Now - Louis Armstrong
19. Sweet Savannah Sue - Louis Armstrong
20. That Rhythm Man - Louis Armstrong

Disc: 4
1. 'Round Midnight - Miles Davis
2. Ah-Leu-Cha - Miles Davis
3. All of You - Miles Davis
4. Bye Bye Blackbird - Miles Davis
5. Tadd's Delight - Miles Davis
6. Dear Old Stockholm - Miles Davis
7. Two Bass Hit - Miles Davis
8. Little Melonae - Miles Davis
9. Budo - Miles Davis
10. Sweet Sue, Just You - Miles Davis

Disc: 5
1. Wild Man Blues - Henry Allen & His Orchestra
2. Rosetta - Henry Allen & His Orchestra
3. Fine and Mellow - Billie Holiday with Mal Waldron Allstars
4. Blues - Jimmy Giuffre & Pee Wee Russell
5. I Left My Baby - Count Basie with All-Stars feat. Jimmy Rushing
6. The Train and the River - The Jimmy Giuffre Trio
7. Nervous - Mal Waldron
8. Dickie's Dream - Count Basie with All-Stars
9. Wild Man Blues - Red Allen

Disc: 6
1. Better Git It in Your Soul - Charles Mingus
2. Goodbye Pork Pie Hat - Charles Mingus
3. Boogie Stop Shuffle - Charles Mingus
4. Self-Portrait in Three Colors - Charles Mingus
5. Open Letter To Duke - Charles Mingus
6. Bird Calls - Charles Mingus
7. Fables of Faubus - Charles Mingus
8. Pussy Cat Dues - Charles Mingus
9. Jelly Roll - Charles Mingus
10. Pedal Point Blues - Charles Mingus
11. GG Train - Charles Mingus
12. Girl Of My Dreams - Charles Mingus

Disc: 7
1. My Funny Valentine - Paul Desmond
2. Desmond Blue - Paul Desmond
3. Then I'll Be Tired Of You - Paul Desmond
4. I've Got You Under My Skin - Paul Desmond
5. Late Lament - Paul Desmond
6. I Should Care - Paul Desmond
7. Like Someone In Love - Paul Desmond
8. Ill Wind (You're Blowin' Me No Good) - Paul Desmond
9. Body and Soul - Paul Desmond
10. Autumn Leaves - Paul Desmond
11. Imagination - Paul Desmond
12. Advise and Consent (From "Advise and Consent") - Paul Desmond
13. Autumn Leaves - Paul Desmond
14. Autumn Leaves - Paul Desmond
15. Imagination - Paul Desmond
16. Advise and Consent (From "Advise and Consent") - Paul Desmond

Disc: 8
1. Without a Song - Sonny Rollins
2. Where Are You - Sonny Rollins
3. John S. - Sonny Rollins
4. The Bridge - Sonny Rollins
5. God Bless the Child - Sonny Rollins
6. You Do Something to Me - Sonny Rollins

Disc: 9
1. You Made Me Love You - Aretha Franklin
2. I Told You So - Aretha Franklin
3. Rock-A-Bye Your Baby with a Dixie Melody - Aretha Franklin
4. Nobody Like You - Aretha Franklin
5. Exactly Like You - Aretha Franklin
6. It's So Heartbreakin' - Aretha Franklin
7. Rough Lover - Aretha Franklin
8. Blue Holiday - Aretha Franklin
9. Just for You - Aretha Franklin
10. That Lucky Old Sun - Aretha Franklin
11. I Surrender, Dear - Aretha Franklin
12. Ac-Cent-Tchu-Ate the Positive - Aretha Franklin
13. Introduction to Hard Times - Aretha Franklin
14. Hard Times (No One Knows Better Than I) - Aretha Franklin
15. When They Ask About You - Aretha Franklin
16. Operation Heartbreak - Aretha Franklin
17. I Surrender, Dear - Aretha Franklin
18. Rough Lover - Aretha Franklin
19. Kissin' By the Mistletoe - Aretha Franklin

Disc: 10
1. It Be's That Way Sometime - Nina Simone
2. The Look of Love - Nina Simone
3. Go to Hell - Nina Simone
4. Love O' Love - Nina Simone
5. Cherish - Nina Simone
6. I Wish I Knew How It Would Feel to Be Free - Nina Simone
7. Turn Me On - Nina Simone
8. The Turning Point - Nina Simone
9. Some Say - Nina Simone
10. Consummation - Nina Simone

Disc: 11
1. Thelonious - Thelonious Monk
2. Ugly Beauty - Thelonious Monk
3. Raise Four - Thelonious Monk
4. Boo Boo's Birthday (Take 11) - Thelonious Monk
5. Easy Street - Thelonious Monk
6. Green Chimneys - Thelonious Monk
7. In Walked Bud - Thelonious Monk
8. Ugly Beauty (Take 4) - Thelonious Monk
9. Boo Boo's Birthday (Take 2) - Thelonious Monk
10. Thelonious (Take 3) - Thelonious Monk

Disc: 12
1. Straight Life - Freddie Hubbard
2. Mr. Clean - Freddie Hubbard
3. Here's That Rainy Day - Freddie Hubbard

Disc: 13
1. So What - George Benson
2. The Gentle Rain (From the Film, "The Gentle Rain") - George Benson
3. All Clear - George Benson
4. Ode to a Kudu - George Benson
5. Somewhere In the East - George Benson
6. All Clear - George Benson
7. Ode to a Kudu - George Benson
8. Somewhere In the East - George Benson

Disc: 14
1. Birds of Fire - The Mahavishnu Orchestra with John McLaughlin
2. Miles Beyond - The Mahavishnu Orchestra with John McLaughlin
3. Celestial Terrestrial Commuters - The Mahavishnu Orchestra with John McLaughlin
4. Sapphire Bullets of Pure Love - Mahavishnu Orchestra
5. Thousand Island Park - Mahavishnu Orchestra
6. Hope - The Mahavishnu Orchestra with John McLaughlin
7. One Word - Mahavishnu Orchestra
8. Sanctuary - Mahavishnu Orchestra
9. Open Country Joy - The Mahavishnu Orchestra with John McLaughlin
10. Resolution - Mahavishnu Orchestra

Disc: 15
1. I Come From Jamaica - Clifford Brown
2. Ida Red - Clifford Brown
3. Walkin' - Clifford Brown
4. Night In Tunisia - Clifford Brown
5. Donna Lee - Clifford Brown

Disc: 16
1. Autumn Leaves - Chet Baker
2. What'll I Do - Chet Baker
3. It's You Or No One - Chet Baker
4. My Future Just Passed - Chet Baker
5. She Was Too Good to Me - Chet Baker
6. Funk In Deep Freeze - Chet Baker
7. Tangerine - Chet Baker
8. With a Song in My Heart - Chet Baker

Disc: 17
1. Line for Lyons - Chet Baker
2. For an Unfinished Woman - Gerry Mulligan & Chet Baker
3. My Funny Valentine - Chet Baker & Gerry Mulligan
4. Song For Strayhorn - Gerry Mulligan & Chet Baker
5. It's Sandy At the Beach - Gerry Mulligan & Chet Baker
6. Bernie's Tune - Gerry Mulligan
7. K-4 Pacific - Gerry Mulligan
8. There Will Never Be Another You - Gerry Mulligan & Chet Baker

Disc: 18
1. Ponta de Areia - Wayne Shorter
2. Beauty and the Beast - Wayne Shorter
3. Tarde - Wayne Shorter
4. Miracle of the Fishes - Wayne Shorter
5. Diana - Wayne Shorter
6. From the Lonely Afternoons - Wayne Shorter
7. Ana Maria - Wayne Shorter
8. Lilia - Wayne Shorter
9. Joanna's Theme - Wayne Shorter

Disc: 19
1. You'd Be So Nice To Come Home To - Jim Hall
2. Two's Blues - Jim Hall
3. The Answer Is Yes - Jim Hall
4. Concierto De Aranjuez - Jim Hall
5. Rock Skippin' - Jim Hall
6. Unfinished Business - Jim Hall
7. You'd Be So Nice To Come Home To - Jim Hall
8. The Answer Is Yes - Jim Hall
9. Rock Skippin' - Jim Hall

Disc: 20
1. Medieval Overture - Return To Forever
2. Sorceress - Return To Forever
3. The Romantic Warrior - Return To Forever
4. Majestic Dance - Return To Forever
5. The Magician - Return To Forever
6. Duel of the Jester and the Tyrant - Return To Forever

Disc: 21
1. School Days - Stanley Clarke
2. Quiet Afternoon - Stanley Clarke
3. The Dancer - Stanley Clarke
4. Desert Song - Stanley Clarke
5. Hot Fun - Stanley Clarke
6. Life Is Just a Game - Stanley Clarke

Disc: 22
1. Black Market - Weather Report
2. Teen Town - Weather Report
3. A Remark You Made - Weather Report
4. Slang (Bass Solo) - Weather Report
5. In a Silent Way - Weather Report
6. Birdland - Weather Report
7. Thanks for the Memory (Tenor Sax Solo) - Weather Report
8. Badia / Boodie Woogie Waltz - Weather Report
9. 8:30 - Weather Report
10. Brown Street - Weather Report
11. The Orphan - Weather Report
12. Sightseeing - Weather Report

Disc: 23
1. 'Round Midnight - Herbie Hancock
2. Body and Soul - Herbie Hancock
3. Bérangère's Nightmare - Herbie Hancock
4. Fair Weather - Herbie Hancock
5. Una Noche con Francis - Herbie Hancock
6. The Peacocks - Herbie Hancock
7. How Long Has This Been Going On? - Herbie Hancock
8. Rhythm-A-Ning - Herbie Hancock
9. Still Time - Herbie Hancock
10. Minuit Aux Champs-Elysées - Herbie Hancock
11. Chan's Song (Never Said) - Herbie Hancock
12. 'Round Midnight - Dexter Gordon

Disc: 24
1. Get It Straight - Carmen McRae
2. Dear Ruby - Carmen McRae
3. It's Over Now - Carmen McRae
4. Monkery's The Blues - Carmen McRae
5. You Know Who - Carmen McRae
6. Little Butterfly - Carmen McRae
7. Listen To Monk - Carmen McRae
8. How I Wish… - Carmen McRae
9. Man, That Was A Dream - Carmen McRae
10. 'Round Midnight - Carmen McRae
11. Still We Dream - Carmen McRae
12. Suddenly - Carmen McRae
13. Looking Back - Carmen McRae
14. Suddenly - Carmen McRae
15. Get It Straight - Carmen McRae
16. 'Round Midnight - Carmen McRae
17. Listen To Monk - Carmen McRae
18. Man, That Was A Dream - Carmen McRae

Disc: 25
1. In the Court of King Oliver - Wynton Marsalis
2. Never Let Me Go - Wynton Marsalis
3. Street of Dreams - Wynton Marsalis
4. Where or When - Wynton Marsalis
5. Bona and Paul - Wynton Marsalis
6. The Seductress - Wynton Marsalis
7. A Sleepin' Bee - Wynton Marsalis
8. Big Butter and Egg Man - Wynton Marsalis
9. The Very Thought of You - Wynton Marsalis
10. I Cover the Waterfront - Wynton Marsalis
11. How Are Things In Glocca Morra - Wynton Marsalis
12. My Romance - Wynton Marsalis
13. Everything Happens to Me - Wynton Marsalis
14. Flamingo - Wynton Marsalis
15. You're My Everything - Wynton Marsalis
16. Skylark - Wynton Marsalis
17. It's Easy to Remember - Wynton Marsalis
18. Taking a Chance On Love - Wynton Marsalis
19. I Gotta Right to Sing the Blues - Wynton Marsalis
20. In the Wee Small Hours of the Morning - Wynton Marsalis
21. It's Too Late Now - Wynton Marsalisc Fricsay


Exact Audio Copy V1.0 beta 2 from 29. April 2011

EAC extraction logfile from 11. November 2011, 11:16

Duke Ellington / Ellington Uptown (Remastered + Expanded)

Used drive : TSSTcorpCDDVDW SH-222AB Adapter: 2 ID: 2

Read mode : Secure
Utilize accurate stream : Yes
Defeat audio cache : Yes
Make use of C2 pointers : No

Read offset correction : 6
Overread into Lead-In and Lead-Out : No
Fill up missing offset samples with silence : Yes
Delete leading and trailing silent blocks : No
Null samples used in CRC calculations : Yes
Used interface : Installed external ASPI interface
Gap handling : Appended to previous track

Used output format : User Defined Encoder
Selected bitrate : 1024 kBit/s
Quality : High
Add ID3 tag : No
Command line compressor : C:\Program Files\Exact Audio Copy\FLAC\FLAC.EXE
Additional command line options : -5 -V -T "ARTIST=%artist%" -T "TITLE=%title%" -T "ALBUM=%albumtitle%" -T "DATE=%year%" -T "TRACKNUMBER=%tracknr%" -T "GENRE=%genre%" -T "COMMENT=%comment%" -T "BAND=%albuminterpret%" -T "COMPOSER=%composer%" %haslyrics%–ta


TOC of the extracted CD

Track | Start | Length | Start sector | End sector
––––––––––––––––––––––––––––-
1 | 0:00.00 | 6:49.50 | 0 | 30724
2 | 6:49.50 | 6:36.65 | 30725 | 60489
3 | 13:26.40 | 8:02.50 | 60490 | 96689
4 | 21:29.15 | 13:48.65 | 96690 | 158854
5 | 35:18.05 | 8:25.00 | 158855 | 196729
6 | 43:43.05 | 6:09.32 | 196730 | 224436
7 | 49:52.37 | 4:14.53 | 224437 | 243539
8 | 54:07.15 | 4:28.35 | 243540 | 263674
9 | 58:35.50 | 4:50.17 | 263675 | 285441
10 | 63:25.67 | 3:26.08 | 285442 | 300899
11 | 66:52.00 | 3:45.25 | 300900 | 317799
12 | 70:37.25 | 3:04.70 | 317800 | 331669
13 | 73:42.20 | 5:08.35 | 331670 | 354804


Track 1

Filename E:\CD Ripping\Duke Ellington - Ellington Uptown (Remastered + Expanded) (1953)\01. Skin Deep.wav

Pre-gap length 0:00:02.00

Peak level 100.0 %
Extraction speed 4.8 X
Track quality 99.9 %
Test CRC 6C3A895B
Copy CRC 6C3A895B
Cannot be verified as accurate (confidence 8) [AE2D3743], AccurateRip returned [78454A42] (AR v2)
Copy OK

Track 2

Filename E:\CD Ripping\Duke Ellington - Ellington Uptown (Remastered + Expanded) (1953)\02. The Mooche.wav

Peak level 89.9 %
Extraction speed 6.2 X
Track quality 100.0 %
Test CRC 2AE1FC93
Copy CRC 2AE1FC93
Cannot be verified as accurate (confidence 8) [8DC82CEC], AccurateRip returned [36A8A3FA] (AR v2)
Copy OK

Track 3

Filename E:\CD Ripping\Duke Ellington - Ellington Uptown (Remastered + Expanded) (1953)\03. Take The 'A' Train.wav

Peak level 99.7 %
Extraction speed 7.0 X
Track quality 100.0 %
Test CRC 2778F7B1
Copy CRC 2778F7B1
Cannot be verified as accurate (confidence 8) [64DB9DFB], AccurateRip returned [465F0B74] (AR v2)
Copy OK

Track 4

Filename E:\CD Ripping\Duke Ellington - Ellington Uptown (Remastered + Expanded) (1953)\04. A Tone Parallel To Harlem (Harlem Suite).wav

Pre-gap length 0:00:01.53

Peak level 100.0 %
Extraction speed 8.2 X
Track quality 100.0 %
Test CRC B248226F
Copy CRC B248226F
Cannot be verified as accurate (confidence 8) [CD11A66B], AccurateRip returned [F7288E0B] (AR v2)
Copy OK

Track 5

Filename E:\CD Ripping\Duke Ellington - Ellington Uptown (Remastered + Expanded) (1953)\05. Perdido.wav

Pre-gap length 0:00:01.65

Peak level 98.8 %
Extraction speed 7.8 X
Track quality 99.9 %
Test CRC 6BD01546
Copy CRC 6BD01546
Cannot be verified as accurate (confidence 8) [771CF2EC], AccurateRip returned [220BC5E0] (AR v2)
Copy OK

Track 6

Filename E:\CD Ripping\Duke Ellington - Ellington Uptown (Remastered + Expanded) (1953)\06. The Controversial Suite ! Before My Time (from ''Hi-Fi Ellington Uptown'' - 1956).wav

Pre-gap length 0:00:01.50

Peak level 94.4 %
Extraction speed 9.1 X
Track quality 100.0 %
Test CRC 51D65733
Copy CRC 51D65733
Cannot be verified as accurate (confidence 8) [F45EDBCD], AccurateRip returned [5478C5C4] (AR v2)
Copy OK

Track 7

Filename E:\CD Ripping\Duke Ellington - Ellington Uptown (Remastered + Expanded) (1953)\07. The Controversial Suite ! Later (from ''Hi-Fi Ellington Uptown'' - 1956).wav

Pre-gap length 0:00:01.35

Peak level 94.4 %
Extraction speed 9.0 X
Track quality 100.0 %
Test CRC FF6B3A93
Copy CRC FF6B3A93
Cannot be verified as accurate (confidence 8) [A3091693], AccurateRip returned [328B9FE8] (AR v2)
Copy OK

Track 8

Filename E:\CD Ripping\Duke Ellington - Ellington Uptown (Remastered + Expanded) (1953)\08. The Liberian Suite ! I Like The Sunrise (from ''Liberian Suite - Harlem Suite'' - 1956).wav

Pre-gap length 0:00:01.25

Peak level 83.9 %
Extraction speed 9.3 X
Track quality 100.0 %
Test CRC 6103E4BA
Copy CRC 6103E4BA
Cannot be verified as accurate (confidence 8) [C934ED64], AccurateRip returned [DBA164BC] (AR v2)
Copy OK

Track 9

Filename E:\CD Ripping\Duke Ellington - Ellington Uptown (Remastered + Expanded) (1953)\09. The Liberian Suite ! Dance No. 1 (from ''Liberian Suite - Harlem Suite'' - 1956).wav

Peak level 89.0 %
Extraction speed 9.7 X
Track quality 100.0 %
Test CRC C5B81310
Copy CRC C5B81310
Cannot be verified as accurate (confidence 8) [12434522], AccurateRip returned [B67761E4] (AR v2)
Copy OK

Track 10

Filename E:\CD Ripping\Duke Ellington - Ellington Uptown (Remastered + Expanded) (1953)\10. The Liberian Suite ! Dance No. 2 (from ''Liberian Suite - Harlem Suite'' - 1956).wav

Peak level 89.0 %
Extraction speed 9.5 X
Track quality 100.0 %
Test CRC AA353A3D
Copy CRC AA353A3D
Cannot be verified as accurate (confidence 8) [35E0C75D], AccurateRip returned [EDD9A938] (AR v2)
Copy OK

Track 11

Filename E:\CD Ripping\Duke Ellington - Ellington Uptown (Remastered + Expanded) (1953)\11. The Liberian Suite ! Dance No. 3 (from ''Liberian Suite - Harlem Suite'' - 1956).wav

Peak level 89.0 %
Extraction speed 9.8 X
Track quality 100.0 %
Test CRC D657D9F8
Copy CRC D657D9F8
Cannot be verified as accurate (confidence 8) [23833896], AccurateRip returned [60C6F458] (AR v2)
Copy OK

Track 12

Filename E:\CD Ripping\Duke Ellington - Ellington Uptown (Remastered + Expanded) (1953)\12. The Liberian Suite ! Dance No. 4 (from ''Liberian Suite - Harlem Suite'' - 1956).wav

Peak level 88.9 %
Extraction speed 7.1 X
Track quality 99.9 %
Test CRC 190791E2
Copy CRC 190791E2
Cannot be verified as accurate (confidence 8) [3180EC01], AccurateRip returned [622B8F7B] (AR v2)
Copy OK

Track 13

Filename E:\CD Ripping\Duke Ellington - Ellington Uptown (Remastered + Expanded) (1953)\13. The Liberian Suite ! Dance No. 5 (from ''Liberian Suite - Harlem Suite'' - 1956).wav

Peak level 89.0 %
Extraction speed 10.5 X
Track quality 100.0 %
Test CRC D6D52F6D
Copy CRC D6D52F6D
Cannot be verified as accurate (confidence 7) [2ED83AF1], AccurateRip returned [F1BE47CE] (AR v2)
Copy OK


No tracks could be verified as accurate
You may have a different pressing from the one(s) in the database

No errors occurred

End of status report

==== Log checksum 29E096B47C86FC668276A2DEBCF3AEE919795A53C03ABD87AD88863E5A89308F ====

==================================================================================================

Exact Audio Copy V1.0 beta 2 from 29. April 2011

EAC extraction logfile from 11. November 2011, 9:59

Dave Brubeck / Jazz Goes To College

Used drive : TSSTcorpCDDVDW SH-222AB Adapter: 2 ID: 2

Read mode : Secure
Utilize accurate stream : Yes
Defeat audio cache : Yes
Make use of C2 pointers : No

Read offset correction : 6
Overread into Lead-In and Lead-Out : No
Fill up missing offset samples with silence : Yes
Delete leading and trailing silent blocks : No
Null samples used in CRC calculations : Yes
Used interface : Installed external ASPI interface
Gap handling : Appended to previous track

Used output format : User Defined Encoder
Selected bitrate : 1024 kBit/s
Quality : High
Add ID3 tag : No
Command line compressor : C:\Program Files\Exact Audio Copy\FLAC\FLAC.EXE
Additional command line options : -5 -V -T "ARTIST=%artist%" -T "TITLE=%title%" -T "ALBUM=%albumtitle%" -T "DATE=%year%" -T "TRACKNUMBER=%tracknr%" -T "GENRE=%genre%" -T "COMMENT=%comment%" -T "BAND=%albuminterpret%" -T "COMPOSER=%composer%" %haslyrics%–ta


TOC of the extracted CD

Track | Start | Length | Start sector | End sector
––––––––––––––––––––––––––––-
1 | 0:00.00 | 11:55.17 | 0 | 53641
2 | 11:55.17 | 8:04.15 | 53642 | 89956
3 | 19:59.32 | 4:35.60 | 89957 | 110641
4 | 24:35.17 | 6:10.50 | 110642 | 138441
5 | 30:45.67 | 5:38.10 | 138442 | 163801
6 | 36:24.02 | 8:46.70 | 163802 | 203321
7 | 45:10.72 | 6:35.48 | 203322 | 232994


Track 1

Filename E:\The Perfect Jazz Collection 2\Dave Brubeck - Jazz Goes To College (1954)\01. Balcony Rock.wav

Pre-gap length 0:00:02.00

Copy aborted

Track 2

Copy aborted

Track 3

Copy aborted

Track 4

Copy aborted

Track 5

Copy aborted

Track 6

Copy aborted

Track 7

Copy aborted


No tracks could be verified as accurate

There were errors

End of status report

==== Log checksum 09262C3718D6F1DC8CDA79D77C2840A58FD59B4695F39E82D5FC62D7C2F1739D ====

==============================================================================================

Exact Audio Copy V1.0 beta 2 from 29. April 2011

EAC extraction logfile from 10. November 2011, 18:15

Louis Armstrong / Satch Plays Fats: The Music of Fats Waller

Used drive : TSSTcorpCDW/DVD TS-H493B Adapter: 0 ID: 3

Read mode : Secure
Utilize accurate stream : Yes
Defeat audio cache : Yes
Make use of C2 pointers : No

Read offset correction : 6
Overread into Lead-In and Lead-Out : No
Fill up missing offset samples with silence : Yes
Delete leading and trailing silent blocks : No
Null samples used in CRC calculations : Yes
Used interface : Native Win32 interface for Win NT & 2000
Gap handling : Appended to previous track

Used output format : User Defined Encoder
Selected bitrate : 1024 kBit/s
Quality : High
Add ID3 tag : No
Command line compressor : C:\Program Files\Exact Audio Copy\FLAC\FLAC.EXE
Additional command line options : -5 -V -T "ARTIST=%artist%" -T "TITLE=%title%" -T "ALBUM=%albumtitle%" -T "DATE=%year%" -T "TRACKNUMBER=%tracknr%" -T "GENRE=%genre%" -T "COMMENT=%comment%" -T "BAND=%albuminterpret%" -T "COMPOSER=%composer%" %haslyrics%–ta


TOC of the extracted CD

Track | Start | Length | Start sector | End sector
––––––––––––––––––––––––––––-
1 | 0:00.00 | 2:56.32 | 0 | 13231
2 | 2:56.32 | 4:56.50 | 13232 | 35481
3 | 7:53.07 | 4:28.60 | 35482 | 55641
4 | 12:21.67 | 5:06.30 | 55642 | 78621
5 | 17:28.22 | 3:21.73 | 78622 | 93769
6 | 20:50.20 | 5:16.55 | 93770 | 117524
7 | 26:07.00 | 3:13.00 | 117525 | 131999
8 | 29:20.00 | 4:39.27 | 132000 | 152951
9 | 33:59.27 | 4:01.58 | 152952 | 171084
10 | 38:01.10 | 4:53.45 | 171085 | 193104
11 | 42:54.55 | 4:41.05 | 193105 | 214184
12 | 47:35.60 | 4:57.30 | 214185 | 236489
13 | 52:33.15 | 3:18.12 | 236490 | 251351
14 | 55:51.27 | 3:20.48 | 251352 | 266399
15 | 59:12.00 | 3:03.20 | 266400 | 280144
16 | 62:15.20 | 3:15.50 | 280145 | 294819
17 | 65:30.70 | 3:29.65 | 294820 | 310559
18 | 69:00.60 | 3:31.60 | 310560 | 326444
19 | 72:32.45 | 3:14.30 | 326445 | 341024
20 | 75:47.00 | 3:08.47 | 341025 | 355171


Track 1

Filename E:\CD Ripping\Louis Armstrong - Satch Plays Fats- The Music of Fats Waller (1955)\01. Honeysuckle Rose.wav

Pre-gap length 0:00:02.00

Peak level 98.8 %
Extraction speed 4.8 X
Track quality 100.0 %
Test CRC C407DC28
Copy CRC C407DC28
Cannot be verified as accurate (confidence 21) [10E52048], AccurateRip returned [67DD9974] (AR v2)
Copy OK

Track 2

Filename E:\CD Ripping\Louis Armstrong - Satch Plays Fats- The Music of Fats Waller (1955)\02. Blue Turning Grey Over You.wav

Pre-gap length 0:00:03.20

Peak level 98.8 %
Extraction speed 5.6 X
Track quality 100.0 %
Test CRC 2BBC1F41
Copy CRC 2BBC1F41
Cannot be verified as accurate (confidence 21) [C7B7C8AD], AccurateRip returned [2E871DB5] (AR v2)
Copy OK

Track 3

Filename E:\CD Ripping\Louis Armstrong - Satch Plays Fats- The Music of Fats Waller (1955)\03. I'm Crazy 'Bout My Baby.wav

Pre-gap length 0:00:03.15

Peak level 98.8 %
Extraction speed 6.1 X
Track quality 100.0 %
Test CRC 1381E3C6
Copy CRC 1381E3C6
Cannot be verified as accurate (confidence 21) [0EF24D32], AccurateRip returned [C14483E4] (AR v2)
Copy OK

Track 4

Filename E:\CD Ripping\Louis Armstrong - Satch Plays Fats- The Music of Fats Waller (1955)\04. Squeeze Me.wav

Pre-gap length 0:00:02.15

Peak level 98.8 %
Extraction speed 6.0 X
Track quality 99.9 %
Test CRC 015AF56E
Copy CRC 015AF56E
Cannot be verified as accurate (confidence 21) [EAB69950], AccurateRip returned [D162AC67] (AR v2)
Copy OK

Track 5

Filename E:\CD Ripping\Louis Armstrong - Satch Plays Fats- The Music of Fats Waller (1955)\05. Keepin' Out Of Mischief Now.wav

Pre-gap length 0:00:02.30

Peak level 98.8 %
Extraction speed 6.6 X
Track quality 100.0 %
Test CRC F6BAF23A
Copy CRC F6BAF23A
Cannot be verified as accurate (confidence 21) [95B30F51], AccurateRip returned [941B4E09] (AR v2)
Copy OK

Track 6

Filename E:\CD Ripping\Louis Armstrong - Satch Plays Fats- The Music of Fats Waller (1955)\06. All That Meat And No Potatoes.wav

Pre-gap length 0:00:02.00

Peak level 98.8 %
Extraction speed 6.8 X
Track quality 99.9 %
Test CRC D2498CFE
Copy CRC D2498CFE
Cannot be verified as accurate (confidence 21) [1CBC7915], AccurateRip returned [74F863D2] (AR v2)
Copy OK

Track 7

Filename E:\CD Ripping\Louis Armstrong - Satch Plays Fats- The Music of Fats Waller (1955)\07. I've Got A Feeling I'm Falling.wav

Pre-gap length 0:00:02.13

Peak level 98.8 %
Extraction speed 6.4 X
Track quality 100.0 %
Test CRC D9E56FAF
Copy CRC D9E56FAF
Cannot be verified as accurate (confidence 21) [27FD8147], AccurateRip returned [AEDFDAAA] (AR v2)
Copy OK

Track 8

Filename E:\CD Ripping\Louis Armstrong - Satch Plays Fats- The Music of Fats Waller (1955)\08. (What Did I Do To Be So) Black And Blue.wav

Pre-gap length 0:00:02.68

Peak level 98.8 %
Extraction speed 7.9 X
Track quality 100.0 %
Test CRC 6A594018
Copy CRC 6A594018
Cannot be verified as accurate (confidence 21) [EFB0B8FA], AccurateRip returned [FB483FFF] (AR v2)
Copy OK

Track 9

Filename E:\CD Ripping\Louis Armstrong - Satch Plays Fats- The Music of Fats Waller (1955)\09. Ain't Misbehavin'.wav

Pre-gap length 0:00:02.17

Peak level 84.1 %
Extraction speed 8.1 X
Track quality 100.0 %
Test CRC 52EE7BB9
Copy CRC 52EE7BB9
Cannot be verified as accurate (confidence 21) [1FE10C7C], AccurateRip returned [95B4544B] (AR v2)
Copy OK

Track 10

Filename E:\CD Ripping\Louis Armstrong - Satch Plays Fats- The Music of Fats Waller (1955)\10. Black And Blue (Edited Alternate Version).wav

Pre-gap length 0:00:02.58

Peak level 98.8 %
Extraction speed 8.6 X
Track quality 100.0 %
Test CRC 8EBB8EE6
Copy CRC 8EBB8EE6
Cannot be verified as accurate (confidence 20) [87C6BC05], AccurateRip returned [04B9AC87] (AR v2)
Copy OK

Track 11

Filename E:\CD Ripping\Louis Armstrong - Satch Plays Fats- The Music of Fats Waller (1955)\11. I'm Crazy 'Bout My Baby (Edited Alternate Version).wav

Pre-gap length 0:00:02.00

Peak level 98.8 %
Extraction speed 8.9 X
Track quality 100.0 %
Test CRC 12083C08
Copy CRC 12083C08
Cannot be verified as accurate (confidence 20) [4121B4C1], AccurateRip returned [22143477] (AR v2)
Copy OK

Track 12

Filename E:\CD Ripping\Louis Armstrong - Satch Plays Fats- The Music of Fats Waller (1955)\12. Blue Turning Grey Over You (Edited Alternate Version).wav

Pre-gap length 0:00:02.20

Peak level 98.8 %
Extraction speed 9.4 X
Track quality 100.0 %
Test CRC 51EF18AB
Copy CRC 51EF18AB
Cannot be verified as accurate (confidence 20) [1D88A676], AccurateRip returned [877B4655] (AR v2)
Copy OK

Track 13

Filename E:\CD Ripping\Louis Armstrong - Satch Plays Fats- The Music of Fats Waller (1955)\13. I've Got A Feeling I'm Falling (Edited Alternate Version).wav

Peak level 98.8 %
Extraction speed 9.1 X
Track quality 100.0 %
Test CRC 22ED16AA
Copy CRC 22ED16AA
Cannot be verified as accurate (confidence 20) [A805377F], AccurateRip returned [930B6A2D] (AR v2)
Copy OK

Track 14

Filename E:\CD Ripping\Louis Armstrong - Satch Plays Fats- The Music of Fats Waller (1955)\14. Squeeze Me (Bonus).wav

Pre-gap length 0:00:03.15

Peak level 99.2 %
Extraction speed 9.2 X
Track quality 100.0 %
Test CRC 87DBDFB2
Copy CRC 87DBDFB2
Cannot be verified as accurate (confidence 20) [A681FC1A], AccurateRip returned [95CFFDA0] (AR v2)
Copy OK

Track 15

Filename E:\CD Ripping\Louis Armstrong - Satch Plays Fats- The Music of Fats Waller (1955)\15. (What Did I Do To Be So) Black And Blue (Bonus Track).wav

Pre-gap length 0:00:01.70

Peak level 100.0 %
Extraction speed 7.9 X
Track quality 99.9 %
Test CRC 8471704D
Copy CRC 8471704D
Cannot be verified as accurate (confidence 21) [AFC2D40D], AccurateRip returned [EE7A599E] (AR v2)
Copy OK

Track 16

Filename E:\CD Ripping\Louis Armstrong - Satch Plays Fats- The Music of Fats Waller (1955)\16. Ain't Misbehavin' (Bonus Track).wav

Pre-gap length 0:00:02.05

Peak level 100.0 %
Extraction speed 9.6 X
Track quality 100.0 %
Test CRC 3C549D21
Copy CRC 3C549D21
Cannot be verified as accurate (confidence 20) [9CCED74C], AccurateRip returned [969400F1] (AR v2)
Copy OK

Track 17

Filename E:\CD Ripping\Louis Armstrong - Satch Plays Fats- The Music of Fats Waller (1955)\17. Blue Turning Grey Over You (Bonus Track).wav

Pre-gap length 0:00:01.48

Peak level 92.3 %
Extraction speed 9.8 X
Track quality 100.0 %
Test CRC CD9FAE26
Copy CRC CD9FAE26
Cannot be verified as accurate (confidence 19) [59E3A552], AccurateRip returned [3E67D470] (AR v2)
Copy OK

Track 18

Filename E:\CD Ripping\Louis Armstrong - Satch Plays Fats- The Music of Fats Waller (1955)\18. Keepin' Out Of Mischief Now (Bonus Track).wav

Pre-gap length 0:00:02.35

Peak level 78.4 %
Extraction speed 8.8 X
Track quality 99.9 %
Test CRC 17C6C20E
Copy CRC 17C6C20E
Cannot be verified as accurate (confidence 19) [175AA1EB], AccurateRip returned [04DD177B] (AR v2)
Copy OK

Track 19

Filename E:\CD Ripping\Louis Armstrong - Satch Plays Fats- The Music of Fats Waller (1955)\19. Sweet Savannah Sue (Bonus Track).wav

Pre-gap length 0:00:01.70

Peak level 76.7 %
Extraction speed 6.4 X
Track quality 100.0 %
Test CRC BEEAF3CF
Copy CRC BEEAF3CF
Cannot be verified as accurate (confidence 20) [ECB9038F], AccurateRip returned [47917433] (AR v2)
Copy OK

Track 20

Filename E:\CD Ripping\Louis Armstrong - Satch Plays Fats- The Music of Fats Waller (1955)\20. That Rhythm Man (Bonus Track).wav

Pre-gap length 0:00:01.60

Peak level 86.3 %
Extraction speed 5.6 X
Track quality 100.0 %
Test CRC 9064873F
Copy CRC 9064873F
Cannot be verified as accurate (confidence 19) [7A6D5976], AccurateRip returned [00602EDA] (AR v2)
Copy OK


No tracks could be verified as accurate
You may have a different pressing from the one(s) in the database

No errors occurred

End of status report

==== Log checksum FAF64774FE7140BC6EA9B133B8C55E68ABAABA2F17AF5DAB8E01F50514D3E2CA ====

============================================================================================

Exact Audio Copy V1.0 beta 2 from 29. April 2011

EAC extraction logfile from 10. November 2011, 18:47

Miles Davis / 'Round About Midnight [Columbia Legacy Remaster]

Used drive : TSSTcorpCDW/DVD TS-H493B Adapter: 0 ID: 3

Read mode : Secure
Utilize accurate stream : Yes
Defeat audio cache : Yes
Make use of C2 pointers : No

Read offset correction : 6
Overread into Lead-In and Lead-Out : No
Fill up missing offset samples with silence : Yes
Delete leading and trailing silent blocks : No
Null samples used in CRC calculations : Yes
Used interface : Native Win32 interface for Win NT & 2000
Gap handling : Appended to previous track

Used output format : User Defined Encoder
Selected bitrate : 1024 kBit/s
Quality : High
Add ID3 tag : No
Command line compressor : C:\Program Files\Exact Audio Copy\FLAC\FLAC.EXE
Additional command line options : -5 -V -T "ARTIST=%artist%" -T "TITLE=%title%" -T "ALBUM=%albumtitle%" -T "DATE=%year%" -T "TRACKNUMBER=%tracknr%" -T "GENRE=%genre%" -T "COMMENT=%comment%" -T "BAND=%albuminterpret%" -T "COMPOSER=%composer%" %haslyrics%–ta


TOC of the extracted CD

Track | Start | Length | Start sector | End sector
––––––––––––––––––––––––––––-
1 | 0:00.00 | 5:58.07 | 0 | 26856
2 | 5:58.07 | 5:53.08 | 26857 | 53339
3 | 11:51.15 | 7:03.35 | 53340 | 85099
4 | 18:54.50 | 7:57.30 | 85100 | 120904
5 | 26:52.05 | 4:29.25 | 120905 | 141104
6 | 31:21.30 | 7:52.32 | 141105 | 176536
7 | 39:13.62 | 3:44.60 | 176537 | 193396
8 | 42:58.47 | 7:22.15 | 193397 | 226561
9 | 50:20.62 | 4:17.15 | 226562 | 245851
10 | 54:38.02 | 3:40.18 | 245852 | 262369


Track 1

Filename E:\CD Ripping\Miles Davis - 'Round About Midnight [Columbia Legacy Remaster] (1956)\01. 'Round Midnight.wav

Pre-gap length 0:00:02.00

Peak level 100.0 %
Extraction speed 5.0 X
Track quality 100.0 %
Test CRC F75535F7
Copy CRC F75535F7
Accurately ripped (confidence 3) [01362608] (AR v1)
Copy OK

Track 2

Filename E:\CD Ripping\Miles Davis - 'Round About Midnight [Columbia Legacy Remaster] (1956)\02. Ah-Leu-Cha.wav

Pre-gap length 0:00:02.57

Peak level 100.0 %
Extraction speed 5.6 X
Track quality 100.0 %
Test CRC 950A32C2
Copy CRC 950A32C2
Accurately ripped (confidence 3) [D1CEA2AF] (AR v1)
Copy OK

Track 3

Filename E:\CD Ripping\Miles Davis - 'Round About Midnight [Columbia Legacy Remaster] (1956)\03. All of You.wav

Pre-gap length 0:00:02.58

Peak level 93.3 %
Extraction speed 6.5 X
Track quality 100.0 %
Test CRC 40814845
Copy CRC 40814845
Accurately ripped (confidence 3) [94094F4B] (AR v1)
Copy OK

Track 4

Filename E:\CD Ripping\Miles Davis - 'Round About Midnight [Columbia Legacy Remaster] (1956)\04. Bye Bye Blackbird.wav

Pre-gap length 0:00:02.58

Peak level 100.0 %
Extraction speed 6.8 X
Track quality 99.9 %
Test CRC 834D3773
Copy CRC 834D3773
Accurately ripped (confidence 3) [33D8B444] (AR v1)
Copy OK

Track 5

Filename E:\CD Ripping\Miles Davis - 'Round About Midnight [Columbia Legacy Remaster] (1956)\05. Tadd's Delight.wav

Pre-gap length 0:00:02.58

Peak level 100.0 %
Extraction speed 7.4 X
Track quality 100.0 %
Test CRC 1FAD9B4E
Copy CRC 1FAD9B4E
Accurately ripped (confidence 3) [48D19DB7] (AR v1)
Copy OK

Track 6

Filename E:\CD Ripping\Miles Davis - 'Round About Midnight [Columbia Legacy Remaster] (1956)\06. Dear Old Stockholm.wav

Pre-gap length 0:00:02.58

Peak level 100.0 %
Extraction speed 7.8 X
Track quality 99.9 %
Test CRC CE5D20A5
Copy CRC CE5D20A5
Accurately ripped (confidence 3) [95381008] (AR v1)
Copy OK

Track 7

Filename E:\CD Ripping\Miles Davis - 'Round About Midnight [Columbia Legacy Remaster] (1956)\07. Two Bass Hit [Bonus Track].wav

Pre-gap length 0:00:03.57

Peak level 100.0 %
Extraction speed 8.0 X
Track quality 100.0 %
Test CRC 77D47CA3
Copy CRC 77D47CA3
Accurately ripped (confidence 3) [512EAAAF] (AR v1)
Copy OK

Track 8

Filename E:\CD Ripping\Miles Davis - 'Round About Midnight [Columbia Legacy Remaster] (1956)\08. Little Melonae [Bonus Track].wav

Pre-gap length 0:00:02.57

Peak level 100.0 %
Extraction speed 8.5 X
Track quality 99.9 %
Test CRC 628D91C2
Copy CRC 628D91C2
Accurately ripped (confidence 3) [040A66B4] (AR v1)
Copy OK

Track 9

Filename E:\CD Ripping\Miles Davis - 'Round About Midnight [Columbia Legacy Remaster] (1956)\09. Budo [Bonus Track].wav

Pre-gap length 0:00:02.57

Peak level 100.0 %
Extraction speed 8.9 X
Track quality 100.0 %
Test CRC FA9A5979
Copy CRC FA9A5979
Accurately ripped (confidence 3) [76710CD9] (AR v1)
Copy OK

Track 10

Filename E:\CD Ripping\Miles Davis - 'Round About Midnight [Columbia Legacy Remaster] (1956)\10. Sweet Sue, Just You [Bonus Track].wav

Pre-gap length 0:00:02.57

Peak level 100.0 %
Extraction speed 9.0 X
Track quality 100.0 %
Test CRC CFE2D842
Copy CRC CFE2D842
Accurately ripped (confidence 3) [D2274100] (AR v1)
Copy OK


All tracks accurately ripped

No errors occurred

End of status report

==== Log checksum 0D28A271B40BCED21BEDEDC8301C3D2AD7742CA42E4216F6ED59C14D47571F65 ====

=============================================================================================

Exact Audio Copy V1.0 beta 2 from 29. April 2011

EAC extraction logfile from 10. November 2011, 19:51

Various Artists / The Sound of Jazz

Used drive : TSSTcorpCDW/DVD TS-H493B Adapter: 0 ID: 3

Read mode : Secure
Utilize accurate stream : Yes
Defeat audio cache : Yes
Make use of C2 pointers : No

Read offset correction : 6
Overread into Lead-In and Lead-Out : No
Fill up missing offset samples with silence : Yes
Delete leading and trailing silent blocks : No
Null samples used in CRC calculations : Yes
Used interface : Native Win32 interface for Win NT & 2000
Gap handling : Appended to previous track

Used output format : User Defined Encoder
Selected bitrate : 1024 kBit/s
Quality : High
Add ID3 tag : No
Command line compressor : C:\Program Files\Exact Audio Copy\FLAC\FLAC.EXE
Additional command line options : -5 -V -T "ARTIST=%artist%" -T "TITLE=%title%" -T "ALBUM=%albumtitle%" -T "DATE=%year%" -T "TRACKNUMBER=%tracknr%" -T "GENRE=%genre%" -T "COMMENT=%comment%" -T "BAND=%albuminterpret%" -T "COMPOSER=%composer%" %haslyrics%–ta


TOC of the extracted CD

Track | Start | Length | Start sector | End sector
––––––––––––––––––––––––––––-
1 | 0:00.00 | 4:49.00 | 0 | 21674
2 | 4:49.00 | 4:59.62 | 21675 | 44161
3 | 9:48.62 | 6:21.60 | 44162 | 72796
4 | 16:10.47 | 6:55.23 | 72797 | 103944
5 | 23:05.70 | 4:29.32 | 103945 | 124151
6 | 27:35.27 | 4:45.53 | 124152 | 145579
7 | 32:21.05 | 3:46.02 | 145580 | 162531
8 | 36:07.07 | 5:55.25 | 162532 | 189181
9 | 42:02.32 | 8:42.45 | 189182 | 228376


Track 1

Filename E:\CD Ripping\V.A. - The Sound of Jazz (1958)\01. The Henry ''Red'' Allen - Wild Man Blues.wav

Pre-gap length 0:00:02.00

Peak level 99.9 %
Extraction speed 4.8 X
Track quality 100.0 %
Test CRC 0752E42F
Copy CRC 0752E42F
Cannot be verified as accurate (confidence 2) [DA0A21AD], AccurateRip returned [DE8317DF] (AR v2)
Copy OK

Track 2

Filename E:\CD Ripping\V.A. - The Sound of Jazz (1958)\02. The Henry ''Red'' Allen - Rosetta.wav

Pre-gap length 0:00:02.40

Peak level 100.0 %
Extraction speed 5.4 X
Track quality 100.0 %
Test CRC 326766B4
Copy CRC 326766B4
Cannot be verified as accurate (confidence 2) [58432BF2], AccurateRip returned [66066EA3] (AR v2)
Copy OK

Track 3

Filename E:\CD Ripping\V.A. - The Sound of Jazz (1958)\03. Billie Holiday - Fine and Mellow.wav

Pre-gap length 0:00:03.05

Peak level 99.9 %
Extraction speed 5.7 X
Track quality 99.9 %
Test CRC AC4FC54B
Copy CRC AC4FC54B
Cannot be verified as accurate (confidence 2) [485AA340], AccurateRip returned [D1CD1F18] (AR v2)
Copy OK

Track 4

Filename E:\CD Ripping\V.A. - The Sound of Jazz (1958)\04. Jimmy Giuffre - Blues.wav

Pre-gap length 0:00:02.62

Peak level 100.0 %
Extraction speed 6.4 X
Track quality 99.9 %
Test CRC 10B1EAC4
Copy CRC 10B1EAC4
Cannot be verified as accurate (confidence 2) [C52170E4], AccurateRip returned [B4D57424] (AR v2)
Copy OK

Track 5

Filename E:\CD Ripping\V.A. - The Sound of Jazz (1958)\05. Count Basie - I Left My Baby.wav

Pre-gap length 0:00:02.53

Peak level 95.2 %
Extraction speed 7.1 X
Track quality 100.0 %
Test CRC D47120D3
Copy CRC D47120D3
Cannot be verified as accurate (confidence 2) [3F279539], AccurateRip returned [513BDDE2] (AR v2)
Copy OK

Track 6

Filename E:\CD Ripping\V.A. - The Sound of Jazz (1958)\06. The Jimmy Giuffre Trio - The Train and the River.wav

Pre-gap length 0:00:02.32

Peak level 90.2 %
Extraction speed 7.5 X
Track quality 100.0 %
Test CRC 40837974
Copy CRC 40837974
Cannot be verified as accurate (confidence 2) [DC884E42], AccurateRip returned [E968E4F3] (AR v2)
Copy OK

Track 7

Filename E:\CD Ripping\V.A. - The Sound of Jazz (1958)\07. Mal Waldron - Nervous.wav

Pre-gap length 0:00:02.60

Peak level 63.8 %
Extraction speed 7.7 X
Track quality 100.0 %
Test CRC D033028E
Copy CRC D033028E
Cannot be verified as accurate (confidence 2) [B5463408], AccurateRip returned [257B355A] (AR v2)
Copy OK

Track 8

Filename E:\CD Ripping\V.A. - The Sound of Jazz (1958)\08. Count Basie - Dickie's Dream.wav

Pre-gap length 0:00:02.40

Peak level 90.0 %
Extraction speed 8.4 X
Track quality 100.0 %
Test CRC 591B6301
Copy CRC 591B6301
Cannot be verified as accurate (confidence 2) [17BFA0AC], AccurateRip returned [30DF00A9] (AR v2)
Copy OK

Track 9

Filename E:\CD Ripping\V.A. - The Sound of Jazz (1958)\09. The Henry ''Red'' Allen - Wild Man Blues.wav

Pre-gap length 0:00:02.40

Peak level 84.1 %
Extraction speed 8.6 X
Track quality 99.9 %
Test CRC 9059C6EC
Copy CRC 9059C6EC
Cannot be verified as accurate (confidence 2) [0C75238D], AccurateRip returned [42DB0C7D] (AR v2)
Copy OK


No tracks could be verified as accurate
You may have a different pressing from the one(s) in the database

No errors occurred

End of status report

==== Log checksum 7FCB76CD1830729613BE17CA97AFD8DEDD6DA7FA69391D07B3E1CD99C575CDDA ====

===================================================================================


All 25 log files included…