Valentine - The Queen Album + Bizzaro World (2014) 2CD

Posted By: Andi_Deris
Valentine - The Queen Album + Bizzaro World (2014) 2CD

Valentine - The Queen Album + Bizzaro World (2014) 2CD
EAC Rip | FLAC: Image+Cue+Log | 973 Mb | MP3 CBR 320 kbps | 346 Mb | Scans
Genre: Melodic Rock, Pomp Rock, Tribute | Label: Valentine Records | Cat.: RV201402/RV201403

Combining the best tracks of A Tribute To Queen and A Tribute To Queen 2 plus adding new material, THE QUEEN ALBUM is the ultimate Queen Tribute, lasting almost 78 minutes! / Multi-talented phenomenon, Robby Valentine presents his 10th studio album, BIZARRO WORLD! Valentine is best known from his 90's chart topping hit, Over and Over Again. The wait is over as BIZARRO WORLD is the stunning new release of dutch genius Robby Valentine!

Valentine - The Queen Album + Bizzaro World (2014) 2CD




Valentine - The Queen Album + Bizzaro World (2014) 2CD


Valentine - The Queen Album (2014)
EAC Rip | FLAC: Image+Cue+Log | 588 Mb | MP3 CBR 320 kbps | 206 Mb | Scans | Time: 01:17:15
Label: Valentine Records | Cat.: RV201402


Valentine - The Queen Album + Bizzaro World (2014) 2CD


Track Listing

01. Bohemian Rhapsody (06:01)
02. Crazy Little Thing Called Love (02:59)
03. Save Me (03:47)
04. Flick Of The Wrist (03:16)
05. Lily Of The Valley (01:50)
06. Don't Stop Me Now (03:42)
07. Killer Queen (03:07)
08. Good Old Fashioned Lover Boy (02:56)
09. Ogre Battle (03:53)
10. All Dead, All Dead (03:26)
11. Mustapha (03:03)
12. Fat Bottomed Girls (04:21)
13. Jealousy (03:13)
14. Bicycle Race (03:03)
15. '39 (03:41)
16. Tie Your Mother Down (03:47)
17. Dear Friends (01:17)
18. Seven Seas Of Rhye (02:45)
19. Lazing On A Sunday Afternoon (01:07)
20. Under Pressure (04:04)
21. Somebody To Love (04:59)
22. We Will Rock You (02:03)
23. We Are The Champions (03:30)
24. God Save The Queen (01:10)

Produced by Robby Williams
Written by Brian May (tracks: 3, 10, 12, 15 to 17, 22, 24), Freddie Mercury (tracks: 1, 2, 4 to 9, 11, 13, 14, 18, 19, 21, 23)

Personnel

• Robby Valentine - All instruments and all vocals

Additional musicians
• Johan Willems - harmony vocals track 3, 6, 14 and 23
• Marina Catharina - harmony vocals track 16 and 21

Exact Audio Copy V1.0 beta 3 from 29. August 2011

EAC extraction logfile from 18. November 2014, 20:28

Robby Valentine / The Queen Album

Used drive : HL-DT-STDVDRAM GU40N Adapter: 0 ID: 1

Read mode : Secure
Utilize accurate stream : Yes
Defeat audio cache : Yes
Make use of C2 pointers : No

Read offset correction : 103
Overread into Lead-In and Lead-Out : No
Fill up missing offset samples with silence : Yes
Delete leading and trailing silent blocks : No
Null samples used in CRC calculations : Yes
Used interface : Installed external ASPI interface

Used output format : User Defined Encoder
Selected bitrate : 128 kBit/s
Quality : High
Add ID3 tag : No
Command line compressor : C:\Program Files (x86)\AudioConverter\AudioConverter.exe
Additional command line options : -V -8 -T "Date=%year%" -T "Genre=%genre%" %source%


TOC of the extracted CD

Track | Start | Length | Start sector | End sector
––––––––––––––––––––––––––––-
1 | 0:00.00 | 6:01.64 | 0 | 27138
2 | 6:01.64 | 2:59.60 | 27139 | 40623
3 | 9:01.49 | 3:47.55 | 40624 | 57703
4 | 12:49.29 | 3:16.47 | 57704 | 72450
5 | 16:06.01 | 1:50.69 | 72451 | 80769
6 | 17:56.70 | 3:42.64 | 80770 | 97483
7 | 21:39.59 | 3:07.51 | 97484 | 111559
8 | 24:47.35 | 2:56.15 | 111560 | 124774
9 | 27:43.50 | 3:53.68 | 124775 | 142317
10 | 31:37.43 | 3:26.62 | 142318 | 157829
11 | 35:04.30 | 3:03.21 | 157830 | 171575
12 | 38:07.51 | 4:21.59 | 171576 | 191209
13 | 42:29.35 | 3:13.17 | 191210 | 205701
14 | 45:42.52 | 3:03.68 | 205702 | 219494
15 | 48:46.45 | 3:41.36 | 219495 | 236105
16 | 52:28.06 | 3:47.54 | 236106 | 253184
17 | 56:15.60 | 1:17.18 | 253185 | 258977
18 | 57:33.03 | 2:45.42 | 258978 | 271394
19 | 60:18.45 | 1:07.37 | 271395 | 276456
20 | 61:26.07 | 4:04.12 | 276457 | 294768
21 | 65:30.19 | 4:59.02 | 294769 | 317195
22 | 70:29.21 | 2:03.58 | 317196 | 326478
23 | 72:33.04 | 3:30.63 | 326479 | 342291
24 | 76:03.67 | 1:10.12 | 342292 | 347553


Range status and errors

Selected range

Filename C:\Users\workutagin\Desktop\Valentine - The Queen Tribut 2014\Robby Valentine - The Queen Album.wav

Peak level 97.3 %
Extraction speed 2.2 X
Range quality 99.9 %
Test CRC 8A69C769
Copy CRC 8A69C769
Copy OK

No errors occurred


AccurateRip summary

Track 1 not present in database
Track 2 not present in database
Track 3 not present in database
Track 4 not present in database
Track 5 not present in database
Track 6 not present in database
Track 7 not present in database
Track 8 not present in database
Track 9 not present in database
Track 10 not present in database
Track 11 not present in database
Track 12 not present in database
Track 13 not present in database
Track 14 not present in database
Track 15 not present in database
Track 16 not present in database
Track 17 not present in database
Track 18 not present in database
Track 19 not present in database
Track 20 not present in database
Track 21 not present in database
Track 22 not present in database
Track 23 not present in database
Track 24 not present in database

None of the tracks are present in the AccurateRip database

End of status report

==== Log checksum 02C1405E9F1109C097B875970848327F1774BF8592EF02C33283C9D29E907151 ====


Valentine - The Queen Album + Bizzaro World (2014) 2CD


Valentine - Bizzaro World (2014)
EAC Rip | FLAC: Image+Cue+Log | 385 Mb | MP3 CBR 320 kbps | 141 Mb | Scans | Time: 46:30
Label: Valentine Records | Cat.: RV201403


Valentine - The Queen Album + Bizzaro World (2014) 2CD


Track Listing

01. Interlude Bizarre (02:05)
02. Bizarro World (04:16)
03. Rockstar (04:21)
04. You're Tearing Me Down (03:22)
05. Deadbeat Boy (03:07)
06. Schizophonicated (04:28)
07. Trip To The Moon (03:57)
08. Close The Door (03:08)
09. From Dusk Till Dawn (03:19)
10. Save Our Souls (04:13)
11. Black Rain (04:51)
12. The Mistake (05:17)

Produced by Robby Valentine

Personnel

• Andre Borgman - drums
• Paul Coenradie - guitar
• Luuk van Gerven - bass
• Johan 'Jay Jay' Willems - backing vocals, keys
• Robby Valentine - vocals, piano, guitar

Exact Audio Copy V1.0 beta 3 from 29. August 2011

EAC extraction logfile from 18. November 2014, 21:18

Valentine / Bizarro World

Used drive : HL-DT-STDVDRAM GU40N Adapter: 0 ID: 1

Read mode : Secure
Utilize accurate stream : Yes
Defeat audio cache : Yes
Make use of C2 pointers : No

Read offset correction : 103
Overread into Lead-In and Lead-Out : No
Fill up missing offset samples with silence : Yes
Delete leading and trailing silent blocks : No
Null samples used in CRC calculations : Yes
Used interface : Installed external ASPI interface

Used output format : User Defined Encoder
Selected bitrate : 128 kBit/s
Quality : High
Add ID3 tag : No
Command line compressor : C:\Program Files (x86)\AudioConverter\AudioConverter.exe
Additional command line options : -V -8 -T "Date=%year%" -T "Genre=%genre%" %source%


TOC of the extracted CD

Track | Start | Length | Start sector | End sector
––––––––––––––––––––––––––––-
1 | 0:00.00 | 2:05.04 | 0 | 9378
2 | 2:05.04 | 4:16.64 | 9379 | 28642
3 | 6:21.68 | 4:21.08 | 28643 | 48225
4 | 10:43.01 | 3:22.32 | 48226 | 63407
5 | 14:05.33 | 3:07.52 | 63408 | 77484
6 | 17:13.10 | 4:28.11 | 77485 | 97595
7 | 21:41.21 | 3:57.33 | 97596 | 115403
8 | 25:38.54 | 3:08.59 | 115404 | 129562
9 | 28:47.38 | 3:19.47 | 129563 | 144534
10 | 32:07.10 | 4:13.50 | 144535 | 163559
11 | 36:20.60 | 4:51.43 | 163560 | 185427
12 | 41:12.28 | 5:17.53 | 185428 | 209255


Range status and errors

Selected range

Filename C:\Users\workutagin\Desktop\Valentine - Bizzaro World 2014\Valentine - Bizarro World.wav

Peak level 97.5 %
Extraction speed 2.0 X
Range quality 100.0 %
Test CRC 67B915D9
Copy CRC 67B915D9
Copy OK

No errors occurred


AccurateRip summary

Track 1 not present in database
Track 2 not present in database
Track 3 not present in database
Track 4 not present in database
Track 5 not present in database
Track 6 not present in database
Track 7 not present in database
Track 8 not present in database
Track 9 not present in database
Track 10 not present in database
Track 11 not present in database
Track 12 not present in database

None of the tracks are present in the AccurateRip database

End of status report

==== Log checksum 480B691E32F3798A99D1F3A1B322C3E16B63728583CE1EF882240AC6F7BA7ED3 ====


Many thanks to the original uploader: kikel (workutagin)

The Queen Album
Nitroflare

Bizzaro World
Nitroflare