Tags
Language
Tags

Vangelis - Delectus: The Polydor & Vertigo Recordings · 1973-1985 (2017) {13CD Box Set, Reissue, Remastered}

Posted By: popsakov
Vangelis - Delectus: The Polydor & Vertigo Recordings · 1973-1985 (2017) {13CD Box Set, Reissue, Remastered}

Vangelis - Delectus: The Polydor & Vertigo Recordings · 1973-1985 (2017) {13CD Box Set, Reissue, Remastered}
EAC Rip | FLAC (Tracks) + Cue + Log + m3u ~ 3,01 Gb | Scans Included (CD & matrix) | RAR 5% Recovery
Electronic / Ambient / Progressive Rock / Experimental
Universal Music #536 820-7

Deluxe 13 CD box set from the veteran Greek composer and instrumental/electronic music pioneer. Delectus gathers together digitally remastered and expanded editions of Vangelis' seminal albums Earth, L'Apocalypse Des Animaux, China, See You Later, Antarctica, Mask, Opera Sauvage, Chariots of Fire, Soil Festivities and Invisible Connections, plus his collaborative recordings with Jon Anderson as Jon & Vangelis - Short Stories, The Friends of Mister Cairo and Private Collection. The mammoth collection includes all of his albums on Vertigo and Polydor, recently remastered for the first time ever under the legendary composer's own supervision. Presented in a lavish box with an essay and a plethora of rare photographs, the discs are housed in two die-cut, gatefold disc holders within a rigid 242mm square slipcase, and accompanied by a 64-page book illustrating a period of his prolific career of the iconic Maestro. "I always welcome remastering my old work for two basic reasons" - explains Vangelis - "firstly, I get the opportunity to bring the sounds to today's standards, secondly, it gives me the chance to go through the experiences and memories of the time."
Vangelis - Delectus: The Polydor & Vertigo Recordings · 1973-1985 (2017) {13CD Box Set, Reissue, Remastered}


***************

Vangelis - Delectus: The Polydor & Vertigo Recordings · 1973-1985 (2017) {13CD Box Set, Reissue, Remastered}

Track List CD01 - Earth (1973):

01. Come On [2:09]
02. We Were All Uprooted [6:50]
03. Sunny Earth [6:37]
04. He-O [4:10]
05. Ritual [2:46]
06. Let It Happen [4:20]
07. The City [1:13]
08. My Face In The Rain [4:23]
09. Watch Out [3:02]
10. A Song [3:26]

Exact Audio Copy V1.1 from 23. June 2015

Отчёт EAC об извлечении, выполненном 4. апреля 2017, 10:37

VANGELIS / Earth

Дисковод: TSSTcorpBDDVDW SE-506BB Adapter: 1 ID: 1

Режим чтения : Достоверность
Использование точного потока : Да
Отключение кэша аудио : Да
Использование указателей C2 : Нет

Коррекция смещения при чтении : 6
Способность читать области Lead-in и Lead-out : Нет
Заполнение пропущенных сэмплов тишиной : Да
Удаление блоков с тишиной в начале и конце : Нет
При вычислениях CRC использовались нулевые сэмплы : Да
Интерфейс : Встроенный Win32-интерфейс для Win NT/2000
Обработка зазоров : Добавлено к предыдущему треку

Выходной формат : Внутренние WAV-операции
Формат сэмплов : 44.100 Гц; 16 бит; стерео


TOC извлечённого CD

Трек | Старт | Длительность | Начальный сектор | Конечный сектор
––––––––––––––––––––––––––––––––––-
1 | 0:00.00 | 2:09.32 | 0 | 9706
2 | 2:09.32 | 6:49.42 | 9707 | 40423
3 | 8:58.74 | 6:37.21 | 40424 | 70219
4 | 15:36.20 | 4:09.66 | 70220 | 88960
5 | 19:46.11 | 2:45.42 | 88961 | 101377
6 | 22:31.53 | 4:20.17 | 101378 | 120894
7 | 26:51.70 | 1:13.31 | 120895 | 126400
8 | 28:05.26 | 4:22.60 | 126401 | 146110
9 | 32:28.11 | 3:01.52 | 146111 | 159737
10 | 35:29.63 | 3:25.51 | 159738 | 175163


Трек 1

Имя файла D:\Temp\01. Come On.wav

Длина предзазора 0:00:02.00

Пиковый уровень 98.8 %
Скорость извлечения 2.3 X
Качество трека 100.0 %
CRC теста 58DAE544
CRC копии 58DAE544
Точное извлечение (достоверность 8) [CB19FDD8] (AR v2)
Копирование… OK

Трек 2

Имя файла D:\Temp\02. We Were All Uprooted.wav

Пиковый уровень 98.8 %
Скорость извлечения 3.1 X
Качество трека 100.0 %
CRC теста 064EA921
CRC копии 064EA921
Точное извлечение (достоверность 8) [8C6ACBE4] (AR v2)
Копирование… OK

Трек 3

Имя файла D:\Temp\03. Sunny Earth.wav

Пиковый уровень 98.8 %
Скорость извлечения 3.6 X
Качество трека 100.0 %
CRC теста 0025D858
CRC копии 0025D858
Точное извлечение (достоверность 8) [811FC805] (AR v2)
Копирование… OK

Трек 4

Имя файла D:\Temp\04. He-O.wav

Пиковый уровень 98.8 %
Скорость извлечения 3.7 X
Качество трека 100.0 %
CRC теста BD204B88
CRC копии BD204B88
Точное извлечение (достоверность 8) [4176C5F1] (AR v2)
Копирование… OK

Трек 5

Имя файла D:\Temp\05. Ritual.wav

Пиковый уровень 85.9 %
Скорость извлечения 3.7 X
Качество трека 100.0 %
CRC теста 761686D2
CRC копии 761686D2
Точное извлечение (достоверность 8) [F7FFB95A] (AR v2)
Копирование… OK

Трек 6

Имя файла D:\Temp\06. Let It Happen.wav

Пиковый уровень 80.5 %
Скорость извлечения 4.1 X
Качество трека 100.0 %
CRC теста 4CC5B85E
CRC копии 4CC5B85E
Точное извлечение (достоверность 8) [24305259] (AR v2)
Копирование… OK

Трек 7

Имя файла D:\Temp\07. The City.wav

Пиковый уровень 98.8 %
Скорость извлечения 3.2 X
Качество трека 100.0 %
CRC теста 6E6D1EFD
CRC копии 6E6D1EFD
Точное извлечение (достоверность 8) [A774B894] (AR v2)
Копирование… OK

Трек 8

Имя файла D:\Temp\08. My Face In The Rain.wav

Пиковый уровень 61.3 %
Скорость извлечения 4.3 X
Качество трека 100.0 %
CRC теста 5D94926A
CRC копии 5D94926A
Точное извлечение (достоверность 8) [E23CD1BF] (AR v2)
Копирование… OK

Трек 9

Имя файла D:\Temp\09. Watch Out.wav

Пиковый уровень 78.9 %
Скорость извлечения 4.3 X
Качество трека 100.0 %
CRC теста 81ADE1A6
CRC копии 81ADE1A6
Точное извлечение (достоверность 8) [211F9628] (AR v2)
Копирование… OK

Трек 10

Имя файла D:\Temp\10. A Song.wav

Пиковый уровень 56.7 %
Скорость извлечения 4.5 X
Качество трека 100.0 %
CRC теста 36502F03
CRC копии 36502F03
Точное извлечение (достоверность 8) [F9A71340] (AR v2)
Копирование… OK


Все треки извлечены точно

Ошибок не произошло

Конец отчёта

–– CUETools DB Plugin V2.1.6

[CTDB TOCID: Fe3nF_sM_a958sYgxu11KB4e6xQ-] found
Submit result: Fe3nF_sM_a958sYgxu11KB4e6xQ- has been confirmed
Track | CTDB Status
1 | (22/22) Accurately ripped
2 | (22/22) Accurately ripped
3 | (22/22) Accurately ripped
4 | (22/22) Accurately ripped
5 | (22/22) Accurately ripped
6 | (22/22) Accurately ripped
7 | (22/22) Accurately ripped
8 | (22/22) Accurately ripped
9 | (22/22) Accurately ripped
10 | (22/22) Accurately ripped


==== Контрольная сумма отчёта 40F55769AD2EECFF560CB532473F3B0C8CC15D9C2D474AF35F7DF739AE7BEC08 ====

foobar2000 1.2.6 / Dynamic Range Meter 1.1.1
log date: 2017-04-10 00:19:48

––––––––––––––––––––––––––––––––––––––––
Analyzed: VANGELIS / Earth
––––––––––––––––––––––––––––––––––––––––

DR Peak RMS Duration Track
––––––––––––––––––––––––––––––––––––––––
DR13 -0.10 dB -14.50 dB 2:09 01-Come On
DR15 -0.10 dB -18.72 dB 6:50 02-We Were All Uprooted
DR17 -0.10 dB -20.29 dB 6:37 03-Sunny Earth
DR13 -0.10 dB -15.93 dB 4:10 04-He-O
DR14 -1.32 dB -17.57 dB 2:46 05-Ritual
DR12 -1.88 dB -15.21 dB 4:20 06-Let It Happen
DR14 -0.10 dB -16.84 dB 1:13 07-The City
DR10 -4.24 dB -18.83 dB 4:23 08-My Face In The Rain
DR12 -2.06 dB -17.40 dB 3:02 09-Watch Out
DR12 -4.92 dB -19.64 dB 3:26 10-A Song
––––––––––––––––––––––––––––––––––––––––

Number of tracks: 10
Official DR value: DR13

Samplerate: 44100 Hz
Channels: 2
Bits per sample: 16
Bitrate: 697 kbps
Codec: FLAC
================================================================================

[CUETools log; Date: 10.04.2017 0:20:08; Version: 2.1.5]
[CTDB TOCID: Fe3nF_sM_a958sYgxu11KB4e6xQ-] found.
Track | CTDB Status
1 | (24/24) Accurately ripped
2 | (24/24) Accurately ripped
3 | (24/24) Accurately ripped
4 | (24/24) Accurately ripped
5 | (24/24) Accurately ripped
6 | (24/24) Accurately ripped
7 | (24/24) Accurately ripped
8 | (24/24) Accurately ripped
9 | (24/24) Accurately ripped
10 | (24/24) Accurately ripped
[AccurateRip ID: 000fda97-007caf20-79091f0a] found.
Track [ CRC | V2 ] Status
01 [f24b5c51|cb19fdd8] (0+9/9) Accurately ripped
02 [761675b3|8c6acbe4] (0+9/9) Accurately ripped
03 [f9accccb|811fc805] (0+9/9) Accurately ripped
04 [5c9a5bac|4176c5f1] (0+9/9) Accurately ripped
05 [46cf8322|f7ffb95a] (0+9/9) Accurately ripped
06 [28c53a43|24305259] (0+9/9) Accurately ripped
07 [7a9f6d1e|a774b894] (0+9/9) Accurately ripped
08 [e58404a6|e23cd1bf] (0+9/9) Accurately ripped
09 [15874bd6|211f9628] (0+9/9) Accurately ripped
10 [6c72598e|f9a71340] (0+9/9) Accurately ripped

Track Peak [ CRC32 ] [W/O NULL] [ LOG ]
– 98,8 [FF0C1BD1] [60944FEF]
01 98,8 [58DAE544] [2142FBED] CRC32
02 98,8 [064EA921] [011BBD1B] CRC32
03 98,8 [0025D858] [694C6799] CRC32
04 98,8 [BD204B88] [CF39AD0B] CRC32
05 85,9 [761686D2] [1EB61BB7] CRC32
06 80,5 [4CC5B85E] [F5D36CFE] CRC32
07 98,8 [6E6D1EFD] [72CE17BE] CRC32
08 61,3 [5D94926A] [E9459FDA] CRC32
09 78,9 [81ADE1A6] [B55846B5] CRC32
10 56,7 [36502F03] [23AD98A6] CRC32

Track List CD02 - L'Apocalypse des Animaux (1973) (OST):

01. Apocalypse des Animaux - Generique [1:29]
02. La Petite Fille de la Mer [5:55]
03. Le Singe Bleu [7:40]
04. La Mort du Loup [3:05]
05. L'Ours Musicien [1:05]
06. Creation du Monde [10:02]
07. La Mer Recommencee [5:55]

Exact Audio Copy V1.1 from 23. June 2015

Отчёт EAC об извлечении, выполненном 4. апреля 2017, 11:28

VANGELIS / L'Apocalypse des Animaux

Дисковод: TSSTcorpBDDVDW SE-506BB Adapter: 1 ID: 1

Режим чтения : Достоверность
Использование точного потока : Да
Отключение кэша аудио : Да
Использование указателей C2 : Нет

Коррекция смещения при чтении : 6
Способность читать области Lead-in и Lead-out : Нет
Заполнение пропущенных сэмплов тишиной : Да
Удаление блоков с тишиной в начале и конце : Нет
При вычислениях CRC использовались нулевые сэмплы : Да
Интерфейс : Встроенный Win32-интерфейс для Win NT/2000
Обработка зазоров : Не обнаружено, добавлено к предыдущему треку

Выходной формат : Внутренние WAV-операции
Формат сэмплов : 44.100 Гц; 16 бит; стерео


TOC извлечённого CD

Трек | Старт | Длительность | Начальный сектор | Конечный сектор
––––––––––––––––––––––––––––––––––-
1 | 0:00.00 | 1:28.49 | 0 | 6648
2 | 1:28.49 | 5:54.68 | 6649 | 33266
3 | 7:23.42 | 7:40.31 | 33267 | 67797
4 | 15:03.73 | 3:05.17 | 67798 | 81689
5 | 18:09.15 | 1:05.20 | 81690 | 86584
6 | 19:14.35 | 10:01.38 | 86585 | 131697
7 | 29:15.73 | 5:54.49 | 131698 | 158296


Трек 1

Имя файла D:\Temp\01. Apocalypse des Animaux - Generique.wav

Пиковый уровень 98.8 %
Скорость извлечения 0.7 X
Качество трека 99.8 %
CRC теста D8179A4E
CRC копии D8179A4E
Точное извлечение (достоверность 7) [398D5780] (AR v2)
Копирование… OK

Трек 2

Имя файла D:\Temp\02. La Petite Fille de la Mer.wav

Пиковый уровень 70.0 %
Скорость извлечения 2.5 X
Качество трека 99.9 %
CRC теста FC7AFE7D
CRC копии FC7AFE7D
Точное извлечение (достоверность 7) [36F5547F] (AR v2)
Копирование… OK

Трек 3

Имя файла D:\Temp\03. Le Singe Bleu.wav

Пиковый уровень 35.8 %
Скорость извлечения 1.8 X
Качество трека 99.8 %
CRC теста A7EB5EA4
CRC копии A7EB5EA4
Точное извлечение (достоверность 7) [311B19B2] (AR v2)
Копирование… OK

Трек 4

Имя файла D:\Temp\04. La Mort du Loup.wav

Пиковый уровень 65.6 %
Скорость извлечения 1.5 X
Качество трека 99.8 %
CRC теста 2F70A8F3
CRC копии 2F70A8F3
Точное извлечение (достоверность 7) [AFC57843] (AR v2)
Копирование… OK

Трек 5

Имя файла D:\Temp\05. L'Ours Musicien.wav

Пиковый уровень 68.1 %
Скорость извлечения 2.5 X
Качество трека 100.0 %
CRC теста C45886B9
CRC копии C45886B9
Точное извлечение (достоверность 7) [EE50CE1B] (AR v2)
Копирование… OK

Трек 6

Имя файла D:\Temp\06. Creation du Monde.wav

Пиковый уровень 81.8 %
Скорость извлечения 4.5 X
Качество трека 100.0 %
CRC теста 6503D210
CRC копии 6503D210
Точное извлечение (достоверность 7) [60C49320] (AR v2)
Копирование… OK

Трек 7

Имя файла D:\Temp\07. La Mer Recommencee.wav

Пиковый уровень 98.6 %
Скорость извлечения 4.7 X
Качество трека 100.0 %
CRC теста BA443FB6
CRC копии BA443FB6
Точное извлечение (достоверность 7) [821A5883] (AR v2)
Копирование… OK


Все треки извлечены точно

Ошибок не произошло

Конец отчёта

–– CUETools DB Plugin V2.1.6

[CTDB TOCID: 1o8JBhMrTPUyofVh9Ts2ScE4mMU-] found
Submit result: 1o8JBhMrTPUyofVh9Ts2ScE4mMU- has been confirmed
Track | CTDB Status
1 | (21/21) Accurately ripped
2 | (21/21) Accurately ripped
3 | (21/21) Accurately ripped
4 | (21/21) Accurately ripped
5 | (21/21) Accurately ripped
6 | (21/21) Accurately ripped
7 | (21/21) Accurately ripped


==== Контрольная сумма отчёта CE91B6E8ED145BA0FD87A264C1D64B982584F54D99E2DDE1CB114E4456A50634 ====

foobar2000 1.2.6 / Dynamic Range Meter 1.1.1
log date: 2017-04-10 00:22:05

––––––––––––––––––––––––––––––––––––––––
Analyzed: VANGELIS / L’Apocalypse des Animaux
––––––––––––––––––––––––––––––––––––––––

DR Peak RMS Duration Track
––––––––––––––––––––––––––––––––––––––––
DR13 -0.10 dB -15.46 dB 1:29 01-Apocalypse des Animaux — Générique
DR11 -3.10 dB -17.50 dB 5:55 02-La Petite Fille de la Mer
DR11 -8.90 dB -23.82 dB 7:40 03-Le Singe Bleu
DR12 -3.65 dB -19.61 dB 3:05 04-La Mort du Loup
DR10 -3.33 dB -20.34 dB 1:05 05-L’Ours Musicien
DR11 -1.74 dB -16.49 dB 10:02 06-Création du Monde
DR11 -0.12 dB -17.64 dB 5:55 07-La Mer Recommencée
––––––––––––––––––––––––––––––––––––––––

Number of tracks: 7
Official DR value: DR11

Samplerate: 44100 Hz
Channels: 2
Bits per sample: 16
Bitrate: 683 kbps
Codec: FLAC
================================================================================

[CUETools log; Date: 10.04.2017 0:21:37; Version: 2.1.5]
[CTDB TOCID: 1o8JBhMrTPUyofVh9Ts2ScE4mMU-] found.
Track | CTDB Status
1 | (23/23) Accurately ripped
2 | (23/23) Accurately ripped
3 | (23/23) Accurately ripped
4 | (23/23) Accurately ripped
5 | (23/23) Accurately ripped
6 | (23/23) Accurately ripped
7 | (23/23) Accurately ripped
[AccurateRip ID: 0008a2e0-003569e2-52083e07] found.
Track [ CRC | V2 ] Status
01 [3056e125|398d5780] (0+9/9) Accurately ripped
02 [7dd4bb04|36f5547f] (0+9/9) Accurately ripped
03 [df9c13dd|311b19b2] (0+9/9) Accurately ripped
04 [78a2363c|afc57843] (0+9/9) Accurately ripped
05 [49c3d6af|ee50ce1b] (0+9/9) Accurately ripped
06 [5b727a3e|60c49320] (0+9/9) Accurately ripped
07 [c7c1779d|821a5883] (0+9/9) Accurately ripped

Track Peak [ CRC32 ] [W/O NULL] [ LOG ]
– 98,8 [BE81D82B] [BFBBF6A2]
01 98,8 [D8179A4E] [AC55241A] CRC32
02 70,0 [FC7AFE7D] [61E23F15] CRC32
03 35,8 [A7EB5EA4] [E769EF20] CRC32
04 65,6 [2F70A8F3] [29557771] CRC32
05 68,1 [C45886B9] [1E08D600] CRC32
06 81,8 [6503D210] [8FDF8AAB] CRC32
07 98,6 [BA443FB6] [BA90807C] CRC32

Track List CD03 - China (1979):

01. Chung Kuo [5:31]
02. The Long March [2:02]
03. The Dragon [4:14]
04. The Plum Blossom [2:36]
05. The Tao Of Love [2:46]
06. The Little Fete [3:00]
07. Yin & Yang [5:55]
08. Himalaya [10:38]
09. Summit [4:48]

Exact Audio Copy V1.1 from 23. June 2015

Отчёт EAC об извлечении, выполненном 4. апреля 2017, 12:29

VANGELIS / China

Дисковод: TSSTcorpBDDVDW SE-506BB Adapter: 1 ID: 1

Режим чтения : Достоверность
Использование точного потока : Да
Отключение кэша аудио : Да
Использование указателей C2 : Нет

Коррекция смещения при чтении : 6
Способность читать области Lead-in и Lead-out : Нет
Заполнение пропущенных сэмплов тишиной : Да
Удаление блоков с тишиной в начале и конце : Нет
При вычислениях CRC использовались нулевые сэмплы : Да
Интерфейс : Встроенный Win32-интерфейс для Win NT/2000
Обработка зазоров : Не обнаружено, добавлено к предыдущему треку

Выходной формат : Внутренние WAV-операции
Формат сэмплов : 44.100 Гц; 16 бит; стерео


TOC извлечённого CD

Трек | Старт | Длительность | Начальный сектор | Конечный сектор
––––––––––––––––––––––––––––––––––-
1 | 0:00.00 | 5:30.62 | 0 | 24811
2 | 5:30.62 | 2:02.15 | 24812 | 33976
3 | 7:33.02 | 4:13.60 | 33977 | 53011
4 | 11:46.62 | 2:36.28 | 53012 | 64739
5 | 14:23.15 | 2:45.61 | 64740 | 77175
6 | 17:09.01 | 2:59.54 | 77176 | 90654
7 | 20:08.55 | 5:55.13 | 90655 | 117292
8 | 26:03.68 | 10:37.68 | 117293 | 165135
9 | 36:41.61 | 4:48.10 | 165136 | 186745


Трек 1

Имя файла D:\Temp\01. Chung Kuo.wav

Пиковый уровень 87.5 %
Скорость извлечения 2.9 X
Качество трека 100.0 %
CRC теста 280FE049
CRC копии 280FE049
Точное извлечение (достоверность 7) [84CBCBDC] (AR v2)
Копирование… OK

Трек 2

Имя файла D:\Temp\02. The Long March.wav

Пиковый уровень 86.6 %
Скорость извлечения 2.1 X
Качество трека 100.0 %
CRC теста 498D71FA
CRC копии 498D71FA
Точное извлечение (достоверность 7) [0BAA4FDD] (AR v2)
Копирование… OK

Трек 3

Имя файла D:\Temp\03. The Dragon.wav

Пиковый уровень 97.8 %
Скорость извлечения 3.3 X
Качество трека 100.0 %
CRC теста C6851302
CRC копии C6851302
Точное извлечение (достоверность 7) [44341712] (AR v2)
Копирование… OK

Трек 4

Имя файла D:\Temp\04. The Plum Blossom.wav

Пиковый уровень 76.9 %
Скорость извлечения 2.2 X
Качество трека 99.9 %
CRC теста 14A335B6
CRC копии 14A335B6
Точное извлечение (достоверность 7) [BC50BC12] (AR v2)
Копирование… OK

Трек 5

Имя файла D:\Temp\05. The Tao Of Love.wav

Пиковый уровень 82.2 %
Скорость извлечения 3.5 X
Качество трека 100.0 %
CRC теста 42F26F9C
CRC копии 42F26F9C
Точное извлечение (достоверность 7) [94FF8B93] (AR v2)
Копирование… OK

Трек 6

Имя файла D:\Temp\06. The Little Fete.wav

Пиковый уровень 41.6 %
Скорость извлечения 3.7 X
Качество трека 100.0 %
CRC теста BBF73B24
CRC копии BBF73B24
Точное извлечение (достоверность 7) [7EADF8BF] (AR v2)
Копирование… OK

Трек 7

Имя файла D:\Temp\07. Yin & Yang.wav

Пиковый уровень 98.8 %
Скорость извлечения 4.3 X
Качество трека 100.0 %
CRC теста EAF0CBE9
CRC копии EAF0CBE9
Точное извлечение (достоверность 7) [1BDC4400] (AR v2)
Копирование… OK

Трек 8

Имя файла D:\Temp\08. Himalaya.wav

Пиковый уровень 98.8 %
Скорость извлечения 4.9 X
Качество трека 100.0 %
CRC теста 4D498A3C
CRC копии 4D498A3C
Точное извлечение (достоверность 7) [F3F2CCCF] (AR v2)
Копирование… OK

Трек 9

Имя файла D:\Temp\09. Summit.wav

Пиковый уровень 60.5 %
Скорость извлечения 4.9 X
Качество трека 100.0 %
CRC теста D17EC6E5
CRC копии D17EC6E5
Точное извлечение (достоверность 7) [49A2FAC9] (AR v2)
Копирование… OK


Все треки извлечены точно

Ошибок не произошло

Конец отчёта

–– CUETools DB Plugin V2.1.6

[CTDB TOCID: .DEdyY5ZN__TeKDmdwS81D28Czs-] found
Submit result: .DEdyY5ZN__TeKDmdwS81D28Czs- has been confirmed
Track | CTDB Status
1 | (23/23) Accurately ripped
2 | (23/23) Accurately ripped
3 | (23/23) Accurately ripped
4 | (23/23) Accurately ripped
5 | (23/23) Accurately ripped
6 | (23/23) Accurately ripped
7 | (23/23) Accurately ripped
8 | (23/23) Accurately ripped
9 | (23/23) Accurately ripped


==== Контрольная сумма отчёта 2258E8F61C5763E53E9D84F2D3FF1744D1BC3937023EFE9628AC6FC5B7E821EA ====

foobar2000 1.2.6 / Dynamic Range Meter 1.1.1
log date: 2017-04-10 00:22:43

––––––––––––––––––––––––––––––––––––––––
Analyzed: VANGELIS / China
––––––––––––––––––––––––––––––––––––––––

DR Peak RMS Duration Track
––––––––––––––––––––––––––––––––––––––––
DR12 -1.15 dB -16.84 dB 5:31 01-Chung Kuo
DR12 -1.25 dB -19.72 dB 2:02 02-The Long March
DR14 -0.19 dB -16.88 dB 4:14 03-The Dragon
DR13 -2.28 dB -19.55 dB 2:36 04-The Plum Blossom
DR13 -1.69 dB -18.20 dB 2:46 05-The Tao Of Love
DR13 -7.61 dB -24.18 dB 3:00 06-The Little Fete
DR14 -0.10 dB -17.92 dB 5:55 07-Yin & Yang
DR15 -0.10 dB -17.90 dB 10:38 08-Himalaya
DR13 -4.36 dB -24.00 dB 4:48 09-Summit
––––––––––––––––––––––––––––––––––––––––

Number of tracks: 9
Official DR value: DR13

Samplerate: 44100 Hz
Channels: 2
Bits per sample: 16
Bitrate: 693 kbps
Codec: FLAC
================================================================================

[CUETools log; Date: 10.04.2017 0:22:29; Version: 2.1.5]
[CTDB TOCID: .DEdyY5ZN__TeKDmdwS81D28Czs-] found.
Track | CTDB Status
1 | (26/26) Accurately ripped
2 | (26/26) Accurately ripped
3 | (26/26) Accurately ripped
4 | (26/26) Accurately ripped
5 | (26/26) Accurately ripped
6 | (26/26) Accurately ripped
7 | (26/26) Accurately ripped
8 | (26/26) Accurately ripped
9 | (26/26) Accurately ripped
[AccurateRip ID: 000c69eb-005cba2d-5b09b909] found.
Track [ CRC | V2 ] Status
01 [be7411bc|84cbcbdc] (0+9/9) Accurately ripped
02 [61ae9854|0baa4fdd] (0+9/9) Accurately ripped
03 [c3dff067|44341712] (0+9/9) Accurately ripped
04 [f7f132cb|bc50bc12] (0+9/9) Accurately ripped
05 [08517b2f|94ff8b93] (0+9/9) Accurately ripped
06 [fc0dc4e2|7eadf8bf] (0+9/9) Accurately ripped
07 [bce01c06|1bdc4400] (0+9/9) Accurately ripped
08 [c4a63df2|f3f2cccf] (0+9/9) Accurately ripped
09 [da6e4a87|49a2fac9] (0+9/9) Accurately ripped

Track Peak [ CRC32 ] [W/O NULL] [ LOG ]
– 98,8 [58AFDE73] [17719C23]
01 87,5 [280FE049] [A999FEE5] CRC32
02 86,6 [498D71FA] [51A221E1] CRC32
03 97,8 [C6851302] [ED049FAE] CRC32
04 76,9 [14A335B6] [D149FA0C] CRC32
05 82,2 [42F26F9C] [571F8D79] CRC32
06 41,6 [BBF73B24] [76DFF6BE] CRC32
07 98,8 [EAF0CBE9] [B20762AA] CRC32
08 98,8 [4D498A3C] [3B9B9933] CRC32
09 60,5 [D17EC6E5] [C01BD09F] CRC32

Track List CD04 - Opera Sauvage (1979) (OST):

01. Hymne [2:44]
02. Reve [12:32]
03. L'Enfant [5:01]
04. Mouettes [2:34]
05. Chromatique [3:28]
06. Irlande [4:44]
07. Flamants Roses [11:43]

Exact Audio Copy V1.1 from 23. June 2015

Отчёт EAC об извлечении, выполненном 5. апреля 2017, 15:25

VANGELIS / Opera Sauvage

Дисковод: TSSTcorpBDDVDW SE-506BB Adapter: 1 ID: 1

Режим чтения : Достоверность
Использование точного потока : Да
Отключение кэша аудио : Да
Использование указателей C2 : Нет

Коррекция смещения при чтении : 6
Способность читать области Lead-in и Lead-out : Нет
Заполнение пропущенных сэмплов тишиной : Да
Удаление блоков с тишиной в начале и конце : Нет
При вычислениях CRC использовались нулевые сэмплы : Да
Интерфейс : Встроенный Win32-интерфейс для Win NT/2000
Обработка зазоров : Не обнаружено, добавлено к предыдущему треку

Выходной формат : Внутренние WAV-операции
Формат сэмплов : 44.100 Гц; 16 бит; стерео


TOC извлечённого CD

Трек | Старт | Длительность | Начальный сектор | Конечный сектор
––––––––––––––––––––––––––––––––––-
1 | 0:00.00 | 2:44.10 | 0 | 12309
2 | 2:44.10 | 12:31.49 | 12310 | 68683
3 | 15:15.59 | 5:00.58 | 68684 | 91241
4 | 20:16.42 | 2:34.13 | 91242 | 102804
5 | 22:50.55 | 3:27.53 | 102805 | 118382
6 | 26:18.33 | 4:44.19 | 118383 | 139701
7 | 31:02.52 | 11:43.07 | 139702 | 192433


Трек 1

Имя файла D:\Temp\01. Hymne.wav

Пиковый уровень 98.8 %
Скорость извлечения 2.5 X
Качество трека 100.0 %
CRC теста 715039DA
CRC копии 715039DA
Точное извлечение (достоверность 7) [6BD58676] (AR v2)
Копирование… OK

Трек 2

Имя файла D:\Temp\02. Reve.wav

Пиковый уровень 98.8 %
Скорость извлечения 1.5 X
Качество трека 99.9 %
CRC теста 4751CEB2
CRC копии 4751CEB2
Точное извлечение (достоверность 7) [08E67691] (AR v2)
Копирование… OK

Трек 3

Имя файла D:\Temp\03. L'Enfant.wav

Пиковый уровень 98.8 %
Скорость извлечения 3.2 X
Качество трека 99.9 %
CRC теста 5D68BCF8
CRC копии 5D68BCF8
Точное извлечение (достоверность 7) [376BB3BD] (AR v2)
Копирование… OK

Трек 4

Имя файла D:\Temp\04. Mouettes.wav

Пиковый уровень 47.6 %
Скорость извлечения 3.7 X
Качество трека 100.0 %
CRC теста DAC704C6
CRC копии DAC704C6
Точное извлечение (достоверность 7) [3F5A98EC] (AR v2)
Копирование… OK

Трек 5

Имя файла D:\Temp\05. Chromatique.wav

Пиковый уровень 69.6 %
Скорость извлечения 2.7 X
Качество трека 99.9 %
CRC теста 8EBA2774
CRC копии 8EBA2774
Точное извлечение (достоверность 7) [9EF0F7F9] (AR v2)
Копирование… OK

Трек 6

Имя файла D:\Temp\06. Irlande.wav

Пиковый уровень 47.8 %
Скорость извлечения 4.4 X
Качество трека 100.0 %
CRC теста 070BD546
CRC копии 070BD546
Точное извлечение (достоверность 7) [E2449821] (AR v2)
Копирование… OK

Трек 7

Имя файла D:\Temp\07. Flamants Roses.wav

Пиковый уровень 98.8 %
Скорость извлечения 5.2 X
Качество трека 100.0 %
CRC теста 073758F1
CRC копии 073758F1
Точное извлечение (достоверность 7) [F50C7BC5] (AR v2)
Копирование… OK


Все треки извлечены точно

Ошибок не произошло

Конец отчёта

–– CUETools DB Plugin V2.1.6

[CTDB TOCID: 82X9tVh8UpQn2m0MYCG.6UAsi5Y-] found
Submit result: 82X9tVh8UpQn2m0MYCG.6UAsi5Y- has been confirmed
Track | CTDB Status
1 | (22/22) Accurately ripped
2 | (22/22) Accurately ripped
3 | (22/22) Accurately ripped
4 | (22/22) Accurately ripped
5 | (22/22) Accurately ripped
6 | (22/22) Accurately ripped
7 | (22/22) Accurately ripped


==== Контрольная сумма отчёта FE4CB75A13B160175ACFFB00F9994713F0F6AA439AAAEF9EAF77EF2F4577A5C8 ====

foobar2000 1.2.6 / Dynamic Range Meter 1.1.1
log date: 2017-04-10 00:25:53

––––––––––––––––––––––––––––––––––––––––
Analyzed: VANGELIS / Opéra Sauvage
––––––––––––––––––––––––––––––––––––––––

DR Peak RMS Duration Track
––––––––––––––––––––––––––––––––––––––––
DR13 -0.10 dB -15.98 dB 2:44 01-Hymne
DR12 -0.10 dB -16.10 dB 12:32 02-Rêve
DR14 -0.10 dB -17.86 dB 5:01 03-L’Enfant
DR11 -6.44 dB -21.43 dB 2:34 04-Mouettes
DR12 -3.14 dB -17.03 dB 3:28 05-Chromatique
DR10 -6.41 dB -19.74 dB 4:44 06-Irlande
DR15 -0.10 dB -19.76 dB 11:43 07-Flamants Roses
––––––––––––––––––––––––––––––––––––––––

Number of tracks: 7
Official DR value: DR12

Samplerate: 44100 Hz
Channels: 2
Bits per sample: 16
Bitrate: 684 kbps
Codec: FLAC
================================================================================

[CUETools log; Date: 10.04.2017 0:25:31; Version: 2.1.5]
[CTDB TOCID: 82X9tVh8UpQn2m0MYCG.6UAsi5Y-] found.
Track | CTDB Status
1 | (24/24) Accurately ripped
2 | (24/24) Accurately ripped
3 | (24/24) Accurately ripped
4 | (24/24) Accurately ripped
5 | (24/24) Accurately ripped
6 | (24/24) Accurately ripped
7 | (24/24) Accurately ripped
[AccurateRip ID: 000b1238-00422ec6-5a0a0507] found.
Track [ CRC | V2 ] Status
01 [8b9ef3c7|6bd58676] (0+9/9) Accurately ripped
02 [8ca5b3ff|08e67691] (0+9/9) Accurately ripped
03 [875e86b2|376bb3bd] (0+9/9) Accurately ripped
04 [f08808ae|3f5a98ec] (0+9/9) Accurately ripped
05 [038a5a78|9ef0f7f9] (0+9/9) Accurately ripped
06 [e75eeadc|e2449821] (0+9/9) Accurately ripped
07 [930920ad|f50c7bc5] (0+9/9) Accurately ripped

Track Peak [ CRC32 ] [W/O NULL] [ LOG ]
– 98,8 [27AC5827] [98D37DEF]
01 98,8 [715039DA] [1319D690] CRC32
02 98,8 [4751CEB2] [FBC9DA0D] CRC32
03 98,8 [5D68BCF8] [7CF09A1F] CRC32
04 47,6 [DAC704C6] [BD468D13] CRC32
05 69,6 [8EBA2774] [27B11DB9] CRC32
06 47,8 [070BD546] [F15B0801] CRC32
07 98,8 [073758F1] [EDBE4113] CRC32

Track List CD05 - See You Later (1980):

01. I Can't Take It Anymore [5:35]
02. Multi-Track Suggestion [5:26]
03. Memories Of Green [5:40]
04. Not A Bit - All Of It [2:53]
05. Suffocation [9:17]
06. See You Later [10:24]
07. Neighbours Above [4:53]
08. My Love [4:11]
09. Domestic Logic 1 [3:19]

Exact Audio Copy V1.1 from 23. June 2015

Отчёт EAC об извлечении, выполненном 5. апреля 2017, 16:18

VANGELIS / See You Later

Дисковод: TSSTcorpBDDVDW SE-506BB Adapter: 1 ID: 1

Режим чтения : Достоверность
Использование точного потока : Да
Отключение кэша аудио : Да
Использование указателей C2 : Нет

Коррекция смещения при чтении : 6
Способность читать области Lead-in и Lead-out : Нет
Заполнение пропущенных сэмплов тишиной : Да
Удаление блоков с тишиной в начале и конце : Нет
При вычислениях CRC использовались нулевые сэмплы : Да
Интерфейс : Встроенный Win32-интерфейс для Win NT/2000
Обработка зазоров : Добавлено к предыдущему треку

Выходной формат : Внутренние WAV-операции
Формат сэмплов : 44.100 Гц; 16 бит; стерео


TOC извлечённого CD

Трек | Старт | Длительность | Начальный сектор | Конечный сектор
––––––––––––––––––––––––––––––––––-
1 | 0:00.00 | 5:35.25 | 0 | 25149
2 | 5:35.25 | 5:26.22 | 25150 | 49621
3 | 11:01.47 | 5:39.67 | 49622 | 75113
4 | 16:41.39 | 2:52.50 | 75114 | 88063
5 | 19:34.14 | 9:17.37 | 88064 | 129875
6 | 28:51.51 | 10:24.00 | 129876 | 176675
7 | 39:15.51 | 4:52.66 | 176676 | 198641
8 | 44:08.42 | 4:10.54 | 198642 | 217445
9 | 48:19.21 | 3:19.00 | 217446 | 232370


Трек 1

Имя файла D:\Temp\01. I Can't Take It Anymore.wav

Длина предзазора 0:00:02.00

Пиковый уровень 98.8 %
Скорость извлечения 2.3 X
Качество трека 99.9 %
CRC теста 307D5CF2
CRC копии 307D5CF2
Точное извлечение (достоверность 7) [E1C145EC] (AR v2)
Копирование… OK

Трек 2

Имя файла D:\Temp\02. Multi-Track Suggestion.wav

Пиковый уровень 98.8 %
Скорость извлечения 3.2 X
Качество трека 100.0 %
CRC теста 03B3196B
CRC копии 03B3196B
Точное извлечение (достоверность 7) [DF22BB1F] (AR v2)
Копирование… OK

Трек 3

Имя файла D:\Temp\03. Memories Of Green.wav

Пиковый уровень 60.5 %
Скорость извлечения 3.6 X
Качество трека 100.0 %
CRC теста DFC62D2A
CRC копии DFC62D2A
Точное извлечение (достоверность 7) [3EF11514] (AR v2)
Копирование… OK

Трек 4

Имя файла D:\Temp\04. Not A Bit - All Of It.wav

Пиковый уровень 78.0 %
Скорость извлечения 3.5 X
Качество трека 100.0 %
CRC теста EE1EC919
CRC копии EE1EC919
Точное извлечение (достоверность 7) [20FF2F83] (AR v2)
Копирование… OK

Трек 5

Имя файла D:\Temp\05. Suffocation.wav

Пиковый уровень 98.8 %
Скорость извлечения 4.3 X
Качество трека 100.0 %
CRC теста DB5A28A3
CRC копии DB5A28A3
Точное извлечение (достоверность 7) [F2574089] (AR v2)
Копирование… OK

Трек 6

Имя файла D:\Temp\06. See You Later.wav

Пиковый уровень 96.2 %
Скорость извлечения 4.6 X
Качество трека 100.0 %
CRC теста F2E2AA1F
CRC копии F2E2AA1F
Точное извлечение (достоверность 7) [6CEF4B13] (AR v2)
Копирование… OK

Трек 7

Имя файла D:\Temp\07. Neighbours Above.wav

Пиковый уровень 98.8 %
Скорость извлечения 4.3 X
Качество трека 100.0 %
CRC теста 6D17189D
CRC копии 6D17189D
Точное извлечение (достоверность 7) [728A1AE9] (AR v2)
Копирование… OK

Трек 8

Имя файла D:\Temp\08. My Love.wav

Пиковый уровень 89.7 %
Скорость извлечения 5.0 X
Качество трека 100.0 %
CRC теста 8F6122D1
CRC копии 8F6122D1
Точное извлечение (достоверность 7) [B4D61FE4] (AR v2)
Копирование… OK

Трек 9

Имя файла D:\Temp\09. Domestic Logic 1.wav

Пиковый уровень 98.8 %
Скорость извлечения 4.9 X
Качество трека 100.0 %
CRC теста D1FAB926
CRC копии D1FAB926
Точное извлечение (достоверность 7) [6EDAA484] (AR v2)
Копирование… OK


Все треки извлечены точно

Ошибок не произошло

Конец отчёта

–– CUETools DB Plugin V2.1.6

[CTDB TOCID: Lf0NzmJAx3BGRpw.5iqQ5UCfxh8-] found
Submit result: Lf0NzmJAx3BGRpw.5iqQ5UCfxh8- has been confirmed
Track | CTDB Status
1 | (20/20) Accurately ripped
2 | (20/20) Accurately ripped
3 | (20/20) Accurately ripped
4 | (20/20) Accurately ripped
5 | (20/20) Accurately ripped
6 | (20/20) Accurately ripped
7 | (20/20) Accurately ripped
8 | (20/20) Accurately ripped
9 | (20/20) Accurately ripped


==== Контрольная сумма отчёта 1AA6468FAFE967CD732A7A55F5BDD3CDF674B9AFC9B9D0020C7E7B8E7D265893 ====

foobar2000 1.2.6 / Dynamic Range Meter 1.1.1
log date: 2017-04-10 00:26:55

––––––––––––––––––––––––––––––––––––––––
Analyzed: VANGELIS / See You Later
––––––––––––––––––––––––––––––––––––––––

DR Peak RMS Duration Track
––––––––––––––––––––––––––––––––––––––––
DR17 -0.10 dB -20.34 dB 5:35 01-I Can’t Take It Anymore
DR17 -0.10 dB -20.00 dB 5:26 02-Multi-Track Suggestion
DR17 -4.36 dB -25.57 dB 5:40 03-Memories Of Green
DR15 -2.15 dB -20.68 dB 2:53 04-Not A Bit — All Of It
DR15 -0.10 dB -20.50 dB 9:17 05-Suffocation
DR14 -0.33 dB -18.10 dB 10:24 06-See You Later
DR15 -0.10 dB -17.45 dB 4:53 07-Neighbours Above
DR14 -0.94 dB -17.47 dB 4:11 08-My Love
DR18 -0.10 dB -18.65 dB 3:19 09-Domestic Logic 1
––––––––––––––––––––––––––––––––––––––––

Number of tracks: 9
Official DR value: DR16

Samplerate: 44100 Hz
Channels: 2
Bits per sample: 16
Bitrate: 905 kbps
Codec: FLAC
================================================================================

[CUETools log; Date: 10.04.2017 0:26:41; Version: 2.1.5]
[CTDB TOCID: Lf0NzmJAx3BGRpw.5iqQ5UCfxh8-] found.
Track | CTDB Status
1 | (23/23) Accurately ripped
2 | (23/23) Accurately ripped
3 | (23/23) Accurately ripped
4 | (23/23) Accurately ripped
5 | (23/23) Accurately ripped
6 | (23/23) Accurately ripped
7 | (23/23) Accurately ripped
8 | (23/23) Accurately ripped
9 | (23/23) Accurately ripped
[AccurateRip ID: 00123401-0086abbf-690c1a09] found.
Track [ CRC | V2 ] Status
01 [dc173b2c|e1c145ec] (0+9/9) Accurately ripped
02 [0d21b0d2|df22bb1f] (0+9/9) Accurately ripped
03 [9fdf0fd0|3ef11514] (0+9/9) Accurately ripped
04 [1d79ee8e|20ff2f83] (0+9/9) Accurately ripped
05 [31e74fb8|f2574089] (0+9/9) Accurately ripped
06 [a6f66926|6cef4b13] (0+9/9) Accurately ripped
07 [05494c52|728a1ae9] (0+9/9) Accurately ripped
08 [d98db44d|b4d61fe4] (0+9/9) Accurately ripped
09 [6565b6a1|6edaa484] (0+9/9) Accurately ripped

Track Peak [ CRC32 ] [W/O NULL] [ LOG ]
– 98,8 [EF5652C5] [9EF31502]
01 98,8 [307D5CF2] [75D17C31] CRC32
02 98,8 [03B3196B] [7770DFFA] CRC32
03 60,5 [DFC62D2A] [70C43FD5] CRC32
04 78,0 [EE1EC919] [31D312FF] CRC32
05 98,8 [DB5A28A3] [5A58C02A] CRC32
06 96,2 [F2E2AA1F] [F468ED85] CRC32
07 98,8 [6D17189D] [7256CBFB] CRC32
08 89,7 [8F6122D1] [13999A3F] CRC32
09 98,8 [D1FAB926] [BAC29ABC] CRC32

Track List CD06 - Chariots Of Fire (1981) (OST):

01. Titles [3:33]
02. Five Circles [5:21]
03. Abraham's Theme [3:14]
04. Eric's Theme [4:19]
05. 100 Metres [2:03]
06. Jerusalem [2:48]
07. Chariots Of Fire [20:40]

Exact Audio Copy V1.1 from 23. June 2015

Отчёт EAC об извлечении, выполненном 5. апреля 2017, 17:34

VANGELIS / Chariots Of Fire

Дисковод: TSSTcorpBDDVDW SE-506BB Adapter: 1 ID: 1

Режим чтения : Достоверность
Использование точного потока : Да
Отключение кэша аудио : Да
Использование указателей C2 : Нет

Коррекция смещения при чтении : 6
Способность читать области Lead-in и Lead-out : Нет
Заполнение пропущенных сэмплов тишиной : Да
Удаление блоков с тишиной в начале и конце : Нет
При вычислениях CRC использовались нулевые сэмплы : Да
Интерфейс : Встроенный Win32-интерфейс для Win NT/2000
Обработка зазоров : Добавлено к предыдущему треку

Выходной формат : Внутренние WAV-операции
Формат сэмплов : 44.100 Гц; 16 бит; стерео


TOC извлечённого CD

Трек | Старт | Длительность | Начальный сектор | Конечный сектор
––––––––––––––––––––––––––––––––––-
1 | 0:00.00 | 3:32.67 | 0 | 15966
2 | 3:32.67 | 5:20.53 | 15967 | 40019
3 | 8:53.45 | 3:14.18 | 40020 | 54587
4 | 12:07.63 | 4:18.74 | 54588 | 74011
5 | 16:26.62 | 2:02.48 | 74012 | 83209
6 | 18:29.35 | 2:47.49 | 83210 | 95783
7 | 21:17.09 | 20:39.58 | 95784 | 188766


Трек 1

Имя файла D:\Temp\01. Titles.wav

Длина предзазора 0:00:02.00

Пиковый уровень 55.3 %
Скорость извлечения 2.7 X
Качество трека 100.0 %
CRC теста 11D40447
CRC копии 11D40447
Точное извлечение (достоверность 7) [376A13C1] (AR v2)
Копирование… OK

Трек 2

Имя файла D:\Temp\02. Five Circles.wav

Пиковый уровень 47.5 %
Скорость извлечения 2.4 X
Качество трека 99.9 %
CRC теста 8E81B5D6
CRC копии 8E81B5D6
Точное извлечение (достоверность 7) [BDBCD9DA] (AR v2)
Копирование… OK

Трек 3

Имя файла D:\Temp\03. Abraham's Theme.wav

Пиковый уровень 39.0 %
Скорость извлечения 3.2 X
Качество трека 100.0 %
CRC теста 3B5DB751
CRC копии 3B5DB751
Точное извлечение (достоверность 7) [49EDA460] (AR v2)
Копирование… OK

Трек 4

Имя файла D:\Temp\04. Eric's Theme.wav

Пиковый уровень 98.8 %
Скорость извлечения 3.6 X
Качество трека 100.0 %
CRC теста 06C5A219
CRC копии 06C5A219
Точное извлечение (достоверность 7) [0E99561F] (AR v2)
Копирование… OK

Трек 5

Имя файла D:\Temp\05. 100 Metres.wav

Пиковый уровень 74.3 %
Скорость извлечения 1.4 X
Качество трека 99.9 %
CRC теста AF6FC361
CRC копии AF6FC361
Точное извлечение (достоверность 7) [3B12FF31] (AR v2)
Копирование… OK

Трек 6

Имя файла D:\Temp\06. Jerusalem.wav

Пиковый уровень 97.5 %
Скорость извлечения 2.0 X
Качество трека 99.8 %
CRC теста E99CC7FE
CRC копии E99CC7FE
Точное извлечение (достоверность 7) [AB7B3B59] (AR v2)
Копирование… OK

Трек 7

Имя файла D:\Temp\07. Chariots Of Fire.wav

Пиковый уровень 98.8 %
Скорость извлечения 4.3 X
Качество трека 99.9 %
CRC теста BDE37AB5
CRC копии BDE37AB5
Точное извлечение (достоверность 7) [86B96066] (AR v2)
Копирование… OK


Все треки извлечены точно

Ошибок не произошло

Конец отчёта

–– CUETools DB Plugin V2.1.6

[CTDB TOCID: EhEorWcmfNa_6lMXHKtZr6eDLFg-] found
Submit result: EhEorWcmfNa_6lMXHKtZr6eDLFg- has been confirmed
Track | CTDB Status
1 | (20/20) Accurately ripped
2 | (20/20) Accurately ripped
3 | (20/20) Accurately ripped
4 | (20/20) Accurately ripped
5 | (20/20) Accurately ripped
6 | (20/20) Accurately ripped
7 | (20/20) Accurately ripped


==== Контрольная сумма отчёта 479A46C59DACDEBF770CDAC5DD4D7312C6DEA061F4841B31173D57D720DF7BCE ====

foobar2000 1.2.6 / Dynamic Range Meter 1.1.1
log date: 2017-04-10 00:27:42

––––––––––––––––––––––––––––––––––––––––
Analyzed: VANGELIS / Chariots Of Fire
––––––––––––––––––––––––––––––––––––––––

DR Peak RMS Duration Track
––––––––––––––––––––––––––––––––––––––––
DR12 -5.14 dB -20.88 dB 3:33 01-Titles
DR12 -6.46 dB -22.65 dB 5:21 02-Five Circles
DR11 -8.16 dB -26.38 dB 3:14 03-Abraham’s Theme
DR13 -0.10 dB -16.66 dB 4:19 04-Eric’s Theme
DR14 -2.58 dB -22.99 dB 2:03 05-100 Metres
DR11 -0.22 dB -15.14 dB 2:48 06-Jerusalem
DR16 -0.10 dB -21.86 dB 20:40 07-Chariots Of Fire
––––––––––––––––––––––––––––––––––––––––

Number of tracks: 7
Official DR value: DR13

Samplerate: 44100 Hz
Channels: 2
Bits per sample: 16
Bitrate: 615 kbps
Codec: FLAC
================================================================================

[CUETools log; Date: 10.04.2017 0:28:01; Version: 2.1.5]
[CTDB TOCID: EhEorWcmfNa_6lMXHKtZr6eDLFg-] found.
Track | CTDB Status
1 | (23/23) Accurately ripped
2 | (23/23) Accurately ripped
3 | (23/23) Accurately ripped
4 | (23/23) Accurately ripped
5 | (23/23) Accurately ripped
6 | (23/23) Accurately ripped
7 | (23/23) Accurately ripped
[AccurateRip ID: 00086d9c-00343083-5809d407] found.
Track [ CRC | V2 ] Status
01 [0514e628|376a13c1] (0+9/9) Accurately ripped
02 [ff558c04|bdbcd9da] (0+9/9) Accurately ripped
03 [236715e1|49eda460] (0+9/9) Accurately ripped
04 [2d202816|0e99561f] (0+9/9) Accurately ripped
05 [ad2df7f0|3b12ff31] (0+9/9) Accurately ripped
06 [51705869|ab7b3b59] (0+9/9) Accurately ripped
07 [abba0d0e|86b96066] (0+9/9) Accurately ripped

Track Peak [ CRC32 ] [W/O NULL] [ LOG ]
– 98,8 [96BA6838] [CC165E33]
01 55,3 [11D40447] [ED1D7543] CRC32
02 47,5 [8E81B5D6] [4DE5F2F1] CRC32
03 39,0 [3B5DB751] [CBC8B6E3] CRC32
04 98,8 [06C5A219] [87A533B7] CRC32
05 74,3 [AF6FC361] [31DDFA6A] CRC32
06 97,5 [E99CC7FE] [069C8C12] CRC32
07 98,8 [BDE37AB5] [894B33A1] CRC32

Track List CD07 - Antarctica (1983) (OST):

01. Theme From Antarctica [7:26]
02. Antarctica Echoes [5:52]
03. Kinematic [3:45]
04. Song Of White [4:50]
05. Life Of Antarctica [5:56]
06. Memory Of Antarctica [5:26]
07. Other Side Of Antarctica [6:51]
08. Deliverance [4:30]

Exact Audio Copy V1.1 from 23. June 2015

Отчёт EAC об извлечении, выполненном 5. апреля 2017, 18:50

VANGELIS / Antarctica

Дисковод: TSSTcorpBDDVDW SE-506BB Adapter: 1 ID: 1

Режим чтения : Достоверность
Использование точного потока : Да
Отключение кэша аудио : Да
Использование указателей C2 : Нет

Коррекция смещения при чтении : 6
Способность читать области Lead-in и Lead-out : Нет
Заполнение пропущенных сэмплов тишиной : Да
Удаление блоков с тишиной в начале и конце : Нет
При вычислениях CRC использовались нулевые сэмплы : Да
Интерфейс : Встроенный Win32-интерфейс для Win NT/2000
Обработка зазоров : Добавлено к предыдущему треку

Выходной формат : Внутренние WAV-операции
Формат сэмплов : 44.100 Гц; 16 бит; стерео


TOC извлечённого CD

Трек | Старт | Длительность | Начальный сектор | Конечный сектор
––––––––––––––––––––––––––––––––––-
1 | 0:00.00 | 7:25.46 | 0 | 33420
2 | 7:25.46 | 5:52.29 | 33421 | 59849
3 | 13:18.00 | 3:44.46 | 59850 | 76695
4 | 17:02.46 | 4:50.10 | 76696 | 98455
5 | 21:52.56 | 5:56.36 | 98456 | 125191
6 | 27:49.17 | 5:25.49 | 125192 | 149615
7 | 33:14.66 | 6:50.38 | 149616 | 180403
8 | 40:05.29 | 4:29.40 | 180404 | 200618


Трек 1

Имя файла D:\Temp\01. Theme From Antarctica.wav

Длина предзазора 0:00:02.00

Пиковый уровень 94.5 %
Скорость извлечения 2.9 X
Качество трека 100.0 %
CRC теста 70FCCF94
CRC копии 70FCCF94
Точное извлечение (достоверность 7) [04B9E972] (AR v2)
Копирование… OK

Трек 2

Имя файла D:\Temp\02. Antarctica Echoes.wav

Пиковый уровень 33.2 %
Скорость извлечения 3.4 X
Качество трека 100.0 %
CRC теста 94E4C3C0
CRC копии 94E4C3C0
Точное извлечение (достоверность 7) [078123B6] (AR v2)
Копирование… OK

Трек 3

Имя файла D:\Temp\03. Kinematic.wav

Пиковый уровень 98.8 %
Скорость извлечения 3.5 X
Качество трека 100.0 %
CRC теста F6207E37
CRC копии F6207E37
Точное извлечение (достоверность 7) [19101E5F] (AR v2)
Копирование… OK

Трек 4

Имя файла D:\Temp\04. Song Of White.wav

Пиковый уровень 98.8 %
Скорость извлечения 1.8 X
Качество трека 99.9 %
CRC теста C4A60E40
CRC копии C4A60E40
Точное извлечение (достоверность 7) [A72B6F73] (AR v2)
Копирование… OK

Трек 5

Имя файла D:\Temp\05. Life Of Antarctica.wav

Пиковый уровень 73.2 %
Скорость извлечения 4.1 X
Качество трека 100.0 %
CRC теста B061B27E
CRC копии B061B27E
Точное извлечение (достоверность 7) [EA5778DD] (AR v2)
Копирование… OK

Трек 6

Имя файла D:\Temp\06. Memory Of Antarctica.wav

Пиковый уровень 51.1 %
Скорость извлечения 4.5 X
Качество трека 100.0 %
CRC теста 74EA13E4
CRC копии 74EA13E4
Точное извлечение (достоверность 7) [40EE2FDB] (AR v2)
Копирование… OK

Трек 7

Имя файла D:\Temp\07. Other Side Of Antarctica.wav

Пиковый уровень 66.7 %
Скорость извлечения 2.3 X
Качество трека 99.8 %
CRC теста 65919239
CRC копии 65919239
Точное извлечение (достоверность 7) [29694462] (AR v2)
Копирование… OK

Трек 8

Имя файла D:\Temp\08. Deliverance.wav

Пиковый уровень 98.8 %
Скорость извлечения 4.2 X
Качество трека 100.0 %
CRC теста DC72FA5E
CRC копии DC72FA5E
Точное извлечение (достоверность 7) [5D0388D1] (AR v2)
Копирование… OK


Все треки извлечены точно

Ошибок не произошло

Конец отчёта

–– CUETools DB Plugin V2.1.6

[CTDB TOCID: gjmcH2So8CCx_0dfanFUDBGBlYQ-] found
Submit result: gjmcH2So8CCx_0dfanFUDBGBlYQ- has been confirmed
Track | CTDB Status
1 | (22/22) Accurately ripped
2 | (22/22) Accurately ripped
3 | (22/22) Accurately ripped
4 | (22/22) Accurately ripped
5 | (22/22) Accurately ripped
6 | (22/22) Accurately ripped
7 | (22/22) Accurately ripped
8 | (22/22) Accurately ripped


==== Контрольная сумма отчёта 8C33B532BD2AC3D4CB9080206469922867287E339DD6A0579BEB6A5B04A86376 ====

foobar2000 1.2.6 / Dynamic Range Meter 1.1.1
log date: 2017-04-10 00:30:51

––––––––––––––––––––––––––––––––––––––––
Analyzed: VANGELIS / Antarctica
––––––––––––––––––––––––––––––––––––––––

DR Peak RMS Duration Track
––––––––––––––––––––––––––––––––––––––––
DR12 -0.48 dB -14.94 dB 7:26 01-Theme From Antarctica
DR11 -9.58 dB -23.60 dB 5:52 02-Antarctica Echoes
DR14 -0.10 dB -16.26 dB 3:45 03-Kinematic
DR16 -0.10 dB -23.98 dB 4:50 04-Song Of White
DR11 -2.70 dB -16.24 dB 5:56 05-Life Of Antarctica
DR11 -5.83 dB -20.75 dB 5:26 06-Memory Of Antarctica
DR11 -3.51 dB -18.76 dB 6:51 07-Other Side Of Antarctica
DR11 -0.10 dB -14.48 dB 4:30 08-Deliverance
––––––––––––––––––––––––––––––––––––––––

Number of tracks: 8
Official DR value: DR12

Samplerate: 44100 Hz
Channels: 2
Bits per sample: 16
Bitrate: 975 kbps
Codec: FLAC
================================================================================

[CUETools log; Date: 10.04.2017 0:28:55; Version: 2.1.5]
[CTDB TOCID: gjmcH2So8CCx_0dfanFUDBGBlYQ-] found.
Track | CTDB Status
1 | (25/25) Accurately ripped
2 | (25/25) Accurately ripped
3 | (25/25) Accurately ripped
4 | (25/25) Accurately ripped
5 | (25/25) Accurately ripped
6 | (25/25) Accurately ripped
7 | (25/25) Accurately ripped
8 | (25/25) Accurately ripped
[AccurateRip ID: 000e1a5e-005cf7b4-5e0a7208] found.
Track [ CRC | V2 ] Status
01 [32a6bd3c|04b9e972] (0+9/9) Accurately ripped
02 [58b75382|078123b6] (0+9/9) Accurately ripped
03 [318b4231|19101e5f] (0+9/9) Accurately ripped
04 [365a36b7|a72b6f73] (0+9/9) Accurately ripped
05 [1f7207d9|ea5778dd] (0+9/9) Accurately ripped
06 [f30c4d1a|40ee2fdb] (0+9/9) Accurately ripped
07 [c0d534e6|29694462] (0+9/9) Accurately ripped
08 [df062eb7|5d0388d1] (0+9/9) Accurately ripped

Track Peak [ CRC32 ] [W/O NULL] [ LOG ]
– 98,8 [0512507C] [19CAF032]
01 94,5 [70FCCF94] [95C202C3] CRC32
02 33,2 [94E4C3C0] [5DB5BD52] CRC32
03 98,8 [F6207E37] [6BE002EB] CRC32
04 98,8 [C4A60E40] [0AFBC2AF] CRC32
05 73,2 [B061B27E] [8A6BA82E] CRC32
06 51,1 [74EA13E4] [8C09CBD1] CRC32
07 66,7 [65919239] [40111131] CRC32
08 98,8 [DC72FA5E] [7ED6C413] CRC32

Track List CD08 - Soil Festivities (1984):

01. Movement 1 [17:35]
02. Movement 2 [6:19]
03. Movement 3 [6:07]
04. Movement 4 [9:54]
05. Movement 5 [7:20]

Exact Audio Copy V1.1 from 23. June 2015

Отчёт EAC об извлечении, выполненном 5. апреля 2017, 21:25

VANGELIS / Soil Festivities

Дисковод: TSSTcorpBDDVDW SE-506BB Adapter: 1 ID: 1

Режим чтения : Достоверность
Использование точного потока : Да
Отключение кэша аудио : Да
Использование указателей C2 : Нет

Коррекция смещения при чтении : 6
Способность читать области Lead-in и Lead-out : Нет
Заполнение пропущенных сэмплов тишиной : Да
Удаление блоков с тишиной в начале и конце : Нет
При вычислениях CRC использовались нулевые сэмплы : Да
Интерфейс : Встроенный Win32-интерфейс для Win NT/2000
Обработка зазоров : Добавлено к предыдущему треку

Выходной формат : Внутренние WAV-операции
Формат сэмплов : 44.100 Гц; 16 бит; стерео


TOC извлечённого CD

Трек | Старт | Длительность | Начальный сектор | Конечный сектор
––––––––––––––––––––––––––––––––––-
1 | 0:00.00 | 17:35.08 | 0 | 79132
2 | 17:35.08 | 6:18.64 | 79133 | 107546
3 | 23:53.72 | 6:06.58 | 107547 | 135054
4 | 30:00.55 | 9:54.11 | 135055 | 179615
5 | 39:54.66 | 7:20.07 | 179616 | 212622


Трек 1

Имя файла D:\Temp\01. Movement 1.wav

Длина предзазора 0:00:02.00

Пиковый уровень 82.6 %
Скорость извлечения 3.0 X
Качество трека 99.9 %
CRC теста 56907308
CRC копии 56907308
Точное извлечение (достоверность 7) [B0831958] (AR v2)
Копирование… OK

Трек 2

Имя файла D:\Temp\02. Movement 2.wav

Пиковый уровень 58.3 %
Скорость извлечения 4.0 X
Качество трека 100.0 %
CRC теста BDC5DAA6
CRC копии BDC5DAA6
Точное извлечение (достоверность 7) [5ACAFAF5] (AR v2)
Копирование… OK

Трек 3

Имя файла D:\Temp\03. Movement 3.wav

Пиковый уровень 98.8 %
Скорость извлечения 4.3 X
Качество трека 100.0 %
CRC теста C8A9A57D
CRC копии C8A9A57D
Точное извлечение (достоверность 7) [29625359] (AR v2)
Копирование… OK

Трек 4

Имя файла D:\Temp\04. Movement 4.wav

Пиковый уровень 81.6 %
Скорость извлечения 4.9 X
Качество трека 100.0 %
CRC теста 9A7FCE0D
CRC копии 9A7FCE0D
Точное извлечение (достоверность 7) [CC59C84C] (AR v2)
Копирование… OK

Трек 5

Имя файла D:\Temp\05. Movement 5.wav

Пиковый уровень 92.7 %
Скорость извлечения 5.1 X
Качество трека 100.0 %
CRC теста D45BE30D
CRC копии D45BE30D
Точное извлечение (достоверность 7) [8D801492] (AR v2)
Копирование… OK


Все треки извлечены точно

Ошибок не произошло

Конец отчёта

–– CUETools DB Plugin V2.1.6

[CTDB TOCID: cnZu9s0t9g2Yzy2aoaa__G7ZCws-] found
Submit result: cnZu9s0t9g2Yzy2aoaa__G7ZCws- has been confirmed
Track | CTDB Status
1 | (22/22) Accurately ripped
2 | (22/22) Accurately ripped
3 | (22/22) Accurately ripped
4 | (22/22) Accurately ripped
5 | (22/22) Accurately ripped


==== Контрольная сумма отчёта 5667E3757FA549E8A53EF83F85919E11DD4F82CFE4AC26DFAE52E38C5E12C23C ====

foobar2000 1.2.6 / Dynamic Range Meter 1.1.1
log date: 2017-04-10 00:32:28

––––––––––––––––––––––––––––––––––––––––
Analyzed: VANGELIS / Soil Festivities
––––––––––––––––––––––––––––––––––––––––

DR Peak RMS Duration Track
––––––––––––––––––––––––––––––––––––––––
DR15 -1.65 dB -20.32 dB 17:35 01-Movement 1
DR13 -4.68 dB -23.68 dB 6:19 02-Movement 2
DR14 -0.10 dB -17.76 dB 6:07 03-Movement 3
DR17 -1.77 dB -23.42 dB 9:54 04-Movement 4
DR15 -0.65 dB -21.23 dB 7:20 05-Movement 5
––––––––––––––––––––––––––––––––––––––––

Number of tracks: 5
Official DR value: DR15

Samplerate: 44100 Hz
Channels: 2
Bits per sample: 16
Bitrate: 633 kbps
Codec: FLAC
================================================================================

[CUETools log; Date: 10.04.2017 0:31:22; Version: 2.1.5]
[CTDB TOCID: cnZu9s0t9g2Yzy2aoaa__G7ZCws-] found.
Track | CTDB Status
1 | (25/25) Accurately ripped
2 | (25/25) Accurately ripped
3 | (25/25) Accurately ripped
4 | (25/25) Accurately ripped
5 | (25/25) Accurately ripped
[AccurateRip ID: 000ae4f6-0030c042-3b0b1205] found.
Track [ CRC | V2 ] Status
01 [c43159f2|b0831958] (0+9/9) Accurately ripped
02 [4d22fbed|5acafaf5] (0+9/9) Accurately ripped
03 [b9d237ea|29625359] (0+9/9) Accurately ripped
04 [1c1394d5|cc59c84c] (0+9/9) Accurately ripped
05 [72e2be68|8d801492] (0+9/9) Accurately ripped

Track Peak [ CRC32 ] [W/O NULL] [ LOG ]
– 98,8 [06CC1044] [C9D63DF8]
01 82,6 [56907308] [5CFE8CE6] CRC32
02 58,3 [BDC5DAA6] [01699FD1] CRC32
03 98,8 [C8A9A57D] [6C74411B] CRC32
04 81,6 [9A7FCE0D] [E6EA1408] CRC32
05 92,7 [D45BE30D] [9FA69BC8] CRC32

Track List CD09 - Mask (1985):

01. Movement 1 [10:18]
02. Movement 2 [3:26]
03. Movement 3 [6:40]
04. Movement 4 [8:42]
05. Movement 5 [10:00]
06. Movement 6 [4:23]

Exact Audio Copy V1.1 from 23. June 2015

Отчёт EAC об извлечении, выполненном 5. апреля 2017, 21:56

VANGELIS / Mask

Дисковод: TSSTcorpBDDVDW SE-506BB Adapter: 1 ID: 1

Режим чтения : Достоверность
Использование точного потока : Да
Отключение кэша аудио : Да
Использование указателей C2 : Нет

Коррекция смещения при чтении : 6
Способность читать области Lead-in и Lead-out : Нет
Заполнение пропущенных сэмплов тишиной : Да
Удаление блоков с тишиной в начале и конце : Нет
При вычислениях CRC использовались нулевые сэмплы : Да
Интерфейс : Встроенный Win32-интерфейс для Win NT/2000
Обработка зазоров : Добавлено к предыдущему треку

Выходной формат : Внутренние WAV-операции
Формат сэмплов : 44.100 Гц; 16 бит; стерео


TOC извлечённого CD

Трек | Старт | Длительность | Начальный сектор | Конечный сектор
––––––––––––––––––––––––––––––––––-
1 | 0:00.00 | 10:17.45 | 0 | 46319
2 | 10:17.45 | 3:25.60 | 46320 | 61754
3 | 13:43.30 | 6:40.00 | 61755 | 91754
4 | 20:23.30 | 8:41.56 | 91755 | 130885
5 | 29:05.11 | 9:59.62 | 130886 | 175872
6 | 39:04.73 | 4:23.34 | 175873 | 195631


Трек 1

Имя файла D:\Temp\01. Movement 1.wav

Длина предзазора 0:00:02.00

Пиковый уровень 98.5 %
Скорость извлечения 3.2 X
Качество трека 100.0 %
CRC теста CDAE52C6
CRC копии CDAE52C6
Точное извлечение (достоверность 7) [DF9E358A] (AR v2)
Копирование… OK

Трек 2

Имя файла D:\Temp\02. Movement 2.wav

Пиковый уровень 55.0 %
Скорость извлечения 3.4 X
Качество трека 100.0 %
CRC теста 1C245173
CRC копии 1C245173
Точное извлечение (достоверность 7) [5BA85B38] (AR v2)
Копирование… OK

Трек 3

Имя файла D:\Temp\03. Movement 3.wav

Пиковый уровень 98.8 %
Скорость извлечения 3.9 X
Качество трека 100.0 %
CRC теста 3638E2B3
CRC копии 3638E2B3
Точное извлечение (достоверность 7) [D94F192F] (AR v2)
Копирование… OK

Трек 4

Имя файла D:\Temp\04. Movement 4.wav

Пиковый уровень 66.5 %
Скорость извлечения 2.2 X
Качество трека 99.9 %
CRC теста 7FA8DAB9
CRC копии 7FA8DAB9
Точность не определена (достоверность 7) [F1072C58], AccurateRip вернул [1A795ADA] (AR v2)
Копирование… OK

Трек 5

Имя файла D:\Temp\05. Movement 5.wav

Пиковый уровень 98.8 %
Скорость извлечения 5.0 X
Качество трека 100.0 %
CRC теста 293AF61A
CRC копии 293AF61A
Точное извлечение (достоверность 7) [A93D0340] (AR v2)
Копирование… OK

Трек 6

Имя файла D:\Temp\06. Movement 6.wav

Пиковый уровень 33.8 %
Скорость извлечения 5.0 X
Качество трека 100.0 %
CRC теста 56B3B6F4
CRC копии 56B3B6F4
Точное извлечение (достоверность 7) [F988CE49] (AR v2)
Копирование… OK


5 трек(и) скопированы точно
1 трек(и) не удалось проверить на точность

Некоторые треки не прошли проверку на точность

Ошибок не произошло

Конец отчёта

–– CUETools DB Plugin V2.1.6

[CTDB TOCID: BxelTKaodBOcFeKMIYSa_54GF_w-] found
Submit result: BxelTKaodBOcFeKMIYSa_54GF_w- has been submitted
Track | CTDB Status
1 | (23/23) Accurately ripped
2 | (23/23) Accurately ripped
3 | (23/23) Accurately ripped
4 | (23/23) Differs in 66 samples @03:01:46-03:01:47
5 | (23/23) Accurately ripped
6 | (23/23) Accurately ripped
If you are sure that your rip contains errors, you can use CUETools to repair it.


==== Контрольная сумма отчёта CDA94053ADC20C9FA574BD8B1128D42F8555A29B0AC56CC749157F29C7F80045 ====

foobar2000 1.2.6 / Dynamic Range Meter 1.1.1
log date: 2017-04-10 00:34:20

––––––––––––––––––––––––––––––––––––––––
Analyzed: VANGELIS / Mask
––––––––––––––––––––––––––––––––––––––––

DR Peak RMS Duration Track
––––––––––––––––––––––––––––––––––––––––
DR13 -0.13 dB -17.67 dB 10:18 01-Movement 1
DR12 -5.18 dB -20.69 dB 3:26 02-Movement 2
DR13 -0.10 dB -16.91 dB 6:40 03-Movement 3
DR12 -3.54 dB -19.83 dB 8:42 04-Movement 4
DR15 -0.10 dB -16.94 dB 10:00 05-Movement 5
DR12 -9.41 dB -25.92 dB 4:23 06-Movement 6
––––––––––––––––––––––––––––––––––––––––

Number of tracks: 6
Official DR value: DR13

Samplerate: 44100 Hz
Channels: 2
Bits per sample: 16
Bitrate: 634 kbps
Codec: FLAC
================================================================================

[CUETools log; Date: 10.04.2017 0:34:04; Version: 2.1.5]
[CTDB TOCID: BxelTKaodBOcFeKMIYSa_54GF_w-] found.
Track | CTDB Status
1 | (26/26) Accurately ripped
2 | (26/26) Accurately ripped
3 | (26/26) Accurately ripped
4 | ( 1/26) Accurately ripped, or (25/26) differs in 66 samples @03:01:46-03:01:47
5 | (26/26) Accurately ripped
6 | (26/26) Accurately ripped
[AccurateRip ID: 000ab70d-0038d2f2-4d0a3006] found.
Track [ CRC | V2 ] Status
01 [136d7ec5|df9e358a] (0+9/9) Accurately ripped
02 [bf4b74c3|5ba85b38] (0+9/9) Accurately ripped
03 [763c44b3|d94f192f] (0+9/9) Accurately ripped
04 [53a8bef1|f1072c58] (0+0/9) No match
05 [c81b8b2e|a93d0340] (0+9/9) Accurately ripped
06 [52ea4b9b|f988ce49] (0+9/9) Accurately ripped

Track Peak [ CRC32 ] [W/O NULL] [ LOG ]
– 98,8 [ABD92A26] [F50A7430]
01 98,5 [CDAE52C6] [CB230DB5] CRC32
02 55,0 [1C245173] [2BC08175] CRC32
03 98,8 [3638E2B3] [745E5F81] CRC32
04 66,5 [7FA8DAB9] [9F4077CA] CRC32
05 98,8 [293AF61A] [896DB97E] CRC32
06 33,8 [56B3B6F4] [2B77EB1D] CRC32

Track List CD10 - Invisible Connections (1985):

01. Invisible Connections [21:04]
02. Atomic Blaster [8:37]
03. Thermo Vision [9:45]

Exact Audio Copy V1.1 from 23. June 2015

Отчёт EAC об извлечении, выполненном 5. апреля 2017, 22:26

VANGELIS / Invisible Connections

Дисковод: TSSTcorpBDDVDW SE-506BB Adapter: 1 ID: 1

Режим чтения : Достоверность
Использование точного потока : Да
Отключение кэша аудио : Да
Использование указателей C2 : Нет

Коррекция смещения при чтении : 6
Способность читать области Lead-in и Lead-out : Нет
Заполнение пропущенных сэмплов тишиной : Да
Удаление блоков с тишиной в начале и конце : Нет
При вычислениях CRC использовались нулевые сэмплы : Да
Интерфейс : Встроенный Win32-интерфейс для Win NT/2000
Обработка зазоров : Добавлено к предыдущему треку

Выходной формат : Внутренние WAV-операции
Формат сэмплов : 44.100 Гц; 16 бит; стерео


TOC извлечённого CD

Трек | Старт | Длительность | Начальный сектор | Конечный сектор
––––––––––––––––––––––––––––––––––-
1 | 0:00.00 | 21:03.52 | 0 | 94776
2 | 21:03.52 | 8:37.17 | 94777 | 133568
3 | 29:40.69 | 9:44.44 | 133569 | 177412


Трек 1

Имя файла D:\Temp\01. Invisible Connections.wav

Длина предзазора 0:00:02.00

Пиковый уровень 98.8 %
Скорость извлечения 3.6 X
Качество трека 100.0 %
CRC теста 5E30D521
CRC копии 5E30D521
Точное извлечение (достоверность 7) [B2DA3C86] (AR v2)
Копирование… OK

Трек 2

Имя файла D:\Temp\02. Atomic Blaster.wav

Пиковый уровень 98.8 %
Скорость извлечения 1.9 X
Качество трека 99.9 %
CRC теста 84A4A3D7
CRC копии 84A4A3D7
Точное извлечение (достоверность 7) [E523790F] (AR v2)
Копирование… OK

Трек 3

Имя файла D:\Temp\03. Thermo Vision.wav

Пиковый уровень 37.0 %
Скорость извлечения 4.6 X
Качество трека 100.0 %
CRC теста 27A71D96
CRC копии 27A71D96
Точное извлечение (достоверность 7) [C95BCA44] (AR v2)
Копирование… OK


Все треки извлечены точно

Ошибок не произошло

Конец отчёта

–– CUETools DB Plugin V2.1.6

[CTDB TOCID: tzQdVW1cE1b5YRaAiCQ3tVbI0BQ-] found
Submit result: tzQdVW1cE1b5YRaAiCQ3tVbI0BQ- has been confirmed
Track | CTDB Status
1 | (21/21) Accurately ripped
2 | (21/21) Accurately ripped
3 | (21/21) Accurately ripped


==== Контрольная сумма отчёта 10B23F497704EE984FBD75B6E27A74714D5B02692073C495DE19EB7F33861F6F ====

foobar2000 1.2.6 / Dynamic Range Meter 1.1.1
log date: 2017-04-10 00:33:27

––––––––––––––––––––––––––––––––––––––––
Analyzed: VANGELIS / Invisible Connections
––––––––––––––––––––––––––––––––––––––––

DR Peak RMS Duration Track
––––––––––––––––––––––––––––––––––––––––
DR14 -0.10 dB -20.21 dB 21:04 01-Invisible Connections
DR17 -0.10 dB -23.04 dB 8:37 02-Atomic Blaster
DR9 -8.62 dB -21.65 dB 9:45 03-Thermo Vision
––––––––––––––––––––––––––––––––––––––––

Number of tracks: 3
Official DR value: DR14

Samplerate: 44100 Hz
Channels: 2
Bits per sample: 16
Bitrate: 558 kbps
Codec: FLAC
================================================================================

[CUETools log; Date: 10.04.2017 0:32:53; Version: 2.1.5]
[CTDB TOCID: tzQdVW1cE1b5YRaAiCQ3tVbI0BQ-] found.
Track | CTDB Status
1 | (24/24) Accurately ripped
2 | (24/24) Accurately ripped
3 | (24/24) Accurately ripped
[AccurateRip ID: 000630ff-0013d5ca-22093d03] found.
Track [ CRC | V2 ] Status
01 [29fa5887|b2da3c86] (0+9/9) Accurately ripped
02 [47d9287d|e523790f] (0+9/9) Accurately ripped
03 [0f20cd33|c95bca44] (0+9/9) Accurately ripped

Track Peak [ CRC32 ] [W/O NULL] [ LOG ]
– 98,8 [A8545478] [7A48E0A0]
01 98,8 [5E30D521] [5C1F099A] CRC32
02 98,8 [84A4A3D7] [516B4EAE] CRC32
03 37,0 [27A71D96] [A6AE1EA7] CRC32

Track List CD11 Jon & Vangelis - Short Stories (1979):

01. Curious Electric [6:35]
02. Each And Every Day [3:42]
03. Bird Song [1:23]
04. I Hear You Now [5:10]
05. The Road [4:30]
06. Far Away In Baagad [2:50]
07. Love Is [5:09]
08. One More Time [6:12]
09. Thunder [2:11]
10. Play Within A Play [7:02]

Exact Audio Copy V1.1 from 23. June 2015

Отчёт EAC об извлечении, выполненном 9. апреля 2017, 14:17

JON & VANGELIS / Short Stories

Дисковод: TSSTcorpBDDVDW SE-506BB Adapter: 1 ID: 1

Режим чтения : Достоверность
Использование точного потока : Да
Отключение кэша аудио : Да
Использование указателей C2 : Нет

Коррекция смещения при чтении : 6
Способность читать области Lead-in и Lead-out : Нет
Заполнение пропущенных сэмплов тишиной : Да
Удаление блоков с тишиной в начале и конце : Нет
При вычислениях CRC использовались нулевые сэмплы : Да
Интерфейс : Встроенный Win32-интерфейс для Win NT/2000
Обработка зазоров : Добавлено к предыдущему треку

Выходной формат : Внутренние WAV-операции
Формат сэмплов : 44.100 Гц; 16 бит; стерео


TOC извлечённого CD

Трек | Старт | Длительность | Начальный сектор | Конечный сектор
––––––––––––––––––––––––––––––––––-
1 | 0:00.00 | 6:34.65 | 0 | 29614
2 | 6:34.65 | 3:41.52 | 29615 | 46241
3 | 10:16.42 | 1:23.06 | 46242 | 52472
4 | 11:39.48 | 5:10.03 | 52473 | 75725
5 | 16:49.51 | 4:29.61 | 75726 | 95961
6 | 21:19.37 | 2:49.56 | 95962 | 108692
7 | 24:09.18 | 5:09.11 | 108693 | 131878
8 | 29:18.29 | 6:12.34 | 131879 | 159812
9 | 35:30.63 | 2:11.07 | 159813 | 169644
10 | 37:41.70 | 7:01.60 | 169645 | 201279


Трек 1

Имя файла D:\Temp\01. Curious Electric.wav

Длина предзазора 0:00:02.00

Пиковый уровень 98.8 %
Скорость извлечения 2.8 X
Качество трека 100.0 %
CRC теста 72B34A0D
CRC копии 72B34A0D
Точное извлечение (достоверность 9) [98C48E6B] (AR v2)
Копирование… OK

Трек 2

Имя файла D:\Temp\02. Each And Every Day.wav

Пиковый уровень 98.8 %
Скорость извлечения 3.0 X
Качество трека 100.0 %
CRC теста C6C25AF2
CRC копии C6C25AF2
Точное извлечение (достоверность 9) [03CA6995] (AR v2)
Копирование… OK

Трек 3

Имя файла D:\Temp\03. Bird Song.wav

Пиковый уровень 96.6 %
Скорость извлечения 2.6 X
Качество трека 100.0 %
CRC теста C9BD7A61
CRC копии C9BD7A61
Точное извлечение (достоверность 9) [E5F80207] (AR v2)
Копирование… OK

Трек 4

Имя файла D:\Temp\04. I Hear You Now.wav

Пиковый уровень 85.6 %
Скорость извлечения 3.5 X
Качество трека 100.0 %
CRC теста DC4717AB
CRC копии DC4717AB
Точное извлечение (достоверность 9) [06AD3900] (AR v2)
Копирование… OK

Трек 5

Имя файла D:\Temp\05. The Road.wav

Пиковый уровень 98.8 %
Скорость извлечения 3.8 X
Качество трека 100.0 %
CRC теста 15A9D00F
CRC копии 15A9D00F
Точное извлечение (достоверность 9) [67C4B16B] (AR v2)
Копирование… OK

Трек 6

Имя файла D:\Temp\06. Far Away In Baagad.wav

Пиковый уровень 96.1 %
Скорость извлечения 3.7 X
Качество трека 100.0 %
CRC теста 4C49F5A5
CRC копии 4C49F5A5
Точное извлечение (достоверность 9) [3B2AA2D3] (AR v2)
Копирование… OK

Трек 7

Имя файла D:\Temp\07. Love Is.wav

Пиковый уровень 73.0 %
Скорость извлечения 2.9 X
Качество трека 100.0 %
CRC теста 47A0A696
CRC копии 47A0A696
Точное извлечение (достоверность 9) [4CC396CA] (AR v2)
Копирование… OK

Трек 8

Имя файла D:\Temp\08. One More Time.wav

Пиковый уровень 78.7 %
Скорость извлечения 2.3 X
Качество трека 99.9 %
CRC теста A0A3D3E5
CRC копии A0A3D3E5
Точное извлечение (достоверность 9) [6EC82B96] (AR v2)
Копирование… OK

Трек 9

Имя файла D:\Temp\09. Thunder.wav

Пиковый уровень 98.8 %
Скорость извлечения 1.6 X
Качество трека 99.7 %
CRC теста EDB7C448
CRC копии EDB7C448
Точное извлечение (достоверность 9) [09F2C701] (AR v2)
Копирование… OK

Трек 10

Имя файла D:\Temp\10. Play Within A Play.wav

Пиковый уровень 98.8 %
Скорость извлечения 5.0 X
Качество трека 100.0 %
CRC теста 3E4CC162
CRC копии 3E4CC162
Точное извлечение (достоверность 9) [7DDCFA6B] (AR v2)
Копирование… OK


Все треки извлечены точно

Ошибок не произошло

Конец отчёта

–– CUETools DB Plugin V2.1.6

[CTDB TOCID: OK7JboKSIa6GUkhXIIbNQbNYU8g-] found
Submit result: OK7JboKSIa6GUkhXIIbNQbNYU8g- has been confirmed
Track | CTDB Status
1 | (25/25) Accurately ripped
2 | (25/25) Accurately ripped
3 | (25/25) Accurately ripped
4 | (25/25) Accurately ripped
5 | (25/25) Accurately ripped
6 | (25/25) Accurately ripped
7 | (25/25) Accurately ripped
8 | (25/25) Accurately ripped
9 | (25/25) Accurately ripped
10 | (25/25) Accurately ripped


==== Контрольная сумма отчёта C32D83DB12CFB82D0F7FBC9409E3F0EB2C70D5F2EC7CBF433D227BE037FAFCBF ====

foobar2000 1.2.6 / Dynamic Range Meter 1.1.1
log date: 2017-04-10 00:35:08

––––––––––––––––––––––––––––––––––––––––
Analyzed: JON & VANGELIS / Short Stories
––––––––––––––––––––––––––––––––––––––––

DR Peak RMS Duration Track
––––––––––––––––––––––––––––––––––––––––
DR14 -0.10 dB -17.99 dB 6:35 01-Curious Electric
DR12 -0.10 dB -18.59 dB 3:42 02-Each And Every Day
DR12 -0.30 dB -18.18 dB 1:23 03-Bird Song
DR13 -1.34 dB -18.07 dB 5:10 04-I Hear You Now
DR13 -0.10 dB -17.77 dB 4:30 05-The Road
DR12 -0.34 dB -17.46 dB 2:50 06-Far Away In Baagad
DR13 -2.73 dB -21.31 dB 5:09 07-Love Is
DR13 -2.07 dB -20.62 dB 6:12 08-One More Time
DR14 -0.10 dB -17.61 dB 2:11 09-Thunder
DR13 -0.10 dB -17.42 dB 7:02 10-Play Within A Play
––––––––––––––––––––––––––––––––––––––––

Number of tracks: 10
Official DR value: DR13

Samplerate: 44100 Hz
Channels: 2
Bits per sample: 16
Bitrate: 747 kbps
Codec: FLAC
================================================================================

[CUETools log; Date: 10.04.2017 0:34:52; Version: 2.1.5]
[CTDB TOCID: OK7JboKSIa6GUkhXIIbNQbNYU8g-] found.
Track | CTDB Status
1 | (26/26) Accurately ripped
2 | (26/26) Accurately ripped
3 | (26/26) Accurately ripped
4 | (26/26) Accurately ripped
5 | (26/26) Accurately ripped
6 | (26/26) Accurately ripped
7 | (26/26) Accurately ripped
8 | (26/26) Accurately ripped
9 | (26/26) Accurately ripped
10 | (26/26) Accurately ripped
[AccurateRip ID: 001058e0-00821c85-680a7b0a] found.
Track [ CRC | V2 ] Status
01 [f9aeea3e|98c48e6b] (0+9/9) Accurately ripped
02 [e36a3478|03ca6995] (0+9/9) Accurately ripped
03 [9b1c75cd|e5f80207] (0+9/9) Accurately ripped
04 [94b29852|06ad3900] (0+9/9) Accurately ripped
05 [8a958c3b|67c4b16b] (0+9/9) Accurately ripped
06 [ad3ad513|3b2aa2d3] (0+9/9) Accurately ripped
07 [eda784d6|4cc396ca] (0+9/9) Accurately ripped
08 [20c0129f|6ec82b96] (0+9/9) Accurately ripped
09 [e7c5d001|09f2c701] (0+9/9) Accurately ripped
10 [606649ad|7ddcfa6b] (0+9/9) Accurately ripped

Track Peak [ CRC32 ] [W/O NULL] [ LOG ]
– 98,8 [9591EE9D] [5CB732EC]
01 98,8 [72B34A0D] [1BBC8BF4] CRC32
02 98,8 [C6C25AF2] [17F07249] CRC32
03 96,6 [C9BD7A61] [5D0A8B90] CRC32
04 85,6 [DC4717AB] [26D70621] CRC32
05 98,8 [15A9D00F] [9F9C7D08] CRC32
06 96,1 [4C49F5A5] [6141D6A3] CRC32
07 73,0 [47A0A696] [5AED7594] CRC32
08 78,7 [A0A3D3E5] [F9C8287B] CRC32
09 98,8 [EDB7C448] [C6EE0E26] CRC32
10 98,8 [3E4CC162] [59E6D989] CRC32

Track List CD12 Jon & Vangelis - The Friends Of Mr. Cairo (1981):

01. I'll Find My Way Home [4:31]
02. State Of Independence [7:54]
03. Beside [4:10]
04. Mayflower [6:32]
05. The Friends Of Mr. Cairo [12:05]
06. Back To School [5:08]
07. Outside Of This (Inside Of That) [5:02]

Exact Audio Copy V1.1 from 23. June 2015

Отчёт EAC об извлечении, выполненном 9. апреля 2017, 14:46

JON & VANGELIS / The Friends Of Mr. Cairo

Дисковод: TSSTcorpBDDVDW SE-506BB Adapter: 1 ID: 1

Режим чтения : Достоверность
Использование точного потока : Да
Отключение кэша аудио : Да
Использование указателей C2 : Нет

Коррекция смещения при чтении : 6
Способность читать области Lead-in и Lead-out : Нет
Заполнение пропущенных сэмплов тишиной : Да
Удаление блоков с тишиной в начале и конце : Нет
При вычислениях CRC использовались нулевые сэмплы : Да
Интерфейс : Встроенный Win32-интерфейс для Win NT/2000
Обработка зазоров : Добавлено к предыдущему треку

Выходной формат : Внутренние WAV-операции
Формат сэмплов : 44.100 Гц; 16 бит; стерео


TOC извлечённого CD

Трек | Старт | Длительность | Начальный сектор | Конечный сектор
––––––––––––––––––––––––––––––––––-
1 | 0:00.00 | 4:30.50 | 0 | 20299
2 | 4:30.50 | 7:53.63 | 20300 | 55837
3 | 12:24.38 | 4:10.04 | 55838 | 74591
4 | 16:34.42 | 6:32.12 | 74592 | 104003
5 | 23:06.54 | 12:04.74 | 104004 | 158377
6 | 35:11.53 | 5:07.70 | 158378 | 181472
7 | 40:19.48 | 5:01.73 | 181473 | 204120


Трек 1

Имя файла D:\Temp\01. I'll Find My Way Home.wav

Длина предзазора 0:00:02.00

Пиковый уровень 98.8 %
Скорость извлечения 2.7 X
Качество трека 100.0 %
CRC теста 09C1B89F
CRC копии 09C1B89F
Точное извлечение (достоверность 9) [8BA0AF57] (AR v2)
Копирование… OK

Трек 2

Имя файла D:\Temp\02. State Of Independence.wav

Пиковый уровень 98.8 %
Скорость извлечения 3.3 X
Качество трека 100.0 %
CRC теста 5DD4A863
CRC копии 5DD4A863
Точное извлечение (достоверность 9) [6AE73505] (AR v2)
Копирование… OK

Трек 3

Имя файла D:\Temp\03. Beside.wav

Пиковый уровень 80.3 %
Скорость извлечения 3.5 X
Качество трека 100.0 %
CRC теста 84029FA4
CRC копии 84029FA4
Точное извлечение (достоверность 9) [F04D24D2] (AR v2)
Копирование… OK

Трек 4

Имя файла D:\Temp\04. Mayflower.wav

Пиковый уровень 98.8 %
Скорость извлечения 4.0 X
Качество трека 100.0 %
CRC теста 8130D095
CRC копии 8130D095
Точное извлечение (достоверность 9) [E9EA04E7] (AR v2)
Копирование… OK

Трек 5

Имя файла D:\Temp\05. The Friends Of Mr. Cairo.wav

Пиковый уровень 98.8 %
Скорость извлечения 4.6 X
Качество трека 100.0 %
CRC теста 9F242CAA
CRC копии 9F242CAA
Точное извлечение (достоверность 9) [1A6D100D] (AR v2)
Копирование… OK

Трек 6

Имя файла D:\Temp\06. Back To School.wav

Пиковый уровень 97.2 %
Скорость извлечения 4.7 X
Качество трека 100.0 %
CRC теста E7AF0FDD
CRC копии E7AF0FDD
Точное извлечение (достоверность 9) [FFBB702C] (AR v2)
Копирование… OK

Трек 7

Имя файла D:\Temp\07. Outside Of This (Inside Of That).wav

Пиковый уровень 98.8 %
Скорость извлечения 4.9 X
Качество трека 100.0 %
CRC теста 3D673B65
CRC копии 3D673B65
Точное извлечение (достоверность 9) [9173B956] (AR v2)
Копирование… OK


Все треки извлечены точно

Ошибок не произошло

Конец отчёта

–– CUETools DB Plugin V2.1.6

[CTDB TOCID: wrdxyYKExXnZfcgNxtkfmdWNwN8-] found
Submit result: wrdxyYKExXnZfcgNxtkfmdWNwN8- has been confirmed
Track | CTDB Status
1 | (26/26) Accurately ripped
2 | (26/26) Accurately ripped
3 | (26/26) Accurately ripped
4 | (26/26) Accurately ripped
5 | (26/26) Accurately ripped
6 | (26/26) Accurately ripped
7 | (26/26) Accurately ripped


==== Контрольная сумма отчёта DBE054E681791F11EF689677F48AF5CE9BBF52FE3422A6821A0BDE9C975429A2 ====

foobar2000 1.2.6 / Dynamic Range Meter 1.1.1
log date: 2017-04-10 00:35:50

––––––––––––––––––––––––––––––––––––––––
Analyzed: JON & VANGELIS / The Friends Of Mr. Cairo
––––––––––––––––––––––––––––––––––––––––

DR Peak RMS Duration Track
––––––––––––––––––––––––––––––––––––––––
DR13 -0.10 dB -15.44 dB 4:31 01-I’ll Find My Way Home
DR15 -0.10 dB -16.68 dB 7:54 02-State Of Independence
DR11 -1.90 dB -16.99 dB 4:10 03-Beside
DR14 -0.10 dB -19.55 dB 6:32 04-Mayflower
DR17 -0.10 dB -21.48 dB 12:05 05-The Friends Of Mr. Cairo
DR14 -0.24 dB -16.08 dB 5:08 06-Back To School
DR14 -0.10 dB -19.63 dB 5:02 07-Outside Of This (Inside Of That)
––––––––––––––––––––––––––––––––––––––––

Number of tracks: 7
Official DR value: DR14

Samplerate: 44100 Hz
Channels: 2
Bits per sample: 16
Bitrate: 691 kbps
Codec: FLAC
================================================================================

[CUETools log; Date: 10.04.2017 0:35:34; Version: 2.1.5]
[CTDB TOCID: wrdxyYKExXnZfcgNxtkfmdWNwN8-] found.
Track | CTDB Status
1 | (27/27) Accurately ripped
2 | (27/27) Accurately ripped
3 | (27/27) Accurately ripped
4 | (27/27) Accurately ripped
5 | (27/27) Accurately ripped
6 | (27/27) Accurately ripped
7 | (27/27) Accurately ripped
[AccurateRip ID: 000c2ff2-004a76b2-5a0aa107] found.
Track [ CRC | V2 ] Status
01 [a1958ea0|8ba0af57] (0+9/9) Accurately ripped
02 [28d78b5e|6ae73505] (0+9/9) Accurately ripped
03 [f8cf8539|f04d24d2] (0+9/9) Accurately ripped
04 [6e78d178|e9ea04e7] (0+9/9) Accurately ripped
05 [f3822e22|1a6d100d] (0+9/9) Accurately ripped
06 [ea97e7ef|ffbb702c] (0+9/9) Accurately ripped
07 [1a945b11|9173b956] (0+9/9) Accurately ripped

Track Peak [ CRC32 ] [W/O NULL] [ LOG ]
– 98,8 [2F269586] [C4D8A8DA]
01 98,8 [09C1B89F] [07C1E5FE] CRC32
02 98,8 [5DD4A863] [7D4D9FE3] CRC32
03 80,3 [84029FA4] [B45CD204] CRC32
04 98,8 [8130D095] [8ACE6F0F] CRC32
05 98,8 [9F242CAA] [333ADCB3] CRC32
06 97,2 [E7AF0FDD] [8541D9FA] CRC32
07 98,8 [3D673B65] [6004876A] CRC32

Track List CD13 Jon & Vangelis - Private Collection (1983):

01. Italian Song [2:54]
02. And When The Night Comes [4:36]
03. Deborah [4:55]
04. Polonaise [5:25]
05. He Is Sailing [6:49]
06. Horizon [22:51]
07. Song Is [6:07]

Exact Audio Copy V1.1 from 23. June 2015

Отчёт EAC об извлечении, выполненном 9. апреля 2017, 15:26

JON & VANGELIS / Private Collection

Дисковод: TSSTcorpBDDVDW SE-506BB Adapter: 1 ID: 1

Режим чтения : Достоверность
Использование точного потока : Да
Отключение кэша аудио : Да
Использование указателей C2 : Нет

Коррекция смещения при чтении : 6
Способность читать области Lead-in и Lead-out : Нет
Заполнение пропущенных сэмплов тишиной : Да
Удаление блоков с тишиной в начале и конце : Нет
При вычислениях CRC использовались нулевые сэмплы : Да
Интерфейс : Встроенный Win32-интерфейс для Win NT/2000
Обработка зазоров : Добавлено к предыдущему треку

Выходной формат : Внутренние WAV-операции
Формат сэмплов : 44.100 Гц; 16 бит; стерео


TOC извлечённого CD

Трек | Старт | Длительность | Начальный сектор | Конечный сектор
––––––––––––––––––––––––––––––––––-
1 | 0:00.00 | 2:53.44 | 0 | 13018
2 | 2:53.44 | 4:36.31 | 13019 | 33749
3 | 7:30.00 | 4:54.68 | 33750 | 55867
4 | 12:24.68 | 5:24.73 | 55868 | 80240
5 | 17:49.66 | 6:48.51 | 80241 | 110891
6 | 24:38.42 | 22:51.06 | 110892 | 213722
7 | 47:29.48 | 6:07.05 | 213723 | 241252


Трек 1

Имя файла D:\Temp\01. Italian Song.wav

Длина предзазора 0:00:02.00

Пиковый уровень 76.0 %
Скорость извлечения 0.9 X
Качество трека 99.8 %
CRC теста 33B31DCE
CRC копии 33B31DCE
Точное извлечение (достоверность 9) [0D685B11] (AR v2)
Копирование… OK

Трек 2

Имя файла D:\Temp\02. And When The Night Comes.wav

Пиковый уровень 97.4 %
Скорость извлечения 2.9 X
Качество трека 100.0 %
CRC теста 72BD5C49
CRC копии 72BD5C49
Точное извлечение (достоверность 9) [32CECC82] (AR v2)
Копирование… OK

Трек 3

Имя файла D:\Temp\03. Deborah.wav

Пиковый уровень 89.9 %
Скорость извлечения 3.2 X
Качество трека 100.0 %
CRC теста B1FF6EC4
CRC копии B1FF6EC4
Точное извлечение (достоверность 9) [BD6E072E] (AR v2)
Копирование… OK

Трек 4

Имя файла D:\Temp\04. Polonaise.wav

Пиковый уровень 98.2 %
Скорость извлечения 3.6 X
Качество трека 100.0 %
CRC теста 09E5C6E8
CRC копии 09E5C6E8
Точное извлечение (достоверность 9) [85D6BEC6] (AR v2)
Копирование… OK

Трек 5

Имя файла D:\Temp\05. He Is Sailing.wav

Пиковый уровень 98.8 %
Скорость извлечения 3.3 X
Качество трека 99.9 %
CRC теста DDB9EC06
CRC копии DDB9EC06
Точное извлечение (достоверность 9) [5F18B8F1] (AR v2)
Копирование… OK

Трек 6

Имя файла D:\Temp\06. Horizon.wav

Пиковый уровень 98.8 %
Скорость извлечения 4.3 X
Качество трека 100.0 %
CRC теста AFE891C5
CRC копии AFE891C5
Точное извлечение (достоверность 9) [30BD5E4B] (AR v2)
Копирование… OK

Трек 7

Имя файла D:\Temp\07. Song Is.wav

Пиковый уровень 75.8 %
Скорость извлечения 5.3 X
Качество трека 100.0 %
CRC теста 3077D7BB
CRC копии 3077D7BB
Точное извлечение (достоверность 9) [360607BF] (AR v2)
Копирование… OK


Все треки извлечены точно

Ошибок не произошло

Конец отчёта

–– CUETools DB Plugin V2.1.6

[CTDB TOCID: PNegDV2Lp_LdTbdKHsUD_wWP5AE-] found
Submit result: PNegDV2Lp_LdTbdKHsUD_wWP5AE- has been confirmed
Track | CTDB Status
1 | (25/25) Accurately ripped
2 | (25/25) Accurately ripped
3 | (24/25) Accurately ripped
4 | (25/25) Accurately ripped
5 | (25/25) Accurately ripped
6 | (24/25) Accurately ripped
7 | (25/25) Accurately ripped


==== Контрольная сумма отчёта A4081F535D0034EF1AFAAF59E22616C6A9C695E017AE63BFDD3042AC703B8E40 ====

foobar2000 1.2.6 / Dynamic Range Meter 1.1.1
log date: 2017-04-10 00:37:19

––––––––––––––––––––––––––––––––––––––––
Analyzed: JON & VANGELIS / Private Collection
––––––––––––––––––––––––––––––––––––––––

DR Peak RMS Duration Track
––––––––––––––––––––––––––––––––––––––––
DR11 -2.38 dB -17.10 dB 2:54 01-Italian Song
DR15 -0.22 dB -16.86 dB 4:36 02-And When The Night Comes
DR12 -0.92 dB -16.33 dB 4:55 03-Deborah
DR14 -0.15 dB -16.96 dB 5:25 04-Polonaise
DR12 -0.10 dB -14.00 dB 6:49 05-He Is Sailing
DR13 -0.10 dB -16.82 dB 22:51 06-Horizon
DR12 -2.40 dB -18.69 dB 6:07 07-Song Is
––––––––––––––––––––––––––––––––––––––––

Number of tracks: 7
Official DR value: DR13

Samplerate: 44100 Hz
Channels: 2
Bits per sample: 16
Bitrate: 739 kbps
Codec: FLAC
================================================================================

[CUETools log; Date: 10.04.2017 0:36:27; Version: 2.1.5]
[CTDB TOCID: PNegDV2Lp_LdTbdKHsUD_wWP5AE-] found.
Track | CTDB Status
1 | (26/26) Accurately ripped
2 | (26/26) Accurately ripped
3 | (25/26) Accurately ripped
4 | (26/26) Accurately ripped
5 | (26/26) Accurately ripped
6 | (25/26) Accurately ripped
7 | (26/26) Accurately ripped
[AccurateRip ID: 000b6cca-0049e78b-510c9007] found.
Track [ CRC | V2 ] Status
01 [1dd2dc28|0d685b11] (0+9/9) Accurately ripped
02 [c4387e33|32cecc82] (0+9/9) Accurately ripped
03 [9fb2fd34|bd6e072e] (0+9/9) Accurately ripped
04 [c830674f|85d6bec6] (0+9/9) Accurately ripped
05 [2f473800|5f18b8f1] (0+9/9) Accurately ripped
06 [bd309f6d|30bd5e4b] (0+9/9) Accurately ripped
07 [d4bf0466|360607bf] (0+9/9) Accurately ripped

Track Peak [ CRC32 ] [W/O NULL] [ LOG ]
– 98,8 [7C6A4D38] [3D98AFBF]
01 76,0 [33B31DCE] [5C1F9180] CRC32
02 97,4 [72BD5C49] [52AD11F7] CRC32
03 89,9 [B1FF6EC4] [FC2D8C0B] CRC32
04 98,2 [09E5C6E8] [F4BD7720] CRC32
05 98,8 [DDB9EC06] [C6299C3B] CRC32
06 98,8 [AFE891C5] [C0EAF02F] CRC32
07 75,8 [3077D7BB] [5B8FB0B0] CRC32

Vangelis - Delectus: The Polydor & Vertigo Recordings · 1973-1985 (2017) {13CD Box Set, Reissue, Remastered}


All thanks go to spAceLover

>>> Vangelis in my Blog <<<

Download: