Tags
Language
Tags

Vangelis - Spiral (1977)

Posted By: gribovar
Vangelis - Spiral (1977)

Vangelis - Spiral (1977)
EAC Rip | FLAC (image+.cue+log) - 198 MB | MP3 CBR 320 kbps (LAME 3.93) - 92 MB | Covers - 43 MB
Genre: Electronic, New Age | RAR 3% Rec. | Label: RCA (ND70568)

As far as Vangelis' early work is concerned (pertaining to the five years of his solo career), Spiral stands up quite well, although it's almost always regarded as an inessential effort. Although the structures and the overall dynamics of the pieces are less complicated and less sophisticated, Spiral's keyboard utilization is still extremely effectual, even if it does take awhile to get off the ground. The five tracks that make up the album aren't as atmospheric or as elaborately shifting as 1975's Heaven and Hell or 1976's Albedo 0.39, but his musical movement does seem to transgress toward full, complete soundscapes, especially in "To the Unknown Man," the album's best example of Vangelis' artistry. The album is based on a dancer's appreciation of the universe and how it spirals into infinity, a concept which came to him through his own pirouettes. Both "Spiral" and "Ballad" touch ever so lightly on melody, appropriately relating to the album's theme, while the lengthy "3+3" begins to unveil Vangelis' creativity and sense of electronic exploration. After Spiral, Vangelis' style changed somewhat, with more of a smoother, more melodic approach to the synthesizer, implemented to create a closer relationship between classical and electronic music. Albums such as Beauborg and China lay claim to this, also employing stronger ties between the theme and the music, while 1981's Chariots of Fire has him merging the two styles completely.

Tracklist:
01. Spiral
02. Ballad
03. Dervish D
04. To the Unknown Man
05. 3 + 3

Total time: 39:26

Exact Audio Copy V1.0 beta 3 from 29. August 2011

Отчёт EAC об извлечении, выполненном 13. апреля 2012, 11:42

Vangelis / Spiral [RCA ND70568]

Дисковод: PLEXTOR CD-R PREMIUM2 Adapter: 0 ID: 0

Режим чтения : Достоверность
Использование точного потока : Да
Отключение кэша аудио : Да
Использование указателей C2 : Нет

Коррекция смещения при чтении : 30
Способность читать области Lead-in и Lead-out : Да
Заполнение пропущенных сэмплов тишиной : Да
Удаление блоков с тишиной в начале и конце : Нет
При вычислениях CRC использовались нулевые сэмплы : Да
Интерфейс : Встроенный Win32-интерфейс для Win NT/2000

Выходной формат : Внутренние WAV-операции
Формат сэмплов : 44.100 Гц; 16 бит; стерео


TOC извлечённого CD

Трек | Старт | Длительность | Начальный сектор | Конечный сектор
––––––––––––––––––––––––––––––––––-
1 | 0:00.33 | 6:57.27 | 33 | 31334
2 | 6:57.60 | 8:31.03 | 31335 | 69662
3 | 15:28.63 | 5:15.22 | 69663 | 93309
4 | 20:44.10 | 9:06.55 | 93310 | 134314
5 | 29:50.65 | 9:35.43 | 134315 | 177482


Характеристики диапазона извлечения и сообщения об ошибках

Выбранный диапазон

Имя файла F:\Vangelis - Spiral [Germany RCA ND70568] - 1977\Vangelis - Spiral [RCA ND70568].wav

Пиковый уровень 100.0 %
Скорость извлечения 2.2 X
Качество диапазона 100.0 %
CRC теста 8514FB13
CRC копии 8514FB13
Копирование… OK

Ошибок не произошло


AccurateRip: сводка

Трек 1 : извлечено точно (доверие 6) [7AD0FDB4] (AR v2)
Трек 2 : извлечено точно (доверие 6) [CFF3A457] (AR v2)
Трек 3 : извлечено точно (доверие 6) [C5BC9C1E] (AR v2)
Трек 4 : извлечено точно (доверие 6) [764B9E81] (AR v2)
Трек 5 : извлечено точно (доверие 6) [2FD5695A] (AR v2)

Все треки извлечены точно

Конец отчёта

–– CUETools DB Plugin V2.1.4

[CTDB TOCID: jWr.1HlbK_a9hs4ogh6uVrVtEIs-] disk not present in database
Submit result: jWr.1HlbK_a9hs4ogh6uVrVtEIs- has been uploaded


==== Контрольная сумма отчёта C3CA0CB5448BBC45FE3603C3345D9C771F355BA722390073E689EDCFED2DF913 ====

[CUETools log; Date: 10.11.2021 14:01:43; Version: 2.1.4]
Pregap length 00:00:33.
[CTDB TOCID: jWr.1HlbK_a9hs4ogh6uVrVtEIs-] found.
Track | CTDB Status
1 | (685/713) Accurately ripped, or (3/713) differs in 2 samples @00:20:05,01:40:29
2 | (697/713) Accurately ripped, or (3/713) differs in 1 samples @07:12:51
3 | (703/713) Accurately ripped
4 | (701/713) Accurately ripped, or (3/713) differs in 1 samples @03:42:10
5 | (702/713) Accurately ripped
[AccurateRip ID: 0007b91b-0024565d-3c093e05] found.
Track [ CRC | V2 ] Status
01 [743b13ec|7ad0fdb4] (053+112/421) Accurately ripped
02 [6355c468|cff3a457] (052+110/417) Accurately ripped
03 [8e3d4d9c|c5bc9c1e] (050+111/416) Accurately ripped
04 [15c181e9|764b9e81] (051+114/418) Accurately ripped
05 [70785382|2fd5695a] (051+112/419) Accurately ripped
Offsetted by -944:
01 [81503bd2] (020/421) Accurately ripped
02 [6d5b9511] (019/417) Accurately ripped
03 [b76a54d0] (019/416) Accurately ripped
04 [40aabfe8] (019/418) Accurately ripped
05 [9991075f] (018/419) Accurately ripped
Offsetted by -664:
01 [93a39680] (009/421) Accurately ripped
02 [ede90143] (009/417) Accurately ripped
03 [bcd0cf89] (009/416) Accurately ripped
04 [6d88adf8] (009/418) Accurately ripped
05 [a20d349f] (009/419) Accurately ripped
Offsetted by -277:
01 [a4b0fba6] (007/421) Accurately ripped
02 [c79d2945] (007/417) Accurately ripped
03 [c728a01a] (007/416) Accurately ripped
04 [012243a9] (007/418) Accurately ripped
05 [031a5cdc] (007/419) Accurately ripped
Offsetted by 125:
01 [3939c5cd] (013/421) Accurately ripped
02 [8a490b7c] (013/417) Accurately ripped
03 [b51b8042] (013/416) Accurately ripped
04 [ecf7b612] (012/418) Accurately ripped
05 [dbdec087] (013/419) Accurately ripped
Offsetted by 392:
01 [117fadfe] (025/421) Accurately ripped
02 [eb790650] (025/417) Accurately ripped
03 [6954da41] (025/416) Accurately ripped
04 [0802b4b8] (025/418) Accurately ripped
05 [71fa6b8c] (025/419) Accurately ripped
Offsetted by -676:
01 [280fb158] (000/421) No match (V2 was not tested)
02 [d6184300] (000/417) No match (V2 was not tested)
03 [bc22f444] (000/416) No match (V2 was not tested)
04 [be2e52a8] (000/418) No match (V2 was not tested)
05 [ce39d897] (000/419) No match (V2 was not tested)
Offsetted by -485:
01 [587e4a77] (000/421) No match (V2 was not tested)
02 [0201306e] (000/417) No match (V2 was not tested)
03 [3fb6e592] (000/416) No match (V2 was not tested)
04 [b605ff22] (000/418) No match (V2 was not tested)
05 [f793af7f] (000/419) No match (V2 was not tested)

Track Peak [ CRC32 ] [W/O NULL] [ LOG ]
– 100,0 [8514FB13] [E4041C76] CRC32
01 97,8 [328CE651] [F92F0409]
02 100,0 [FC59E5C6] [60FCCEBB]
03 91,6 [20A5D187] [A70FA2C9]
04 89,9 [B6D00408] [2F0FF3F2]
05 86,4 [0A389E06] [CB3B84F4]

Thanks to Stripakulina

See also: