Subcategories

Various Artists - 100 Hits: Total Rock - 100 Ultimate Guitar Classics [5CD] (2015)

Posted By: BlondStyle
Various Artists - 100 Hits: Total Rock - 100 Ultimate Guitar Classics [5CD] (2015)

Various Artists - 100 Hits: Total Rock - 100 Ultimate Guitar Classics [5CD] (2015)
Rock, Alternative Rock, Hard Rock | EAC Rip | FLAC, Tracks+CUE+LOG+Scans (JPEG) | 06:36:50 h | 2,98 Gb
Label: Demon Music/Sony Music Entertainment UK Ltd. (EU) | Cat.# DMGN 100 146 | Released: 2015

100 Hits: Total Rock offers up a hard-hitting playlist stocked with classic rock (Blue Öyster Cult's "[Don't Fear] the Reaper"), (Cheap Trick's "I Want You to Want Me"), hair metal (Warrant's "Cherry Pie" and Europe's "The Final Countdown"), alternative rock (Sugar's "Hoover Dam" and Suede's "Filmstar"), and everything in-between (Ian Dury & the Blockheads' "Sweet Gene Vincent" and Coheed and Cambria's "The Suffering").
~Review by James Christopher Monger

Various Artists - 100 Hits: Total Rock - 100 Ultimate Guitar Classics [5CD] (2015)

Various Artists - 100 Hits: Total Rock - 100 Ultimate Guitar Classics [5CD] (2015)


Release of this 5CD Set: 2015 [CD Demon Music/Sony Music Entertainment UK Ltd. (EU), Cat.# DMGN 100 146 / UPC: 5014797893702]
This compilation ℗© 2015 Demon Music Group Limited/Sony Music Entertainment UK Limited.
Marketed by Demon Music Group Limited.
Manufactured in the EU


Tracklist:

Disc 1

01. Meat Loaf - Bat Out Of Hell (04:49)
02. Alice Cooper - Poison (04:30)
03. Boston - More Than A Feeling (03:29)
04. Blue Oyster Cult - (Don't Fear) The Reaper (03:50)
05. Argent - God Gave Rock & Roll To You (04:01)
06. Motorhead - The One To Sing The Blues (03:09)
07. Iggy & The Stooges - Raw Power (04:16)
08. Judas Priest - Living After Midnight (03:23)
09. Ram Jam - Black Betty (02:30)
10. Status Quo - Two Way Traffic (04:00)
11. Journey - Who's Crying Now (05:02)
12. Europe - Rock The Night (04:06)
13. Toto - Hold The Line (03:57)
14. Warrant - Cherry Pie (03:19)
15. Cheap Trick - I Want You To Want Me (03:35)
16. Deep Purple - King Of Dreams (05:27)
17. Scorpions - The Good Die Young (03:53)
18. The Sweet - Hell Raiser (03:18)
19. Saxon - Solid Ball Of Rock (04:38)
20. Ian Gillan - New Orleans (02:40)

Disc 2

01. Reef - Place Your Hands (03:38)
02. Bowling For Soup - The Girl All The Bad Guys Want (03:17)
03. The Calling - Things Will Go My Way (03:59)
04. New Model Army - Here Comes The War (04:28)
05. Suede - Beautiful Ones (03:50)
06. Lordi - Hard Rock Hallelujah (04:08)
07. Manic Street Preachers - Faster (03:54)
08. Love,Hate - Wasted In America (03:43)
09. Senseless Things - Easy To Smile (03:53)
10. Whipping Boy - When We Were Young (02:50)
11. Zebrahead - Get Back (03:31)
12. 3 Colours Red - Sixty Mile Smile (02:38)
13. Ratt - Live For Today (04:37)
14. Soul Asylum - Somebody To Shove (03:14)
15. Great White - Rollin' Stoned (04:09)
16. Giant - Chained (07:20)
17. HIM - Solitary Man (03:37)
18. Green Jelly - Three Little Pigs (05:54)
19. Coheed And Cambria - The Suffering (03:44)
20. Suicidal Tendencies - Send Me Your Money (03:24)

Disc 3

01. Boston - Don't Look Back (05:59)
02. Alice Cooper - Hey Stoopid (03:56)
03. Meat Loaf - Dead Ringer For Love (04:21)
04. Danger Danger - I Still Think About You (04:36)
05. Deep Purple - Love Conquers All (03:45)
06. Iggy & The Stooges - Search And Destroy (Iggy Pop Mix) (03:28)
07. Infectious Grooves - Immigrant Song (02:57)
08. Judas Priest - Breaking The Law (02:35)
09. Family - Burlesque (04:02)
10. Kenny Loggins - Danger Zone (03:35)
11. Smokie - I'll Meet You At Midnight (03:16)
12. Firehouse - Don't Treat Me Bad (03:56)
13. The Edgar Winter Group - Frankenstein (04:46)
14. Argent - Hold Your Head Up (03:17)
15. Ian Hunter - Once Bitten Twice Shy (03:52)
16. The Sweet - Wig Wam Bam (03:01)
17. Molly Hatchet - Flirtin' With Disaster (04:59)
18. Danger Danger - Monkey Business (03:57)
19. Britny Fox - Girlschool (04:25)
20. Lita Ford - Kiss Me Deadly (04:03)

Disc 4

01. Blue Oyster Cult - Shooting Shark (04:22)
02. Ian Dury & The Blockheads - Sweet Gene Vincent (03:33)
03. Cheap Trick - If You Want My Love (03:35)
04. Suede - Filmstar (03:24)
05. Reef - Come Back Brighter (03:32)
06. Senseless Things - Hold It Down (04:23)
07. Bowling For Soup - 1985 (03:13)
08. Suicidal Tendencies - Nobody Hears (05:32)
09. The Calling - Adrienne (04:00)
10. 3 Colours Red - Nuclear Holiday (03:06)
11. Firehouse - When I Look Into Your Eyes (04:00)
12. Hanoi Rocks - Underwater World (05:20)
13. FM - Someday You'll Come Running (03:59)
14. Matthew Sweet - Girlfriend (03:40)
15. Bad English - When I See You Smile (04:18)
16. Prong - Get A Grip (On Yourself) (Harm Mix) (03:07)
17. Living Colour - Solace Of You (03:36)
18. Britny Fox - Long Way To Love (04:01)
19. Whipping Boy - We Don't Need Nobody Else (04:17)
20. Giant - Stay (04:48)

Disc 5

01. Europe - The Final Countdown (03:56)
02. Warrant - Down Boys (04:03)
03. Saxon - Dogs Of War (04:34)
04. Scorpions - Hour 1 (03:26)
05. Manic Street Preachers - Slash 'N' Burn (03:59)
06. FM - Bad Luck (04:07)
07. Green Jelly - Anarchy In The UK (03:28)
08. Stan Bush - The Touch (03:56)
09. Hanoi Rocks - Up Around The Bend (02:36)
10. HIM - The Funeral Of Hearts (04:29)
11. Lita Ford - Shot Of Poison (03:31)
12. Love,Hate - Evil Twin (03:58)
13. Sugar - Hoover Dam (05:30)
14. Matthew Sweet - The Ugly Truth (03:19)
15. Molly Hatchet - The Rambler (04:50)
16. New Model Army - Living In The Rose (03:50)
17. Prong - Prove You Wrong (Fuzzbuster Mix) (03:31)
18. Quiet Riot - Cum On Feel The Noize (04:48)
19. Ratt - Over The Edge (04:22)
20. The Gun - Race With The Devil (03:36)

Exact Audio Copy V1.3 from 2. September 2016

EAC extraction logfile from 10. May 2018, 22:42

Various / 100 Hits - Total Rock - CD01

Used drive : HL-DT-STDVDRAM GSA-E40N Adapter: 1 ID: 1

Read mode : Secure
Utilize accurate stream : Yes
Defeat audio cache : No
Make use of C2 pointers : Yes

Read offset correction : 667
Overread into Lead-In and Lead-Out : No
Fill up missing offset samples with silence : Yes
Delete leading and trailing silent blocks : No
Null samples used in CRC calculations : Yes
Used interface : Native Win32 interface for Win NT & 2000
Gap handling : Not detected, thus appended to previous track

Used output format : User Defined Encoder
Selected bitrate : 896 kBit/s
Quality : High
Add ID3 tag : No
Command line compressor : C:\Program Files (x86)\Exact Audio Copy\FLAC\FLAC.EXE
Additional command line options : -6 -V -T "ARTIST=%artist%" -T "TITLE=%title%" -T "ALBUM=%albumtitle%" -T "DATE=%year%" -T "TRACKNUMBER=%tracknr%" -T "GENRE=%genre%" -T "COMMENT=%comment%" -T "BAND=%albuminterpret%" -T "ALBUMARTIST=%albuminterpret%" -T "COMPOSER=%composer%" %haslyrics%–tag-from-file=LYRICS="%lyricsfile%"%haslyrics% -T "DISCNUMBER=%cdnumber%" -T "TOTALDISCS=%totalcds%" -T "TOTALTRACKS=%numtracks%" %hascover%–picture="%coverfile%"%hascover% %source% -o %dest%


TOC of the extracted CD

Track | Start | Length | Start sector | End sector
––––––––––––––––––––––––––––-
1 | 0:00.00 | 4:49.64 | 0 | 21738
2 | 4:49.64 | 4:30.38 | 21739 | 42026
3 | 9:20.27 | 3:29.13 | 42027 | 57714
4 | 12:49.40 | 3:50.43 | 57715 | 75007
5 | 16:40.08 | 4:01.64 | 75008 | 93146
6 | 20:41.72 | 3:09.64 | 93147 | 107385
7 | 23:51.61 | 4:16.26 | 107386 | 126611
8 | 28:08.12 | 3:23.41 | 126612 | 141877
9 | 31:31.53 | 2:30.73 | 141878 | 153200
10 | 34:02.51 | 4:00.31 | 153201 | 171231
11 | 38:03.07 | 5:02.24 | 171232 | 193905
12 | 43:05.31 | 4:06.14 | 193906 | 212369
13 | 47:11.45 | 3:57.61 | 212370 | 230205
14 | 51:09.31 | 3:19.45 | 230206 | 245175
15 | 54:29.01 | 3:35.24 | 245176 | 261324
16 | 58:04.25 | 5:27.46 | 261325 | 285895
17 | 63:31.71 | 3:53.33 | 285896 | 303403
18 | 67:25.29 | 3:18.65 | 303404 | 318318
19 | 70:44.19 | 4:38.52 | 318319 | 339220
20 | 75:22.71 | 2:40.34 | 339221 | 351254


Track 1

Filename A:\PsPBuRnOuT's MUSIC\ROCK\100 HITS - TOTAL ROCK\100 HITS - TOTAL ROCK - CD01\01.Meat Loaf - Bat Out Of Hell.wav

Peak level 92.9 %
Extraction speed 6.3 X
Track quality 99.8 %
Copy CRC F6BF75DE
Accurately ripped (confidence 16) [5D8D4DF9] (AR v2)
Copy OK

Track 2

Filename A:\PsPBuRnOuT's MUSIC\ROCK\100 HITS - TOTAL ROCK\100 HITS - TOTAL ROCK - CD01\02.Alice Cooper - Poison.wav

Peak level 99.4 %
Extraction speed 15.1 X
Track quality 100.0 %
Copy CRC 14CABF8A
Accurately ripped (confidence 16) [E078C5EB] (AR v2)
Copy OK

Track 3

Filename A:\PsPBuRnOuT's MUSIC\ROCK\100 HITS - TOTAL ROCK\100 HITS - TOTAL ROCK - CD01\03.Boston - More Than A Feeling.wav

Peak level 98.8 %
Extraction speed 17.8 X
Track quality 100.0 %
Copy CRC 0AEBBEB6
Accurately ripped (confidence 16) [DDF02C01] (AR v2)
Copy OK

Track 4

Filename A:\PsPBuRnOuT's MUSIC\ROCK\100 HITS - TOTAL ROCK\100 HITS - TOTAL ROCK - CD01\04.Blue Oyster Cult - (Don't Fear) The Reaper.wav

Peak level 99.4 %
Extraction speed 17.3 X
Track quality 100.0 %
Copy CRC C1F01C36
Accurately ripped (confidence 16) [65B4D907] (AR v2)
Copy OK

Track 5

Filename A:\PsPBuRnOuT's MUSIC\ROCK\100 HITS - TOTAL ROCK\100 HITS - TOTAL ROCK - CD01\05.Argent - God Gave Rock & Roll To You.wav

Peak level 99.4 %
Extraction speed 15.8 X
Track quality 99.9 %
Copy CRC 361BAB1E
Accurately ripped (confidence 16) [3A01ED44] (AR v2)
Copy OK

Track 6

Filename A:\PsPBuRnOuT's MUSIC\ROCK\100 HITS - TOTAL ROCK\100 HITS - TOTAL ROCK - CD01\06.Motorhead - The One To Sing The Blues.wav

Peak level 85.8 %
Extraction speed 16.8 X
Track quality 100.0 %
Copy CRC 6431CAC9
Accurately ripped (confidence 16) [AA898DD0] (AR v2)
Copy OK

Track 7

Filename A:\PsPBuRnOuT's MUSIC\ROCK\100 HITS - TOTAL ROCK\100 HITS - TOTAL ROCK - CD01\07.Iggy & The Stooges - Raw Power.wav

Peak level 61.7 %
Extraction speed 19.9 X
Track quality 100.0 %
Copy CRC 198D38C5
Accurately ripped (confidence 16) [38D68D25] (AR v2)
Copy OK

Track 8

Filename A:\PsPBuRnOuT's MUSIC\ROCK\100 HITS - TOTAL ROCK\100 HITS - TOTAL ROCK - CD01\08.Judas Priest - Living After Midnight.wav

Peak level 99.4 %
Extraction speed 20.1 X
Track quality 100.0 %
Copy CRC 18F0B735
Accurately ripped (confidence 16) [4B82A811] (AR v2)
Copy OK

Track 9

Filename A:\PsPBuRnOuT's MUSIC\ROCK\100 HITS - TOTAL ROCK\100 HITS - TOTAL ROCK - CD01\09.Ram Jam - Black Betty.wav

Peak level 99.4 %
Extraction speed 19.6 X
Track quality 100.0 %
Copy CRC 1BC0FECF
Accurately ripped (confidence 16) [29E1FD10] (AR v2)
Copy OK

Track 10

Filename A:\PsPBuRnOuT's MUSIC\ROCK\100 HITS - TOTAL ROCK\100 HITS - TOTAL ROCK - CD01\10.Status Quo - Two Way Traffic.wav

Peak level 72.4 %
Extraction speed 24.2 X
Track quality 100.0 %
Copy CRC 9F69C7CB
Accurately ripped (confidence 16) [3A7A55D4] (AR v2)
Copy OK

Track 11

Filename A:\PsPBuRnOuT's MUSIC\ROCK\100 HITS - TOTAL ROCK\100 HITS - TOTAL ROCK - CD01\11.Journey - Who's Crying Now.wav

Peak level 99.4 %
Extraction speed 23.2 X
Track quality 100.0 %
Copy CRC 98C7E472
Accurately ripped (confidence 16) [CF4F710D] (AR v2)
Copy OK

Track 12

Filename A:\PsPBuRnOuT's MUSIC\ROCK\100 HITS - TOTAL ROCK\100 HITS - TOTAL ROCK - CD01\12.Europe - Rock The Night.wav

Peak level 92.7 %
Extraction speed 23.2 X
Track quality 100.0 %
Copy CRC 4A65279E
Accurately ripped (confidence 16) [6015F598] (AR v2)
Copy OK

Track 13

Filename A:\PsPBuRnOuT's MUSIC\ROCK\100 HITS - TOTAL ROCK\100 HITS - TOTAL ROCK - CD01\13.Toto - Hold The Line.wav

Peak level 99.4 %
Extraction speed 26.8 X
Track quality 100.0 %
Copy CRC 7262B409
Accurately ripped (confidence 16) [95418D13] (AR v2)
Copy OK

Track 14

Filename A:\PsPBuRnOuT's MUSIC\ROCK\100 HITS - TOTAL ROCK\100 HITS - TOTAL ROCK - CD01\14.Warrant - Cherry Pie.wav

Peak level 81.6 %
Extraction speed 27.9 X
Track quality 100.0 %
Copy CRC 9199D547
Accurately ripped (confidence 16) [E04D1370] (AR v2)
Copy OK

Track 15

Filename A:\PsPBuRnOuT's MUSIC\ROCK\100 HITS - TOTAL ROCK\100 HITS - TOTAL ROCK - CD01\15.Cheap Trick - I Want You To Want Me.wav

Peak level 99.4 %
Extraction speed 25.1 X
Track quality 100.0 %
Copy CRC 5545F3DB
Accurately ripped (confidence 16) [1BD1047E] (AR v2)
Copy OK

Track 16

Filename A:\PsPBuRnOuT's MUSIC\ROCK\100 HITS - TOTAL ROCK\100 HITS - TOTAL ROCK - CD01\16.Deep Purple - King Of Dreams.wav

Peak level 99.4 %
Extraction speed 28.4 X
Track quality 100.0 %
Copy CRC 7BAD1375
Accurately ripped (confidence 16) [B6221B46] (AR v2)
Copy OK

Track 17

Filename A:\PsPBuRnOuT's MUSIC\ROCK\100 HITS - TOTAL ROCK\100 HITS - TOTAL ROCK - CD01\17.Scorpions - The Good Die Young.wav

Peak level 94.9 %
Extraction speed 25.1 X
Track quality 100.0 %
Copy CRC BBE24888
Accurately ripped (confidence 16) [3A9E9113] (AR v2)
Copy OK

Track 18

Filename A:\PsPBuRnOuT's MUSIC\ROCK\100 HITS - TOTAL ROCK\100 HITS - TOTAL ROCK - CD01\18.The Sweet - Hell Raiser.wav

Peak level 99.4 %
Extraction speed 31.0 X
Track quality 100.0 %
Copy CRC C3A5C6A8
Accurately ripped (confidence 16) [5881EB0C] (AR v2)
Copy OK

Track 19

Filename A:\PsPBuRnOuT's MUSIC\ROCK\100 HITS - TOTAL ROCK\100 HITS - TOTAL ROCK - CD01\19.Saxon - Solid Ball Of Rock.wav

Suspicious position 0:00:59
Suspicious position 0:01:08

Peak level 99.4 %
Extraction speed 2.4 X
Track quality 98.1 %
Copy CRC F7533C4D
Cannot be verified as accurate (confidence 16) [61CD92F0], AccurateRip returned [84268BF8] (AR v2)
Copy finished

Track 20

Filename A:\PsPBuRnOuT's MUSIC\ROCK\100 HITS - TOTAL ROCK\100 HITS - TOTAL ROCK - CD01\20.Ian Gillan - New Orleans.wav

Peak level 99.4 %
Extraction speed 23.5 X
Track quality 100.0 %
Copy CRC AFF19B8F
Accurately ripped (confidence 16) [20CCD6F8] (AR v2)
Copy OK


19 tracks accurately ripped
1 track could not be verified as accurate

There were errors

End of status report

–– CUETools DB Plugin V2.1.6

[CTDB TOCID: jQvjSMcDU1SOiny4vy4MQLO57YI-] found
Submit result: jQvjSMcDU1SOiny4vy4MQLO57YI- has been submitted
Track | CTDB Status
1 | (62/62) Accurately ripped
2 | (62/62) Accurately ripped
3 | (61/62) Accurately ripped
4 | (62/62) Accurately ripped
5 | (62/62) Accurately ripped
6 | (62/62) Accurately ripped
7 | (62/62) Accurately ripped
8 | (62/62) Accurately ripped
9 | (62/62) Accurately ripped
10 | (62/62) Accurately ripped
11 | (62/62) Accurately ripped
12 | (62/62) Accurately ripped
13 | (62/62) Accurately ripped
14 | (62/62) Accurately ripped
15 | (62/62) Accurately ripped
16 | (62/62) Accurately ripped
17 | (62/62) Accurately ripped
18 | (62/62) Accurately ripped
19 | (59/62) Differs in 133 samples @00:27:26-00:27:27,00:29:71,00:32:20,00:33:11,00:34:44,00:36:67-00:36:68,00:42:73,00:44:53-00:44:54,00:45:65,00:47:67,00:48:14,00:50:60,00:51:07,00:53:53,00:55:33,00:56:66,00:57:13-00:57:14,00:58:26,00:58:47,00:59:37,01:00:49,01:01:17,01:02:30,01:05:44,01:06:56,01:07:68,01:08:59,01:12:64,01:13:54,01:14:00,01:26:38
20 | (62/62) Accurately ripped
If you are sure that your rip contains errors, you can use CUETools to repair it.

––––––––––––––––––––––––––––––––––––––––
Analyzed: Alice Cooper / 100 Hits - Total Rock - CD01 (1)
Argent / 100 Hits - Total Rock - CD01 (2)
Blue Oyster Cult / 100 Hits - Total Rock - CD01 (3)
Boston / 100 Hits - Total Rock - CD01 (4)
Cheap Trick / 100 Hits - Total Rock - CD01 (5)
Deep Purple / 100 Hits - Total Rock - CD01 (6)
Europe / 100 Hits - Total Rock - CD01 (7)
Ian Gillan / 100 Hits - Total Rock - CD01 (8)
Iggy & The Stooges / 100 Hits - Total Rock - CD01 (9)
Journey / 100 Hits - Total Rock - CD01 (10)
Judas Priest / 100 Hits - Total Rock - CD01 (11)
Meat Loaf / 100 Hits - Total Rock - CD01 (12)
Motorhead / 100 Hits - Total Rock - CD01 (13)
Ram Jam / 100 Hits - Total Rock - CD01 (14)
Saxon / 100 Hits - Total Rock - CD01 (15)
Scorpions / 100 Hits - Total Rock - CD01 (16)
Status Quo / 100 Hits - Total Rock - CD01 (17)
The Sweet / 100 Hits - Total Rock - CD01 (18)
Toto / 100 Hits - Total Rock - CD01 (19)
Warrant / 100 Hits - Total Rock - CD01 (20)
––––––––––––––––––––––––––––––––––––––––

DR Peak RMS Duration Track
––––––––––––––––––––––––––––––––––––––––
DR8 -0.05 dB -10.52 dB 4:31 02-Poison
DR8 -0.05 dB -10.82 dB 4:02 05-God Gave Rock & Roll To You
DR8 -0.05 dB -9.82 dB 3:51 04-(Don't Fear) The Reaper
DR7 -0.11 dB -9.46 dB 3:29 03-More Than A Feeling
DR9 -0.05 dB -10.76 dB 3:35 15-I Want You To Want Me
DR9 -0.05 dB -10.02 dB 5:28 16-King Of Dreams
DR8 -0.65 dB -9.42 dB 4:06 12-Rock The Night
DR7 -0.05 dB -9.16 dB 2:40 20-New Orleans
DR3 -4.18 dB -8.66 dB 4:16 07-Raw Power
DR9 -0.05 dB -11.59 dB 5:02 11-Who's Crying Now
DR9 -0.05 dB -10.35 dB 3:24 08-Living After Midnight
DR7 -0.64 dB -9.49 dB 4:50 01-Bat Out Of Hell
DR8 -1.33 dB -9.72 dB 3:10 06-The One To Sing The Blues
DR8 -0.05 dB -9.80 dB 2:31 09-Black Betty
DR9 -0.05 dB -10.31 dB 4:39 19-Solid Ball Of Rock
DR8 -0.45 dB -10.47 dB 3:53 17-The Good Die Young
DR6 -2.80 dB -9.85 dB 4:00 10-Two Way Traffic
DR8 -0.05 dB -8.83 dB 3:19 18-Hell Raiser
DR8 -0.05 dB -9.77 dB 3:58 13-Hold The Line
DR7 -1.76 dB -9.67 dB 3:20 14-Cherry Pie
––––––––––––––––––––––––––––––––––––––––

Number of tracks: 20
Official DR value: DR8

Samplerate: 44100 Hz
Channels: 2
Bits per sample: 16
Bitrate: 1065 kbps
Codec: FLAC
================================================================================

Exact Audio Copy V1.3 from 2. September 2016

EAC extraction logfile from 10. May 2018, 23:41

Various / 100 Hits - Total Rock - CD02

Used drive : HL-DT-STDVDRAM GSA-E40N Adapter: 1 ID: 1

Read mode : Secure
Utilize accurate stream : Yes
Defeat audio cache : No
Make use of C2 pointers : Yes

Read offset correction : 667
Overread into Lead-In and Lead-Out : No
Fill up missing offset samples with silence : Yes
Delete leading and trailing silent blocks : No
Null samples used in CRC calculations : Yes
Used interface : Native Win32 interface for Win NT & 2000
Gap handling : Not detected, thus appended to previous track

Used output format : User Defined Encoder
Selected bitrate : 896 kBit/s
Quality : High
Add ID3 tag : No
Command line compressor : C:\Program Files (x86)\Exact Audio Copy\FLAC\FLAC.EXE
Additional command line options : -6 -V -T "ARTIST=%artist%" -T "TITLE=%title%" -T "ALBUM=%albumtitle%" -T "DATE=%year%" -T "TRACKNUMBER=%tracknr%" -T "GENRE=%genre%" -T "COMMENT=%comment%" -T "BAND=%albuminterpret%" -T "ALBUMARTIST=%albuminterpret%" -T "COMPOSER=%composer%" %haslyrics%–tag-from-file=LYRICS="%lyricsfile%"%haslyrics% -T "DISCNUMBER=%cdnumber%" -T "TOTALDISCS=%totalcds%" -T "TOTALTRACKS=%numtracks%" %hascover%–picture="%coverfile%"%hascover% %source% -o %dest%


TOC of the extracted CD

Track | Start | Length | Start sector | End sector
––––––––––––––––––––––––––––-
1 | 0:00.00 | 3:38.49 | 0 | 16398
2 | 3:38.49 | 3:17.37 | 16399 | 31210
3 | 6:56.11 | 3:59.54 | 31211 | 49189
4 | 10:55.65 | 4:28.22 | 49190 | 69311
5 | 15:24.12 | 3:50.42 | 69312 | 86603
6 | 19:14.54 | 4:08.15 | 86604 | 105218
7 | 23:22.69 | 3:54.44 | 105219 | 122812
8 | 27:17.38 | 3:43.31 | 122813 | 139568
9 | 31:00.69 | 3:53.40 | 139569 | 157083
10 | 34:54.34 | 2:50.27 | 157084 | 169860
11 | 37:44.61 | 3:31.38 | 169861 | 185723
12 | 41:16.24 | 2:38.63 | 185724 | 197636
13 | 43:55.12 | 4:37.08 | 197637 | 218419
14 | 48:32.20 | 3:14.69 | 218420 | 233038
15 | 51:47.14 | 4:09.13 | 233039 | 251726
16 | 55:56.27 | 7:20.30 | 251727 | 284756
17 | 63:16.57 | 3:37.49 | 284757 | 301080
18 | 66:54.31 | 5:54.35 | 301081 | 327665
19 | 72:48.66 | 3:44.11 | 327666 | 344476
20 | 76:33.02 | 3:24.50 | 344477 | 359826


Track 1

Filename A:\PsPBuRnOuT's MUSIC\ROCK\100 HITS - TOTAL ROCK\100 HITS - TOTAL ROCK - CD02\01.Reef - Place Your Hands.wav

Peak level 99.4 %
Extraction speed 2.8 X
Track quality 99.4 %
Copy CRC 711619AC
Accurately ripped (confidence 16) [79A0DCA3] (AR v2)
Copy OK

Track 2

Filename A:\PsPBuRnOuT's MUSIC\ROCK\100 HITS - TOTAL ROCK\100 HITS - TOTAL ROCK - CD02\02.Bowling For Soup - The Girl All The Bad Guys Want.wav

Peak level 83.2 %
Extraction speed 8.8 X
Track quality 99.8 %
Copy CRC CDB4838E
Accurately ripped (confidence 16) [43220753] (AR v2)
Copy OK

Track 3

Filename A:\PsPBuRnOuT's MUSIC\ROCK\100 HITS - TOTAL ROCK\100 HITS - TOTAL ROCK - CD02\03.The Calling - Things Will Go My Way.wav

Peak level 92.7 %
Extraction speed 5.2 X
Track quality 99.6 %
Copy CRC F32B6BE2
Accurately ripped (confidence 16) [7E7DF3B6] (AR v2)
Copy OK

Track 4

Filename A:\PsPBuRnOuT's MUSIC\ROCK\100 HITS - TOTAL ROCK\100 HITS - TOTAL ROCK - CD02\04.New Model Army - Here Comes The War.wav

Peak level 92.5 %
Extraction speed 10.6 X
Track quality 99.9 %
Copy CRC 934DF55B
Accurately ripped (confidence 16) [6BE989FA] (AR v2)
Copy OK

Track 5

Filename A:\PsPBuRnOuT's MUSIC\ROCK\100 HITS - TOTAL ROCK\100 HITS - TOTAL ROCK - CD02\05.Suede - Beautiful Ones.wav

Peak level 88.1 %
Extraction speed 10.9 X
Track quality 99.9 %
Copy CRC 744D7013
Accurately ripped (confidence 16) [B155FE25] (AR v2)
Copy OK

Track 6

Filename A:\PsPBuRnOuT's MUSIC\ROCK\100 HITS - TOTAL ROCK\100 HITS - TOTAL ROCK - CD02\06.Lordi - Hard Rock Hallelujah.wav

Peak level 76.3 %
Extraction speed 10.5 X
Track quality 99.8 %
Copy CRC EB6794C0
Accurately ripped (confidence 16) [AB5B89B8] (AR v2)
Copy OK

Track 7

Filename A:\PsPBuRnOuT's MUSIC\ROCK\100 HITS - TOTAL ROCK\100 HITS - TOTAL ROCK - CD02\07.Manic Street Preachers - Faster.wav

Peak level 82.6 %
Extraction speed 11.7 X
Track quality 99.9 %
Copy CRC FFC672D4
Accurately ripped (confidence 16) [064BC872] (AR v2)
Copy OK

Track 8

Filename A:\PsPBuRnOuT's MUSIC\ROCK\100 HITS - TOTAL ROCK\100 HITS - TOTAL ROCK - CD02\08.Love,Hate - Wasted In America.wav

Peak level 85.6 %
Extraction speed 13.2 X
Track quality 99.9 %
Copy CRC 60C8E927
Accurately ripped (confidence 16) [3ACB8B17] (AR v2)
Copy OK

Track 9

Filename A:\PsPBuRnOuT's MUSIC\ROCK\100 HITS - TOTAL ROCK\100 HITS - TOTAL ROCK - CD02\09.Senseless Things - Easy To Smile.wav

Peak level 91.0 %
Extraction speed 23.5 X
Track quality 100.0 %
Copy CRC 13521F3E
Accurately ripped (confidence 16) [F905504D] (AR v2)
Copy OK

Track 10

Filename A:\PsPBuRnOuT's MUSIC\ROCK\100 HITS - TOTAL ROCK\100 HITS - TOTAL ROCK - CD02\10.Whipping Boy - When We Were Young.wav

Peak level 93.2 %
Extraction speed 24.7 X
Track quality 100.0 %
Copy CRC 6F0399B8
Accurately ripped (confidence 16) [0D415876] (AR v2)
Copy OK

Track 11

Filename A:\PsPBuRnOuT's MUSIC\ROCK\100 HITS - TOTAL ROCK\100 HITS - TOTAL ROCK - CD02\11.Zebrahead - Get Back.wav

Peak level 99.2 %
Extraction speed 26.9 X
Track quality 100.0 %
Copy CRC DFF2472B
Accurately ripped (confidence 16) [70C1D62C] (AR v2)
Copy OK

Track 12

Filename A:\PsPBuRnOuT's MUSIC\ROCK\100 HITS - TOTAL ROCK\100 HITS - TOTAL ROCK - CD02\12.3 Colours Red - Sixty Mile Smile.wav

Peak level 99.4 %
Extraction speed 30.9 X
Track quality 100.0 %
Copy CRC DA5671DF
Accurately ripped (confidence 16) [3F1A4E9F] (AR v2)
Copy OK

Track 13

Filename A:\PsPBuRnOuT's MUSIC\ROCK\100 HITS - TOTAL ROCK\100 HITS - TOTAL ROCK - CD02\13.Ratt - Live For Today.wav

Peak level 94.4 %
Extraction speed 28.7 X
Track quality 100.0 %
Copy CRC 95DDC1D6
Accurately ripped (confidence 16) [E3D3CAFE] (AR v2)
Copy OK

Track 14

Filename A:\PsPBuRnOuT's MUSIC\ROCK\100 HITS - TOTAL ROCK\100 HITS - TOTAL ROCK - CD02\14.Soul Asylum - Somebody To Shove.wav

Peak level 99.4 %
Extraction speed 21.3 X
Track quality 99.8 %
Copy CRC 831BB32C
Cannot be verified as accurate (confidence 16) [18585A95], AccurateRip returned [27FE262E] (AR v2)
Copy OK

Track 15

Filename A:\PsPBuRnOuT's MUSIC\ROCK\100 HITS - TOTAL ROCK\100 HITS - TOTAL ROCK - CD02\15.Great White - Rollin' Stoned.wav

Peak level 99.4 %
Extraction speed 11.9 X
Track quality 99.7 %
Copy CRC 0EFB85E1
Accurately ripped (confidence 16) [A0A1B1A1] (AR v2)
Copy OK

Track 16

Filename A:\PsPBuRnOuT's MUSIC\ROCK\100 HITS - TOTAL ROCK\100 HITS - TOTAL ROCK - CD02\16.Giant - Chained.wav

Peak level 99.4 %
Extraction speed 25.8 X
Track quality 99.9 %
Copy CRC 344C5FFE
Accurately ripped (confidence 16) [D9B31752] (AR v2)
Copy OK

Track 17

Filename A:\PsPBuRnOuT's MUSIC\ROCK\100 HITS - TOTAL ROCK\100 HITS - TOTAL ROCK - CD02\17.HIM - Solitary Man.wav

Peak level 99.4 %
Extraction speed 19.9 X
Track quality 99.9 %
Copy CRC 5DE38633
Accurately ripped (confidence 15) [2F1789BA] (AR v2)
Copy OK

Track 18

Filename A:\PsPBuRnOuT's MUSIC\ROCK\100 HITS - TOTAL ROCK\100 HITS - TOTAL ROCK - CD02\18.Green Jelly - Three Little Pigs.wav

Peak level 99.4 %
Extraction speed 31.4 X
Track quality 100.0 %
Copy CRC 2BB8342E
Accurately ripped (confidence 15) [88ABD5AE] (AR v2)
Copy OK

Track 19

Filename A:\PsPBuRnOuT's MUSIC\ROCK\100 HITS - TOTAL ROCK\100 HITS - TOTAL ROCK - CD02\19.Coheed and Cambria - The Suffering.wav

Peak level 96.0 %
Extraction speed 37.4 X
Track quality 100.0 %
Copy CRC 29236833
Accurately ripped (confidence 15) [137063A3] (AR v2)
Copy OK

Track 20

Filename A:\PsPBuRnOuT's MUSIC\ROCK\100 HITS - TOTAL ROCK\100 HITS - TOTAL ROCK - CD02\20.Suicidal Tendencies - Send Me Your Money.wav

Peak level 99.4 %
Extraction speed 37.8 X
Track quality 100.0 %
Copy CRC 290C5B53
Accurately ripped (confidence 15) [DF7B77D3] (AR v2)
Copy OK


19 tracks accurately ripped
1 track could not be verified as accurate

There were errors

End of status report

–– CUETools DB Plugin V2.1.6

[CTDB TOCID: MYUO3G8rC2Rl85cWMGxZOPIyOA8-] found
Submit result: MYUO3G8rC2Rl85cWMGxZOPIyOA8- has been submitted
Track | CTDB Status
1 | (58/60) Accurately ripped
2 | (59/60) Accurately ripped
3 | (58/60) Accurately ripped
4 | (59/60) Accurately ripped
5 | (59/60) Accurately ripped
6 | (59/60) Accurately ripped
7 | (59/60) Accurately ripped
8 | (59/60) Accurately ripped
9 | (59/60) Accurately ripped
10 | (58/60) Accurately ripped
11 | (58/60) Accurately ripped
12 | (58/60) Accurately ripped
13 | (59/60) Accurately ripped
14 | (55/60) Differs in 4 samples @03:14:45
15 | (59/60) Accurately ripped
16 | (59/60) Accurately ripped
17 | (58/60) Accurately ripped
18 | (58/60) Accurately ripped
19 | (57/60) Accurately ripped
20 | (57/60) Accurately ripped

––––––––––––––––––––––––––––––––––––––––
Analyzed: 3 Colours Red / 100 Hits - Total Rock - CD02 (1)
Bowling For Soup / 100 Hits - Total Rock - CD02 (2)
Coheed And Cambria / 100 Hits - Total Rock - CD02 (3)
Giant / 100 Hits - Total Rock - CD02 (4)
Great White / 100 Hits - Total Rock - CD02 (5)
Green Jelly / 100 Hits - Total Rock - CD02 (6)
HIM / 100 Hits - Total Rock - CD02 (7)
Lordi / 100 Hits - Total Rock - CD02 (8)
Love/Hate / 100 Hits - Total Rock - CD02 (9)
Manic Street Preachers / 100 Hits - Total Rock - CD02 (10)
New Model Army / 100 Hits - Total Rock - CD02 (11)
Ratt / 100 Hits - Total Rock - CD02 (12)
Reef / 100 Hits - Total Rock - CD02 (13)
Senseless Things / 100 Hits - Total Rock - CD02 (14)
Soul Asylum / 100 Hits - Total Rock - CD02 (15)
Suede / 100 Hits - Total Rock - CD02 (16)
Suicidal Tendencies / 100 Hits - Total Rock - CD02 (17)
The Calling / 100 Hits - Total Rock - CD02 (18)
Whipping Boy / 100 Hits - Total Rock - CD02 (19)
Zebrahead / 100 Hits - Total Rock - CD02 (20)
––––––––––––––––––––––––––––––––––––––––

DR Peak RMS Duration Track
––––––––––––––––––––––––––––––––––––––––
DR8 -0.05 dB -9.71 dB 2:39 12-Sixty Mile Smile
DR6 -1.59 dB -9.23 dB 3:17 02-The Girl All The Bad Guys Want
DR6 -0.35 dB -8.00 dB 3:44 19-The Suffering
DR9 -0.05 dB -10.84 dB 7:20 16-Chained
DR9 -0.05 dB -10.01 dB 4:09 15-Rollin' Stoned
DR7 -0.05 dB -8.55 dB 5:54 18-Three Little Pigs
DR7 -0.05 dB -8.84 dB 3:38 17-Solitary Man
DR6 -2.35 dB -9.49 dB 4:08 06-Hard Rock Hallelujah
DR8 -1.35 dB -10.04 dB 3:43 08-Wasted In America
DR6 -1.66 dB -8.37 dB 3:55 07-Faster
DR6 -0.67 dB -9.12 dB 4:28 04-Here Comes The War
DR8 -0.49 dB -10.17 dB 4:37 13-Live For Today
DR9 -0.05 dB -9.63 dB 3:39 01-Place Your Hands
DR7 -0.81 dB -9.09 dB 3:54 09-Easy To Smile
DR8 -0.05 dB -9.23 dB 3:15 14-Somebody To Shove
DR7 -1.10 dB -10.27 dB 3:51 05-Beautiful Ones
DR7 -0.05 dB -8.59 dB 3:25 20-Send Me Your Money
DR7 -0.65 dB -9.68 dB 4:00 03-Things Will Go My Way
DR9 -0.61 dB -10.76 dB 2:50 10-When We Were Young
DR7 -0.06 dB -8.74 dB 3:32 11-Get Back
––––––––––––––––––––––––––––––––––––––––

Number of tracks: 20
Official DR value: DR7

Samplerate: 44100 Hz
Channels: 2
Bits per sample: 16
Bitrate: 1034 kbps
Codec: FLAC
================================================================================

Exact Audio Copy V1.3 from 2. September 2016

EAC extraction logfile from 11. May 2018, 0:35

Various / 100 Hits - Total Rock - CD03

Used drive : HL-DT-STDVDRAM GSA-E40N Adapter: 1 ID: 1

Read mode : Secure
Utilize accurate stream : Yes
Defeat audio cache : No
Make use of C2 pointers : Yes

Read offset correction : 667
Overread into Lead-In and Lead-Out : No
Fill up missing offset samples with silence : Yes
Delete leading and trailing silent blocks : No
Null samples used in CRC calculations : Yes
Used interface : Native Win32 interface for Win NT & 2000
Gap handling : Not detected, thus appended to previous track

Used output format : User Defined Encoder
Selected bitrate : 896 kBit/s
Quality : High
Add ID3 tag : No
Command line compressor : C:\Program Files (x86)\Exact Audio Copy\FLAC\FLAC.EXE
Additional command line options : -6 -V -T "ARTIST=%artist%" -T "TITLE=%title%" -T "ALBUM=%albumtitle%" -T "DATE=%year%" -T "TRACKNUMBER=%tracknr%" -T "GENRE=%genre%" -T "COMMENT=%comment%" -T "BAND=%albuminterpret%" -T "ALBUMARTIST=%albuminterpret%" -T "COMPOSER=%composer%" %haslyrics%–tag-from-file=LYRICS="%lyricsfile%"%haslyrics% -T "DISCNUMBER=%cdnumber%" -T "TOTALDISCS=%totalcds%" -T "TOTALTRACKS=%numtracks%" %hascover%–picture="%coverfile%"%hascover% %source% -o %dest%


TOC of the extracted CD

Track | Start | Length | Start sector | End sector
––––––––––––––––––––––––––––-
1 | 0:00.00 | 5:59.17 | 0 | 26941
2 | 5:59.17 | 3:56.21 | 26942 | 44662
3 | 9:55.38 | 4:21.59 | 44663 | 64296
4 | 14:17.22 | 4:36.29 | 64297 | 85025
5 | 18:53.51 | 3:45.56 | 85026 | 101956
6 | 22:39.32 | 3:28.34 | 101957 | 117590
7 | 26:07.66 | 2:57.37 | 117591 | 130902
8 | 29:05.28 | 2:35.54 | 130903 | 142581
9 | 31:41.07 | 4:02.61 | 142582 | 160792
10 | 35:43.68 | 3:35.43 | 160793 | 176960
11 | 39:19.36 | 3:16.41 | 176961 | 191701
12 | 42:36.02 | 3:56.32 | 191702 | 209433
13 | 46:32.34 | 4:46.06 | 209434 | 230889
14 | 51:18.40 | 3:17.41 | 230890 | 245705
15 | 54:36.06 | 3:52.23 | 245706 | 263128
16 | 58:28.29 | 3:01.17 | 263129 | 276720
17 | 61:29.46 | 4:59.20 | 276721 | 299165
18 | 66:28.66 | 3:57.66 | 299166 | 317006
19 | 70:26.57 | 4:25.23 | 317007 | 336904
20 | 74:52.05 | 4:03.08 | 336905 | 355137


Track 1

Filename A:\PsPBuRnOuT's MUSIC\ROCK\100 HITS - TOTAL ROCK\100 HITS - TOTAL ROCK - CD03\01.Boston - Don't Look Back.wav

Peak level 92.7 %
Extraction speed 11.1 X
Track quality 100.0 %
Copy CRC FF709693
Accurately ripped (confidence 2) [2FBEC76E] (AR v1)
Copy OK

Track 2

Filename A:\PsPBuRnOuT's MUSIC\ROCK\100 HITS - TOTAL ROCK\100 HITS - TOTAL ROCK - CD03\02.Alice Cooper - Hey Stoopid.wav

Peak level 99.4 %
Extraction speed 11.6 X
Track quality 100.0 %
Copy CRC A674A851
Accurately ripped (confidence 2) [A7B638A6] (AR v1)
Copy OK

Track 3

Filename A:\PsPBuRnOuT's MUSIC\ROCK\100 HITS - TOTAL ROCK\100 HITS - TOTAL ROCK - CD03\03.Meat Loaf - Dead Ringer For Love.wav

Peak level 99.4 %
Extraction speed 12.5 X
Track quality 100.0 %
Copy CRC CAD4A503
Accurately ripped (confidence 2) [FC039118] (AR v1)
Copy OK

Track 4

Filename A:\PsPBuRnOuT's MUSIC\ROCK\100 HITS - TOTAL ROCK\100 HITS - TOTAL ROCK - CD03\04.Danger Danger - I Still Think About You.wav

Peak level 99.4 %
Extraction speed 14.7 X
Track quality 100.0 %
Copy CRC 71A7B3FC
Accurately ripped (confidence 2) [14376173] (AR v1)
Copy OK

Track 5

Filename A:\PsPBuRnOuT's MUSIC\ROCK\100 HITS - TOTAL ROCK\100 HITS - TOTAL ROCK - CD03\05.Deep Purple - Love Conquers All.wav

Peak level 99.4 %
Extraction speed 15.6 X
Track quality 100.0 %
Copy CRC 74060086
Accurately ripped (confidence 2) [9001C868] (AR v1)
Copy OK

Track 6

Filename A:\PsPBuRnOuT's MUSIC\ROCK\100 HITS - TOTAL ROCK\100 HITS - TOTAL ROCK - CD03\06.Iggy & The Stooges - Search And Destroy (Iggy Pop Mix).wav

Peak level 78.0 %
Extraction speed 16.3 X
Track quality 100.0 %
Copy CRC 4A4A9D19
Accurately ripped (confidence 2) [4652D520] (AR v1)
Copy OK

Track 7

Filename A:\PsPBuRnOuT's MUSIC\ROCK\100 HITS - TOTAL ROCK\100 HITS - TOTAL ROCK - CD03\07.Infectious Grooves - Immigrant Song.wav

Peak level 99.4 %
Extraction speed 13.6 X
Track quality 99.8 %
Copy CRC FCDCADD2
Accurately ripped (confidence 2) [5F9D6149] (AR v1)
Copy OK

Track 8

Filename A:\PsPBuRnOuT's MUSIC\ROCK\100 HITS - TOTAL ROCK\100 HITS - TOTAL ROCK - CD03\08.Judas Priest - Breaking The Law.wav

Peak level 92.7 %
Extraction speed 14.4 X
Track quality 100.0 %
Copy CRC E0ADBE7F
Accurately ripped (confidence 2) [36814844] (AR v1)
Copy OK

Track 9

Filename A:\PsPBuRnOuT's MUSIC\ROCK\100 HITS - TOTAL ROCK\100 HITS - TOTAL ROCK - CD03\09.Family - Burlesque.wav

Peak level 99.4 %
Extraction speed 15.1 X
Track quality 99.9 %
Copy CRC 9D0D8A7A
Accurately ripped (confidence 2) [4933C20C] (AR v1)
Copy OK

Track 10

Filename A:\PsPBuRnOuT's MUSIC\ROCK\100 HITS - TOTAL ROCK\100 HITS - TOTAL ROCK - CD03\10.Kenny Loggins - Danger Zone.wav

Peak level 92.7 %
Extraction speed 16.2 X
Track quality 100.0 %
Copy CRC F4CFFF00
Accurately ripped (confidence 2) [8528C170] (AR v1)
Copy OK

Track 11

Filename A:\PsPBuRnOuT's MUSIC\ROCK\100 HITS - TOTAL ROCK\100 HITS - TOTAL ROCK - CD03\11.Smokie - I'll Meet You At Midnight.wav

Peak level 99.4 %
Extraction speed 16.9 X
Track quality 100.0 %
Copy CRC 4907095F
Accurately ripped (confidence 2) [1500CE9D] (AR v1)
Copy OK

Track 12

Filename A:\PsPBuRnOuT's MUSIC\ROCK\100 HITS - TOTAL ROCK\100 HITS - TOTAL ROCK - CD03\12.Firehouse - Don't Treat Me Bad.wav

Peak level 99.4 %
Extraction speed 16.5 X
Track quality 99.9 %
Copy CRC 96E8E38D
Accurately ripped (confidence 2) [3092D905] (AR v1)
Copy OK

Track 13

Filename A:\PsPBuRnOuT's MUSIC\ROCK\100 HITS - TOTAL ROCK\100 HITS - TOTAL ROCK - CD03\13.The Edgar Winter Group - Frankenstein.wav

Peak level 99.4 %
Extraction speed 18.4 X
Track quality 100.0 %
Copy CRC A26C1717
Accurately ripped (confidence 2) [6992C9FF] (AR v1)
Copy OK

Track 14

Filename A:\PsPBuRnOuT's MUSIC\ROCK\100 HITS - TOTAL ROCK\100 HITS - TOTAL ROCK - CD03\14.Argent - Hold Your Head Up.wav

Peak level 99.4 %
Extraction speed 18.5 X
Track quality 100.0 %
Copy CRC DF5A71FF
Accurately ripped (confidence 2) [4100873E] (AR v1)
Copy OK

Track 15

Filename A:\PsPBuRnOuT's MUSIC\ROCK\100 HITS - TOTAL ROCK\100 HITS - TOTAL ROCK - CD03\15.Ian Hunter - Once Bitten Twice Shy.wav

Peak level 89.2 %
Extraction speed 17.9 X
Track quality 99.9 %
Copy CRC 352312C4
Accurately ripped (confidence 2) [15989316] (AR v1)
Copy OK

Track 16

Filename A:\PsPBuRnOuT's MUSIC\ROCK\100 HITS - TOTAL ROCK\100 HITS - TOTAL ROCK - CD03\16.The Sweet - Wig Wam Bam.wav

Peak level 99.4 %
Extraction speed 18.4 X
Track quality 100.0 %
Copy CRC D529A26D
Accurately ripped (confidence 2) [261A1208] (AR v1)
Copy OK

Track 17

Filename A:\PsPBuRnOuT's MUSIC\ROCK\100 HITS - TOTAL ROCK\100 HITS - TOTAL ROCK - CD03\17.Molly Hatchet - Flirtin' With Disaster.wav

Peak level 99.4 %
Extraction speed 22.2 X
Track quality 100.0 %
Copy CRC FD7F0A09
Accurately ripped (confidence 2) [E7708670] (AR v1)
Copy OK

Track 18

Filename A:\PsPBuRnOuT's MUSIC\ROCK\100 HITS - TOTAL ROCK\100 HITS - TOTAL ROCK - CD03\18.Danger Danger - Monkey Business.wav

Peak level 99.4 %
Extraction speed 21.0 X
Track quality 100.0 %
Copy CRC B88148AD
Accurately ripped (confidence 2) [4D9086A9] (AR v1)
Copy OK

Track 19

Filename A:\PsPBuRnOuT's MUSIC\ROCK\100 HITS - TOTAL ROCK\100 HITS - TOTAL ROCK - CD03\19.Britny Fox - Girlschool.wav

Peak level 79.8 %
Extraction speed 21.7 X
Track quality 100.0 %
Copy CRC 893A5080
Accurately ripped (confidence 2) [3E3748D6] (AR v1)
Copy OK

Track 20

Filename A:\PsPBuRnOuT's MUSIC\ROCK\100 HITS - TOTAL ROCK\100 HITS - TOTAL ROCK - CD03\20.Lita Ford - Kiss Me Deadly.wav

Peak level 92.7 %
Extraction speed 22.1 X
Track quality 100.0 %
Copy CRC F2685E3F
Accurately ripped (confidence 2) [509E9061] (AR v1)
Copy OK


All tracks accurately ripped

No errors occurred

End of status report

–– CUETools DB Plugin V2.1.6

[CTDB TOCID: Ktof.IJHFjYSnfzpF6djD0Bm.eg-] found
Submit result: Ktof.IJHFjYSnfzpF6djD0Bm.eg- has been confirmed
Track | CTDB Status
1 | (62/62) Accurately ripped
2 | (62/62) Accurately ripped
3 | (62/62) Accurately ripped
4 | (62/62) Accurately ripped
5 | (62/62) Accurately ripped
6 | (62/62) Accurately ripped
7 | (62/62) Accurately ripped
8 | (62/62) Accurately ripped
9 | (62/62) Accurately ripped
10 | (62/62) Accurately ripped
11 | (62/62) Accurately ripped
12 | (62/62) Accurately ripped
13 | (62/62) Accurately ripped
14 | (62/62) Accurately ripped
15 | (62/62) Accurately ripped
16 | (62/62) Accurately ripped
17 | (62/62) Accurately ripped
18 | (62/62) Accurately ripped
19 | (62/62) Accurately ripped
20 | (62/62) Accurately ripped

––––––––––––––––––––––––––––––––––––––––
Analyzed: Alice Cooper / 100 Hits - Total Rock - CD03 (1)
Argent / 100 Hits - Total Rock - CD03 (2)
Boston / 100 Hits - Total Rock - CD03 (3)
Britny Fox / 100 Hits - Total Rock - CD03 (4)
Danger Danger / 100 Hits - Total Rock - CD03 (5-6)
Deep Purple / 100 Hits - Total Rock - CD03 (7)
Family / 100 Hits - Total Rock - CD03 (8)
Firehouse / 100 Hits - Total Rock - CD03 (9)
Ian Hunter / 100 Hits - Total Rock - CD03 (10)
Iggy & The Stooges / 100 Hits - Total Rock - CD03 (11)
Infectious Grooves / 100 Hits - Total Rock - CD03 (12)
Judas Priest / 100 Hits - Total Rock - CD03 (13)
Kenny Loggins / 100 Hits - Total Rock - CD03 (14)
Lita Ford / 100 Hits - Total Rock - CD03 (15)
Meat Loaf / 100 Hits - Total Rock - CD03 (16)
Molly Hatchet / 100 Hits - Total Rock - CD03 (17)
Smokie / 100 Hits - Total Rock - CD03 (18)
The Edgar Winter Group / 100 Hits - Total Rock - CD03 (19)
The Sweet / 100 Hits - Total Rock - CD03 (20)
––––––––––––––––––––––––––––––––––––––––

DR Peak RMS Duration Track
––––––––––––––––––––––––––––––––––––––––
DR8 -0.05 dB -8.99 dB 3:56 02-Hey Stoopid
DR7 -0.05 dB -10.00 dB 3:18 14-Hold Your Head Up
DR7 -0.65 dB -9.84 dB 5:59 01-Don't Look Back
DR7 -1.96 dB -10.04 dB 4:25 19-Girlschool
DR9 -0.05 dB -11.15 dB 4:36 04-I Still Think About You
DR9 -0.05 dB -10.26 dB 3:58 18-Monkey Business
DR7 -0.05 dB -9.89 dB 3:46 05-Love Conquers All
DR8 -0.05 dB -10.24 dB 4:03 09-Burlesque
DR8 -0.05 dB -9.71 dB 3:56 12-Don't Treat Me Bad
DR6 -0.99 dB -9.83 dB 3:52 15-Once Bitten Twice Shy
DR3 -2.15 dB -7.30 dB 3:28 06-Search And Destroy (Iggy Pop Mix)
DR8 -0.05 dB -9.27 dB 2:57 07-Immigrant Song
DR7 -0.65 dB -9.11 dB 2:36 08-Breaking The Law
DR6 -0.65 dB -8.57 dB 3:36 10-Danger Zone
DR9 -0.65 dB -10.92 dB 4:03 20-Kiss Me Deadly
DR7 -0.05 dB -8.77 dB 4:22 03-Dead Ringer For Love
DR8 -0.05 dB -8.56 dB 4:59 17-Flirtin' With Disaster
DR8 -0.05 dB -11.00 dB 3:17 11-I'll Meet You At Midnight
DR9 -0.05 dB -11.26 dB 4:46 13-Frankenstein
DR8 -0.05 dB -9.23 dB 3:01 16-Wig Wam Bam
––––––––––––––––––––––––––––––––––––––––

Number of tracks: 20
Official DR value: DR8

Samplerate: 44100 Hz
Channels: 2
Bits per sample: 16
Bitrate: 1016 kbps
Codec: FLAC
================================================================================

Exact Audio Copy V1.3 from 2. September 2016

EAC extraction logfile from 11. May 2018, 10:25

Various / 100 Hits - Total Rock - CD04

Used drive : HL-DT-STDVDRAM GSA-E40N Adapter: 1 ID: 1

Read mode : Secure
Utilize accurate stream : Yes
Defeat audio cache : No
Make use of C2 pointers : Yes

Read offset correction : 667
Overread into Lead-In and Lead-Out : No
Fill up missing offset samples with silence : Yes
Delete leading and trailing silent blocks : No
Null samples used in CRC calculations : Yes
Used interface : Native Win32 interface for Win NT & 2000
Gap handling : Not detected, thus appended to previous track

Used output format : User Defined Encoder
Selected bitrate : 896 kBit/s
Quality : High
Add ID3 tag : No
Command line compressor : C:\Program Files (x86)\Exact Audio Copy\FLAC\FLAC.EXE
Additional command line options : -6 -V -T "ARTIST=%artist%" -T "TITLE=%title%" -T "ALBUM=%albumtitle%" -T "DATE=%year%" -T "TRACKNUMBER=%tracknr%" -T "GENRE=%genre%" -T "COMMENT=%comment%" -T "BAND=%albuminterpret%" -T "ALBUMARTIST=%albuminterpret%" -T "COMPOSER=%composer%" %haslyrics%–tag-from-file=LYRICS="%lyricsfile%"%haslyrics% -T "DISCNUMBER=%cdnumber%" -T "TOTALDISCS=%totalcds%" -T "TOTALTRACKS=%numtracks%" %hascover%–picture="%coverfile%"%hascover% %source% -o %dest%


TOC of the extracted CD

Track | Start | Length | Start sector | End sector
––––––––––––––––––––––––––––-
1 | 0:00.00 | 4:22.00 | 0 | 19649
2 | 4:22.00 | 3:33.09 | 19650 | 35633
3 | 7:55.09 | 3:35.43 | 35634 | 51801
4 | 11:30.52 | 3:24.26 | 51802 | 67127
5 | 14:55.03 | 3:32.55 | 67128 | 83082
6 | 18:27.58 | 4:23.53 | 83083 | 102860
7 | 22:51.36 | 3:13.56 | 102861 | 117391
8 | 26:05.17 | 5:32.67 | 117392 | 142358
9 | 31:38.09 | 4:00.39 | 142359 | 160397
10 | 35:38.48 | 3:06.15 | 160398 | 174362
11 | 38:44.63 | 4:00.69 | 174363 | 192431
12 | 42:45.57 | 5:20.12 | 192432 | 216443
13 | 48:05.69 | 3:59.45 | 216444 | 234413
14 | 52:05.39 | 3:40.68 | 234414 | 250981
15 | 55:46.32 | 4:18.26 | 250982 | 270357
16 | 60:04.58 | 3:07.25 | 270358 | 284407
17 | 63:12.08 | 3:36.07 | 284408 | 300614
18 | 66:48.15 | 4:01.42 | 300615 | 318731
19 | 70:49.57 | 4:17.73 | 318732 | 338079
20 | 75:07.55 | 4:48.38 | 338080 | 359717


Track 1

Filename A:\PsPBuRnOuT's MUSIC\ROCK\100 HITS - TOTAL ROCK\100 HITS - TOTAL ROCK - CD04\01.Blue Oyster Cult - Shooting Shark.wav

Peak level 92.7 %
Extraction speed 11.2 X
Track quality 100.0 %
Copy CRC B1046B3C
Cannot be verified as accurate (confidence 15) [19D875B3], AccurateRip returned [781FC793] (AR v2)
Copy OK

Track 2

Filename A:\PsPBuRnOuT's MUSIC\ROCK\100 HITS - TOTAL ROCK\100 HITS - TOTAL ROCK - CD04\02.Ian Dury & The Blockheads - Sweet Gene Vincent.wav

Peak level 99.4 %
Extraction speed 11.1 X
Track quality 100.0 %
Copy CRC 582B4D5A
Cannot be verified as accurate (confidence 15) [66FF8D8B], AccurateRip returned [B3031BBF] (AR v2)
Copy OK

Track 3

Filename A:\PsPBuRnOuT's MUSIC\ROCK\100 HITS - TOTAL ROCK\100 HITS - TOTAL ROCK - CD04\03.Cheap Trick - If You Want My Love.wav

Peak level 99.4 %
Extraction speed 11.8 X
Track quality 100.0 %
Copy CRC FE33BD8D
Cannot be verified as accurate (confidence 15) [54E557DA], AccurateRip returned [65777BFE] (AR v2)
Copy OK

Track 4

Filename A:\PsPBuRnOuT's MUSIC\ROCK\100 HITS - TOTAL ROCK\100 HITS - TOTAL ROCK - CD04\04.Suede - Filmstar.wav

Peak level 88.6 %
Extraction speed 13.9 X
Track quality 100.0 %
Copy CRC BF372309
Cannot be verified as accurate (confidence 15) [B2267B77], AccurateRip returned [A4E84FCC] (AR v2)
Copy OK

Track 5

Filename A:\PsPBuRnOuT's MUSIC\ROCK\100 HITS - TOTAL ROCK\100 HITS - TOTAL ROCK - CD04\05.Reef - Come Back Brighter.wav

Peak level 99.4 %
Extraction speed 13.3 X
Track quality 100.0 %
Copy CRC 2B529941
Cannot be verified as accurate (confidence 15) [DB8CB704], AccurateRip returned [CBE4240E] (AR v2)
Copy OK

Track 6

Filename A:\PsPBuRnOuT's MUSIC\ROCK\100 HITS - TOTAL ROCK\100 HITS - TOTAL ROCK - CD04\06.Senseless Things - Hold It Down.wav

Peak level 85.6 %
Extraction speed 14.2 X
Track quality 100.0 %
Copy CRC 136C5C93
Cannot be verified as accurate (confidence 15) [DA4B7475], AccurateRip returned [CF0F6924] (AR v2)
Copy OK

Track 7

Filename A:\PsPBuRnOuT's MUSIC\ROCK\100 HITS - TOTAL ROCK\100 HITS - TOTAL ROCK - CD04\07.Bowling For Soup - 1985.wav

Peak level 99.4 %
Extraction speed 13.4 X
Track quality 99.8 %
Copy CRC 084A4E97
Cannot be verified as accurate (confidence 15) [3939F1D2], AccurateRip returned [F0980F48] (AR v2)
Copy OK

Track 8

Filename A:\PsPBuRnOuT's MUSIC\ROCK\100 HITS - TOTAL ROCK\100 HITS - TOTAL ROCK - CD04\08.Suicidal Tendencies - Nobody Hears.wav

Peak level 99.4 %
Extraction speed 15.7 X
Track quality 100.0 %
Copy CRC F94ACECE
Cannot be verified as accurate (confidence 15) [EC6DE989], AccurateRip returned [88E1556A] (AR v2)
Copy OK

Track 9

Filename A:\PsPBuRnOuT's MUSIC\ROCK\100 HITS - TOTAL ROCK\100 HITS - TOTAL ROCK - CD04\09.The Calling - Adrienne.wav

Peak level 92.7 %
Extraction speed 15.5 X
Track quality 100.0 %
Copy CRC 5EECABB8
Cannot be verified as accurate (confidence 15) [499756F3], AccurateRip returned [6F0A8D93] (AR v2)
Copy OK

Track 10

Filename A:\PsPBuRnOuT's MUSIC\ROCK\100 HITS - TOTAL ROCK\100 HITS - TOTAL ROCK - CD04\10.3 Colours Red - Nuclear Holiday.wav

Peak level 99.4 %
Extraction speed 15.0 X
Track quality 100.0 %
Copy CRC C06F1464
Cannot be verified as accurate (confidence 15) [C2796C42], AccurateRip returned [9C47B703] (AR v2)
Copy OK

Track 11

Filename A:\PsPBuRnOuT's MUSIC\ROCK\100 HITS - TOTAL ROCK\100 HITS - TOTAL ROCK - CD04\11.Firehouse - When I Look Into Your Eyes.wav

Peak level 89.6 %
Extraction speed 16.0 X
Track quality 99.9 %
Copy CRC B11F084F
Cannot be verified as accurate (confidence 15) [0ACB457F], AccurateRip returned [8E095668] (AR v2)
Copy OK

Track 12

Filename A:\PsPBuRnOuT's MUSIC\ROCK\100 HITS - TOTAL ROCK\100 HITS - TOTAL ROCK - CD04\12.Hanoi Rocks - Underwater World.wav

Peak level 89.4 %
Extraction speed 18.0 X
Track quality 100.0 %
Copy CRC F579A2DE
Cannot be verified as accurate (confidence 15) [441685E3], AccurateRip returned [49028BA5] (AR v2)
Copy OK

Track 13

Filename A:\PsPBuRnOuT's MUSIC\ROCK\100 HITS - TOTAL ROCK\100 HITS - TOTAL ROCK - CD04\13.FM - Someday You'll Come Running.wav

Peak level 92.3 %
Extraction speed 18.5 X
Track quality 100.0 %
Copy CRC AFCD2062
Cannot be verified as accurate (confidence 15) [A4F795C6], AccurateRip returned [6B6BBF0B] (AR v2)
Copy OK

Track 14

Filename A:\PsPBuRnOuT's MUSIC\ROCK\100 HITS - TOTAL ROCK\100 HITS - TOTAL ROCK - CD04\14.Matthew Sweet - Girlfriend.wav

Peak level 99.4 %
Extraction speed 21.0 X
Track quality 100.0 %
Copy CRC ECAA20BD
Cannot be verified as accurate (confidence 15) [40218BFE], AccurateRip returned [9842A3E3] (AR v2)
Copy OK

Track 15

Filename A:\PsPBuRnOuT's MUSIC\ROCK\100 HITS - TOTAL ROCK\100 HITS - TOTAL ROCK - CD04\15.Bad English - When I See You Smile.wav

Peak level 99.4 %
Extraction speed 19.8 X
Track quality 100.0 %
Copy CRC 6AD9CB93
Cannot be verified as accurate (confidence 15) [D4129345], AccurateRip returned [D15466AF] (AR v2)
Copy OK

Track 16

Filename A:\PsPBuRnOuT's MUSIC\ROCK\100 HITS - TOTAL ROCK\100 HITS - TOTAL ROCK - CD04\16.Prong - Get A Grip (On Yourself) (Harm Mix).wav

Peak level 99.4 %
Extraction speed 19.3 X
Track quality 100.0 %
Copy CRC 1F30294F
Cannot be verified as accurate (confidence 15) [CF797789], AccurateRip returned [DF2C38F5] (AR v2)
Copy OK

Track 17

Filename A:\PsPBuRnOuT's MUSIC\ROCK\100 HITS - TOTAL ROCK\100 HITS - TOTAL ROCK - CD04\17.Living Colour - Solace Of You.wav

Peak level 99.4 %
Extraction speed 22.2 X
Track quality 100.0 %
Copy CRC F2E20CCD
Cannot be verified as accurate (confidence 15) [ED58FAA5], AccurateRip returned [C0A8E00F] (AR v2)
Copy OK

Track 18

Filename A:\PsPBuRnOuT's MUSIC\ROCK\100 HITS - TOTAL ROCK\100 HITS - TOTAL ROCK - CD04\18.Britny Fox - Long Way To Love.wav

Peak level 99.4 %
Extraction speed 19.2 X
Track quality 99.9 %
Copy CRC 96B3DDA4
Cannot be verified as accurate (confidence 15) [B1897D42], AccurateRip returned [0BBF9C90] (AR v2)
Copy OK

Track 19

Filename A:\PsPBuRnOuT's MUSIC\ROCK\100 HITS - TOTAL ROCK\100 HITS - TOTAL ROCK - CD04\19.Whipping Boy - We Don't Need Nobody Else.wav

Peak level 98.6 %
Extraction speed 21.0 X
Track quality 100.0 %
Copy CRC 325F026C
Cannot be verified as accurate (confidence 15) [B92491A5], AccurateRip returned [1CB3B89D] (AR v2)
Copy OK

Track 20

Filename A:\PsPBuRnOuT's MUSIC\ROCK\100 HITS - TOTAL ROCK\100 HITS - TOTAL ROCK - CD04\20.Giant - Stay.wav

Peak level 99.4 %
Extraction speed 24.2 X
Track quality 100.0 %
Copy CRC 5FB09877
Cannot be verified as accurate (confidence 15) [6CABA90C], AccurateRip returned [7C87F388] (AR v2)
Copy OK


No tracks could be verified as accurate
You may have a different pressing from the one(s) in the database

No errors occurred

End of status report

–– CUETools DB Plugin V2.1.6

[CTDB TOCID: 2b71t0XNlix5YBWM3aQ8kIkDlCk-] found
Submit result: 2b71t0XNlix5YBWM3aQ8kIkDlCk- has been confirmed
Track | CTDB Status
1 | (64/64) Accurately ripped
2 | (64/64) Accurately ripped
3 | (64/64) Accurately ripped
4 | (64/64) Accurately ripped
5 | (64/64) Accurately ripped
6 | (64/64) Accurately ripped
7 | (64/64) Accurately ripped
8 | (64/64) Accurately ripped
9 | (64/64) Accurately ripped
10 | (64/64) Accurately ripped
11 | (64/64) Accurately ripped
12 | (64/64) Accurately ripped
13 | (64/64) Accurately ripped
14 | (64/64) Accurately ripped
15 | (64/64) Accurately ripped
16 | (64/64) Accurately ripped
17 | (64/64) Accurately ripped
18 | (64/64) Accurately ripped
19 | (64/64) Accurately ripped
20 | (64/64) Accurately ripped

––––––––––––––––––––––––––––––––––––––––
Analyzed: 3 Colours Red / 100 Hits - Total Rock - CD04 (1)
Bad English / 100 Hits - Total Rock - CD04 (2)
Blue Oyster Cult / 100 Hits - Total Rock - CD04 (3)
Bowling For Soup / 100 Hits - Total Rock - CD04 (4)
Britny Fox / 100 Hits - Total Rock - CD04 (5)
Cheap Trick / 100 Hits - Total Rock - CD04 (6)
Firehouse / 100 Hits - Total Rock - CD04 (7)
FM / 100 Hits - Total Rock - CD04 (8)
Giant / 100 Hits - Total Rock - CD04 (9)
Hanoi Rocks / 100 Hits - Total Rock - CD04 (10)
Ian Dury & The Blockheads / 100 Hits - Total Rock - CD04 (11)
Living Colour / 100 Hits - Total Rock - CD04 (12)
Matthew Sweet / 100 Hits - Total Rock - CD04 (13)
Prong / 100 Hits - Total Rock - CD04 (14)
Reef / 100 Hits - Total Rock - CD04 (15)
Senseless Things / 100 Hits - Total Rock - CD04 (16)
Suede / 100 Hits - Total Rock - CD04 (17)
Suicidal Tendencies / 100 Hits - Total Rock - CD04 (18)
The Calling / 100 Hits - Total Rock - CD04 (19)
Whipping Boy / 100 Hits - Total Rock - CD04 (20)
––––––––––––––––––––––––––––––––––––––––

DR Peak RMS Duration Track
––––––––––––––––––––––––––––––––––––––––
DR7 -0.05 dB -8.01 dB 3:06 10-Nuclear Holiday
DR9 -0.05 dB -10.75 dB 4:18 15-When I See You Smile
DR8 -0.65 dB -10.41 dB 4:22 01-Shooting Shark
DR7 -0.05 dB -8.61 dB 3:14 07-1985
DR10 -0.05 dB -10.93 dB 4:02 18-Long Way To Love
DR8 -0.05 dB -9.57 dB 3:36 03-If You Want My Love
DR8 -0.95 dB -10.42 dB 4:01 11-When I Look Into Your Eyes
DR7 -0.69 dB -9.25 dB 4:00 13-Someday You'll Come Running
DR10 -0.05 dB -10.74 dB 4:49 20-Stay
DR9 -0.97 dB -11.50 dB 5:20 12-Underwater World
DR9 -0.05 dB -12.28 dB 3:33 02-Sweet Gene Vincent
DR7 -0.05 dB -9.72 dB 3:36 17-Solace Of You
DR9 -0.05 dB -10.54 dB 3:41 14-Girlfriend
DR10 -0.05 dB -10.95 dB 3:07 16-Get A Grip (On Yourself) (Harm Mix)
DR8 -0.05 dB -8.80 dB 3:33 05-Come Back Brighter
DR7 -1.35 dB -9.98 dB 4:24 06-Hold It Down
DR7 -1.04 dB -9.72 dB 3:24 04-Filmstar
DR9 -0.05 dB -10.66 dB 5:33 08-Nobody Hears
DR7 -0.66 dB -8.71 dB 4:01 09-Adrienne
DR8 -0.12 dB -9.67 dB 4:18 19-We Don't Need Nobody Else
––––––––––––––––––––––––––––––––––––––––

Number of tracks: 20
Official DR value: DR8

Samplerate: 44100 Hz
Channels: 2
Bits per sample: 16
Bitrate: 987 kbps
Codec: FLAC
================================================================================

Exact Audio Copy V1.3 from 2. September 2016

EAC extraction logfile from 11. May 2018, 10:54

Various / 100 Hits - Total Rock - CD05

Used drive : HL-DT-STDVDRAM GSA-E40N Adapter: 1 ID: 1

Read mode : Secure
Utilize accurate stream : Yes
Defeat audio cache : No
Make use of C2 pointers : Yes

Read offset correction : 667
Overread into Lead-In and Lead-Out : No
Fill up missing offset samples with silence : Yes
Delete leading and trailing silent blocks : No
Null samples used in CRC calculations : Yes
Used interface : Native Win32 interface for Win NT & 2000
Gap handling : Not detected, thus appended to previous track

Used output format : User Defined Encoder
Selected bitrate : 896 kBit/s
Quality : High
Add ID3 tag : No
Command line compressor : C:\Program Files (x86)\Exact Audio Copy\FLAC\FLAC.EXE
Additional command line options : -6 -V -T "ARTIST=%artist%" -T "TITLE=%title%" -T "ALBUM=%albumtitle%" -T "DATE=%year%" -T "TRACKNUMBER=%tracknr%" -T "GENRE=%genre%" -T "COMMENT=%comment%" -T "BAND=%albuminterpret%" -T "ALBUMARTIST=%albuminterpret%" -T "COMPOSER=%composer%" %haslyrics%–tag-from-file=LYRICS="%lyricsfile%"%haslyrics% -T "DISCNUMBER=%cdnumber%" -T "TOTALDISCS=%totalcds%" -T "TOTALTRACKS=%numtracks%" %hascover%–picture="%coverfile%"%hascover% %source% -o %dest%


TOC of the extracted CD

Track | Start | Length | Start sector | End sector
––––––––––––––––––––––––––––-
1 | 0:00.00 | 3:56.02 | 0 | 17701
2 | 3:56.02 | 4:03.28 | 17702 | 35954
3 | 7:59.30 | 4:34.48 | 35955 | 56552
4 | 12:34.03 | 3:26.68 | 56553 | 72070
5 | 16:00.71 | 3:59.14 | 72071 | 90009
6 | 20:00.10 | 4:07.37 | 90010 | 108571
7 | 24:07.47 | 3:28.71 | 108572 | 124242
8 | 27:36.43 | 3:56.22 | 124243 | 141964
9 | 31:32.65 | 2:36.26 | 141965 | 153690
10 | 34:09.16 | 4:29.11 | 153691 | 173876
11 | 38:38.27 | 3:31.57 | 173877 | 189758
12 | 42:10.09 | 3:58.23 | 189759 | 207631
13 | 46:08.32 | 5:30.15 | 207632 | 232396
14 | 51:38.47 | 3:19.24 | 232397 | 247345
15 | 54:57.71 | 4:50.43 | 247346 | 269138
16 | 59:48.39 | 3:50.34 | 269139 | 286422
17 | 63:38.73 | 3:31.39 | 286423 | 302286
18 | 67:10.37 | 4:48.23 | 302287 | 323909
19 | 71:58.60 | 4:22.05 | 323910 | 343564
20 | 76:20.65 | 3:36.37 | 343565 | 359801


Track 1

Filename A:\PsPBuRnOuT's MUSIC\ROCK\100 HITS - TOTAL ROCK\100 HITS - TOTAL ROCK - CD05\01.Europe - The Final Countdown.wav

Peak level 99.4 %
Extraction speed 10.1 X
Track quality 100.0 %
Copy CRC 259D076E
Accurately ripped (confidence 15) [94A31017] (AR v2)
Copy OK

Track 2

Filename A:\PsPBuRnOuT's MUSIC\ROCK\100 HITS - TOTAL ROCK\100 HITS - TOTAL ROCK - CD05\02.Warrant - Down Boys.wav

Peak level 99.4 %
Extraction speed 11.2 X
Track quality 100.0 %
Copy CRC 1A176476
Accurately ripped (confidence 15) [965F50EB] (AR v2)
Copy OK

Track 3

Filename A:\PsPBuRnOuT's MUSIC\ROCK\100 HITS - TOTAL ROCK\100 HITS - TOTAL ROCK - CD05\03.Saxon - Dogs Of War.wav

Peak level 99.4 %
Extraction speed 12.2 X
Track quality 100.0 %
Copy CRC 1E33C444
Accurately ripped (confidence 15) [9D15BE15] (AR v2)
Copy OK

Track 4

Filename A:\PsPBuRnOuT's MUSIC\ROCK\100 HITS - TOTAL ROCK\100 HITS - TOTAL ROCK - CD05\04.Scorpions - Hour 1.wav

Peak level 85.0 %
Extraction speed 14.0 X
Track quality 100.0 %
Copy CRC DF0DC34F
Accurately ripped (confidence 15) [1633A4CB] (AR v2)
Copy OK

Track 5

Filename A:\PsPBuRnOuT's MUSIC\ROCK\100 HITS - TOTAL ROCK\100 HITS - TOTAL ROCK - CD05\05.Manic Street Preachers - Slash 'N' Burn.wav

Peak level 99.4 %
Extraction speed 13.7 X
Track quality 100.0 %
Copy CRC A01AB7E5
Accurately ripped (confidence 15) [CC81F9A6] (AR v2)
Copy OK

Track 6

Filename A:\PsPBuRnOuT's MUSIC\ROCK\100 HITS - TOTAL ROCK\100 HITS - TOTAL ROCK - CD05\06.FM - Bad Luck.wav

Peak level 99.4 %
Extraction speed 14.4 X
Track quality 100.0 %
Copy CRC 343621A4
Accurately ripped (confidence 15) [0CA8D735] (AR v2)
Copy OK

Track 7

Filename A:\PsPBuRnOuT's MUSIC\ROCK\100 HITS - TOTAL ROCK\100 HITS - TOTAL ROCK - CD05\07.Green Jelly - Anarchy In The UK.wav

Peak level 99.4 %
Extraction speed 14.7 X
Track quality 100.0 %
Copy CRC 4137BE64
Accurately ripped (confidence 15) [DA1088A3] (AR v2)
Copy OK

Track 8

Filename A:\PsPBuRnOuT's MUSIC\ROCK\100 HITS - TOTAL ROCK\100 HITS - TOTAL ROCK - CD05\08.Stan Bush - The Touch.wav

Peak level 99.4 %
Extraction speed 15.6 X
Track quality 100.0 %
Copy CRC FBB0C529
Accurately ripped (confidence 15) [E9B18E82] (AR v2)
Copy OK

Track 9

Filename A:\PsPBuRnOuT's MUSIC\ROCK\100 HITS - TOTAL ROCK\100 HITS - TOTAL ROCK - CD05\09.Hanoi Rocks - Up Around The Bend.wav

Peak level 92.7 %
Extraction speed 10.4 X
Track quality 99.7 %
Copy CRC 7749FDCF
Accurately ripped (confidence 15) [073C4EA7] (AR v2)
Copy OK

Track 10

Filename A:\PsPBuRnOuT's MUSIC\ROCK\100 HITS - TOTAL ROCK\100 HITS - TOTAL ROCK - CD05\10.HIM - The Funeral Of Hearts.wav

Peak level 92.5 %
Extraction speed 10.7 X
Track quality 99.8 %
Copy CRC 80268C9D
Accurately ripped (confidence 15) [2CCEBA19] (AR v2)
Copy OK

Track 11

Filename A:\PsPBuRnOuT's MUSIC\ROCK\100 HITS - TOTAL ROCK\100 HITS - TOTAL ROCK - CD05\11.Lita Ford - Shot Of Poison.wav

Peak level 99.4 %
Extraction speed 16.9 X
Track quality 100.0 %
Copy CRC 047DE020
Accurately ripped (confidence 15) [9D9D3086] (AR v2)
Copy OK

Track 12

Filename A:\PsPBuRnOuT's MUSIC\ROCK\100 HITS - TOTAL ROCK\100 HITS - TOTAL ROCK - CD05\12.Love,Hate - Evil Twin.wav

Suspicious position 0:03:57

Peak level 99.4 %
Extraction speed 10.1 X
Track quality 99.6 %
Copy CRC D9FD4F35
Accurately ripped (confidence 15) [68675B8D] (AR v2)
Copy finished

Track 13

Filename A:\PsPBuRnOuT's MUSIC\ROCK\100 HITS - TOTAL ROCK\100 HITS - TOTAL ROCK - CD05\13.Sugar - Hoover Dam.wav

Peak level 86.1 %
Extraction speed 19.3 X
Track quality 100.0 %
Copy CRC 11166EBA
Accurately ripped (confidence 15) [7757E5A5] (AR v2)
Copy OK

Track 14

Filename A:\PsPBuRnOuT's MUSIC\ROCK\100 HITS - TOTAL ROCK\100 HITS - TOTAL ROCK - CD05\14.Matthew Sweet - The Ugly Truth.wav

Peak level 99.4 %
Extraction speed 18.7 X
Track quality 100.0 %
Copy CRC 79F7C1C9
Accurately ripped (confidence 15) [761465C9] (AR v2)
Copy OK

Track 15

Filename A:\PsPBuRnOuT's MUSIC\ROCK\100 HITS - TOTAL ROCK\100 HITS - TOTAL ROCK - CD05\15.Molly Hatchet - The Rambler.wav

Peak level 99.4 %
Extraction speed 19.7 X
Track quality 100.0 %
Copy CRC 2CAB67E7
Accurately ripped (confidence 15) [D3355971] (AR v2)
Copy OK

Track 16

Filename A:\PsPBuRnOuT's MUSIC\ROCK\100 HITS - TOTAL ROCK\100 HITS - TOTAL ROCK - CD05\16.New Model Army - Living In The Rose.wav

Peak level 89.6 %
Extraction speed 22.2 X
Track quality 100.0 %
Copy CRC C7946DB0
Accurately ripped (confidence 15) [F231BF62] (AR v2)
Copy OK

Track 17

Filename A:\PsPBuRnOuT's MUSIC\ROCK\100 HITS - TOTAL ROCK\100 HITS - TOTAL ROCK - CD05\17.Prong - Prove You Wrong (Fuzzbuster Mix).wav

Peak level 99.4 %
Extraction speed 20.1 X
Track quality 100.0 %
Copy CRC F3CA5BEE
Accurately ripped (confidence 15) [364F2522] (AR v2)
Copy OK

Track 18

Filename A:\PsPBuRnOuT's MUSIC\ROCK\100 HITS - TOTAL ROCK\100 HITS - TOTAL ROCK - CD05\18.Quiet Riot - Cum On Feel The Noize.wav

Peak level 92.7 %
Extraction speed 21.3 X
Track quality 100.0 %
Copy CRC 1AB430B6
Accurately ripped (confidence 14) [3D629215] (AR v2)
Copy OK

Track 19

Filename A:\PsPBuRnOuT's MUSIC\ROCK\100 HITS - TOTAL ROCK\100 HITS - TOTAL ROCK - CD05\19.Ratt - Over The Edge.wav

Peak level 99.4 %
Extraction speed 23.7 X
Track quality 100.0 %
Copy CRC 4C1E06E5
Accurately ripped (confidence 14) [B3955BD8] (AR v2)
Copy OK

Track 20

Filename A:\PsPBuRnOuT's MUSIC\ROCK\100 HITS - TOTAL ROCK\100 HITS - TOTAL ROCK - CD05\20.The Gun - Race With The Devil.wav

Peak level 95.0 %
Extraction speed 24.4 X
Track quality 100.0 %
Copy CRC 7645BE0B
Accurately ripped (confidence 12) [53C95195] (AR v2)
Copy OK


All tracks accurately ripped

There were errors

End of status report

–– CUETools DB Plugin V2.1.6

[CTDB TOCID: VbADUfg7si3GfTc1ypIOhaLfs6I-] found
Submit result: VbADUfg7si3GfTc1ypIOhaLfs6I- has been confirmed
Track | CTDB Status
1 | (58/58) Accurately ripped
2 | (58/58) Accurately ripped
3 | (58/58) Accurately ripped
4 | (58/58) Accurately ripped
5 | (58/58) Accurately ripped
6 | (58/58) Accurately ripped
7 | (58/58) Accurately ripped
8 | (58/58) Accurately ripped
9 | (58/58) Accurately ripped
10 | (58/58) Accurately ripped
11 | (58/58) Accurately ripped
12 | (58/58) Accurately ripped
13 | (58/58) Accurately ripped
14 | (58/58) Accurately ripped
15 | (58/58) Accurately ripped
16 | (58/58) Accurately ripped
17 | (58/58) Accurately ripped
18 | (58/58) Accurately ripped
19 | (58/58) Accurately ripped
20 | (57/58) Accurately ripped

––––––––––––––––––––––––––––––––––––––––
Analyzed: Europe / 100 Hits - Total Rock - CD05 (1)
FM / 100 Hits - Total Rock - CD05 (2)
Green Jelly / 100 Hits - Total Rock - CD05 (3)
Hanoi Rocks / 100 Hits - Total Rock - CD05 (4)
HIM / 100 Hits - Total Rock - CD05 (5)
Lita Ford / 100 Hits - Total Rock - CD05 (6)
Love/Hate / 100 Hits - Total Rock - CD05 (7)
Manic Street Preachers / 100 Hits - Total Rock - CD05 (8)
Matthew Sweet / 100 Hits - Total Rock - CD05 (9)
Molly Hatchet / 100 Hits - Total Rock - CD05 (10)
New Model Army / 100 Hits - Total Rock - CD05 (11)
Prong / 100 Hits - Total Rock - CD05 (12)
Quiet Riot / 100 Hits - Total Rock - CD05 (13)
Ratt / 100 Hits - Total Rock - CD05 (14)
Saxon / 100 Hits - Total Rock - CD05 (15)
Scorpions / 100 Hits - Total Rock - CD05 (16)
Stan Bush / 100 Hits - Total Rock - CD05 (17)
Sugar / 100 Hits - Total Rock - CD05 (18)
The Gun / 100 Hits - Total Rock - CD05 (19)
Warrant / 100 Hits - Total Rock - CD05 (20)
––––––––––––––––––––––––––––––––––––––––

DR Peak RMS Duration Track
––––––––––––––––––––––––––––––––––––––––
DR8 -0.05 dB -9.67 dB 3:56 01-The Final Countdown
DR8 -0.05 dB -9.29 dB 4:07 06-Bad Luck
DR7 -0.05 dB -8.49 dB 3:29 07-Anarchy In The UK
DR6 -0.65 dB -8.67 dB 2:36 09-Up Around The Bend
DR7 -0.67 dB -9.24 dB 4:29 10-The Funeral Of Hearts
DR8 -0.05 dB -9.45 dB 3:32 11-Shot Of Poison
DR9 -0.05 dB -10.67 dB 3:58 12-Evil Twin
DR8 -0.05 dB -9.67 dB 3:59 05-Slash 'N' Burn
DR9 -0.05 dB -10.17 dB 3:19 14-The Ugly Truth
DR8 -0.05 dB -9.32 dB 4:51 15-The Rambler
DR6 -0.95 dB -8.30 dB 3:50 16-Living In The Rose
DR9 -0.05 dB -10.10 dB 3:32 17-Prove You Wrong (Fuzzbuster Mix)
DR6 -0.65 dB -8.12 dB 4:48 18-Cum On Feel The Noize
DR9 -0.05 dB -9.90 dB 4:22 19-Over The Edge
DR8 -0.05 dB -8.65 dB 4:35 03-Dogs Of War
DR5 -1.41 dB -7.50 dB 3:27 04-Hour 1
DR7 -0.05 dB -8.52 dB 3:56 08-The Touch
DR6 -1.30 dB -8.66 dB 5:30 13-Hoover Dam
DR7 -0.44 dB -9.28 dB 3:36 20-Race With The Devil
DR6 -0.05 dB -7.87 dB 4:03 02-Down Boys
––––––––––––––––––––––––––––––––––––––––

Number of tracks: 20
Official DR value: DR7

Samplerate: 44100 Hz
Channels: 2
Bits per sample: 16
Bitrate: 1017 kbps
Codec: FLAC
================================================================================

All thanks to PsPBuRnOuT

password: BlondStyle