VA - New York Noise: Dance Music From The New York Underground 1978-1982 (2003)

Posted By: BlondStyle
VA - New York Noise: Dance Music From The New York Underground 1978-1982 (2003)

Various Artists - New York Noise: Dance Music From The New York Underground 1978-1982 (2003)
Pop/Rock, No Wave, Leftfield | EAC Rip | FLAC, Img+CUE+LOG+Scans (PNG) | 71:08 Min | 503,09 Mb
Label: Soul Jazz Records (UK) | Cat.# SJR CD77 | Released: 2003-06-30 (1978-1982)
VA - New York Noise: Dance Music From The New York Underground 1978-1982 (2003)

New York Noise covers roughly the same stretch of time as In the Beginning There Was Rhythm, another compilation from the reliable Soul Jazz label. There aren't any gaping stylistic gulfs between the two discs, but the geographic focus here is completely different. In the Beginning features post-punk groups from England, while this disc highlights the genre-bending and cultural cross-breeding that was taking place in New York City, synchronously, during the late '70s and early '80s. The disc takes in most of the movements that took root in the city during the era, from no wave to mutant disco to hip-hop to art funk and a handful of points in between all without overlapping a great deal with other sets that were released just before and just after, like Downtown 81, Rough Trade Post Punk 01, N.Y. No Wave, and a swollen reissue of ZE's Mutant Disco. Mars' "Helen Fordsdale," plucked from the increasingly hard to find No New York, is emblematic of no wave, with lines of screeching guitars, furiously rolling toms, frantic bass, and unintelligible yelps. Lizzy Mercier Descloux's "Wawa," a sparse, brittle instrumental with spindly guitars, could be slipped onto either of Talking Heads' first two albums with little notice. Dinosaur L's "Clean on Your Bean No. 1" isn't nearly as wild as the dub-drenched Latin funk of François Kevorkian's "Go Bang" remix, despite having several of the same ingredients, but it's still pleasurably loose-limbed, like an out-there abstraction of Roy Ayers' best dancefloor-oriented moments. Soul Jazz has the tendency to pull out at least one obscurity that even graying hipsters have trouble remembering; in this case it's from the Bloods, who could be more easily placed in the company of ESG and Delta 5 if they had recorded more than one single. Compilations like this are necessary because they document bygone fragments of time and keep them alive for younger generations. Compilations like this are dangerous because they tend to fall in the hands of young bands who spend more time looking behind than ahead. Besides, who's to say that no wave and post-punk won't spawn their own analogs of traditional blues musicians if they haven't already? Still, New York Noise is another title demonstrating that the late '70s and early '80s were awesome for music.
~Review by Andy Kellman

VA - New York Noise: Dance Music From The New York Underground 1978-1982 (2003)

VA - New York Noise: Dance Music From The New York Underground 1978-1982 (2003)


Release of this CD: 2003, June, 30 [CD Soul Jazz Records (UK), Cat.# SJR CD77 / UPC: 5026328100777]
This Compilation ℗© 2003 Soul Jazz Records.
Made in the UK

Credits:

Compiled By – Stuart Baker
Compiled By, Design – Adrian Self
Design – Rent Boyd
Liner Notes – Patrick Coupar
Mastered By – Duncan Cowell, Peter Reilly
Photography By – Weasel Walter


Tracklist:

01. Liquid Liquid - Optimo - (02:43)
02. Konk - Baby Dee (06:03)
03. The Dance - Do Dada (03:08)
04. Material - Reduction (05:27)
05. Lizzy Mercier Descloux - Wawa (02:23)
06. DNA - 5:30 (01:09)
07. Rammellzee vs. K.Rob - Beat Bop (09:59)
08. James Chance - Contort Yourself (04:24)
09. Glenn Branca - Lesson No. 1 for Electric Guitar (08:17)
10. Bloods - Button Up (03:06)
11. Dinosaur L - Clean on Your Bean #1 (06:36)
12. Theoretical Girls - You Got Me (03:55)
13. Bush Tetras - Can't Be Funky (02:43)
14. Mars - Helen Fordsdale (02:31)
15. ESG - You Make No Sense (02:21)
16. Defunkt - Defunkt (06:24)

Exact Audio Copy V1.1 from 23. June 2015

EAC extraction logfile from 15. February 2016, 0:51

Various Artists / New York Noise: Dance Music From the New York Underground [1978-1982]

Used drive : Memorex 52MAXX 3252AJ1 Adapter: 1 ID: 1

Read mode : Secure
Utilize accurate stream : Yes
Defeat audio cache : Yes
Make use of C2 pointers : No

Read offset correction : 6
Overread into Lead-In and Lead-Out : No
Fill up missing offset samples with silence : Yes
Delete leading and trailing silent blocks : No
Null samples used in CRC calculations : Yes
Used interface : Native Win32 interface for Win NT & 2000

Used output format : User Defined Encoder
Selected bitrate : 1024 kBit/s
Quality : High
Add ID3 tag : No
Command line compressor : C:\Program Files (x86)\Exact Audio Copy\Flac\flac.exe
Additional command line options : %ishigh%-V -p -l 12 -b 4096 -m -e -r 8%ishigh%%islow%-5%islow% –replay-gain -T "ARTIST=%artist%" -T "ALBUM=%albumtitle%" -T "TITLE=%title%" -T "DATE=%year%" -T "TRACKNUMBER=%tracknr%" -T "GENRE=%genre%" -T "ENSEMBLE=%albuminterpret%" -T "ALBUMARTIST=%albumartist%" -T "COMPOSER=%albumcomposer%" -T "DISCNUMBER=%cdnumber%" -T "TOTALDISCS=%totalcds%" -T "TOTALTRACKS=%numtracks%" -T "SOURCEMEDIA=CD" -T "COMMENT=%comment%" %hascover%-T "PICTURE=%coverfile%"%hascover% %source%


TOC of the extracted CD

Track | Start | Length | Start sector | End sector
––––––––––––––––––––––––––––-
1 | 0:00.00 | 2:42.48 | 0 | 12197
2 | 2:42.48 | 6:02.61 | 12198 | 39408
3 | 8:45.34 | 3:08.23 | 39409 | 53531
4 | 11:53.57 | 5:26.67 | 53532 | 78048
5 | 17:20.49 | 2:22.74 | 78049 | 88772
6 | 19:43.48 | 1:09.14 | 88773 | 93961
7 | 20:52.62 | 9:58.64 | 93962 | 138875
8 | 30:51.51 | 4:23.60 | 138876 | 158660
9 | 35:15.36 | 8:16.49 | 158661 | 195909
10 | 43:32.10 | 3:06.10 | 195910 | 209869
11 | 46:38.20 | 6:35.66 | 209870 | 239560
12 | 53:14.11 | 3:54.62 | 239561 | 257172
13 | 57:08.73 | 2:43.28 | 257173 | 269425
14 | 59:52.26 | 2:30.43 | 269426 | 280718
15 | 62:22.69 | 2:20.45 | 280719 | 291263
16 | 64:43.39 | 6:24.07 | 291264 | 320070


Range status and errors

Selected range

Filename C:\Users\M@ce\Music\Archives\Rips\Various Artists - New York Noise- Dance Music From the New York Underground [1978-1982].wav

Peak level 99.9 %
Extraction speed 9.9 X
Range quality 100.0 %
Test CRC 5009EE21
Copy CRC 5009EE21
Copy OK

No errors occurred


AccurateRip summary

Track 1 accurately ripped (confidence 14) [C009A105] (AR v2)
Track 2 accurately ripped (confidence 14) [2AA53EDD] (AR v2)
Track 3 accurately ripped (confidence 14) [66A9B086] (AR v2)
Track 4 accurately ripped (confidence 14) [2BDBC79F] (AR v2)
Track 5 accurately ripped (confidence 14) [E2D7C484] (AR v2)
Track 6 accurately ripped (confidence 14) [C81321C9] (AR v2)
Track 7 accurately ripped (confidence 14) [316F2E67] (AR v2)
Track 8 accurately ripped (confidence 14) [C80FE11C] (AR v2)
Track 9 accurately ripped (confidence 14) [29373DBE] (AR v2)
Track 10 accurately ripped (confidence 14) [E7F680F1] (AR v2)
Track 11 accurately ripped (confidence 12) [7BB70E9A] (AR v2)
Track 12 accurately ripped (confidence 12) [7E865F8D] (AR v2)
Track 13 accurately ripped (confidence 14) [56E0BBA0] (AR v2)
Track 14 accurately ripped (confidence 14) [93DE6BCB] (AR v2)
Track 15 accurately ripped (confidence 13) [64E300D8] (AR v2)
Track 16 accurately ripped (confidence 14) [11209428] (AR v2)

All tracks accurately ripped

End of status report

–– CUETools DB Plugin V2.1.6

[CTDB TOCID: fFVrpBP_XlSr1W5gMCy5fbNNJYM-] found
Submit result: fFVrpBP_XlSr1W5gMCy5fbNNJYM- has been confirmed
Track | CTDB Status
1 | (13/13) Accurately ripped
2 | (13/13) Accurately ripped
3 | (13/13) Accurately ripped
4 | (13/13) Accurately ripped
5 | (13/13) Accurately ripped
6 | (13/13) Accurately ripped
7 | (13/13) Accurately ripped
8 | (13/13) Accurately ripped
9 | (13/13) Accurately ripped
10 | (13/13) Accurately ripped
11 | (13/13) Accurately ripped
12 | (13/13) Accurately ripped
13 | (13/13) Accurately ripped
14 | (13/13) Accurately ripped
15 | (13/13) Accurately ripped
16 | (13/13) Accurately ripped


==== Log checksum 10C8BBA94895287E4C2065176D6A3EE189AD44CEB4712FF68CFC126D3AEB283D ====

––––––––––––––––––––––––––––––––––––––––
Analyzed: Bush Tetras / New York Noise: Dance Music From the New York Underground [1978-1982] (1)
Defunkt / New York Noise: Dance Music From the New York Underground [1978-1982] (2)
––––––––––––––––––––––––––––––––––––––––

DR Peak RMS Duration Track
––––––––––––––––––––––––––––––––––––––––
DR11 -0.25 dB -12.80 dB 2:43 13-Can't Be Funky
DR12 -0.25 dB -13.81 dB 6:24 16-Defunkt
––––––––––––––––––––––––––––––––––––––––

Number of tracks: 2
Official DR value: DR11

Samplerate: 44100 Hz
Channels: 2
Bits per sample: 16
Bitrate: 889 kbps
Codec: FLAC
================================================================================

––––––––––––––––––––––––––––––––––––––––
Statistics for: 11-Clean on Your Bean #1
Number of samples: 17458308
Duration: 6:36
––––––––––––––––––––––––––––––––––––––––

Left Right

Peak Value: -0.73 dB –- -0.23 dB
Avg RMS: -14.51 dB –- -10.29 dB
DR channel: 12.47 dB –- 8.70 dB
––––––––––––––––––––––––––––––––––––––––

Official DR Value: DR11

Samplerate: 44100 Hz
Channels: 2
Bits per sample: 16
Bitrate: 889 kbps
Codec: FLAC
================================================================================
––––––––––––––––––––––––––––––––––––––––
Analyzed: DNA / New York Noise: Dance Music From the New York Underground [1978-1982] (1)
ESG / New York Noise: Dance Music From the New York Underground [1978-1982] (2)
––––––––––––––––––––––––––––––––––––––––

DR Peak RMS Duration Track
––––––––––––––––––––––––––––––––––––––––
DR7 -0.25 dB -9.37 dB 1:09 06-5:30
DR12 -0.25 dB -13.99 dB 2:21 15-You Make No Sense
––––––––––––––––––––––––––––––––––––––––

Number of tracks: 2
Official DR value: DR10

Samplerate: 44100 Hz
Channels: 2
Bits per sample: 16
Bitrate: 889 kbps
Codec: FLAC
================================================================================

––––––––––––––––––––––––––––––––––––––––
Statistics for: 09-Lesson No. 1
Number of samples: 21902412
Duration: 8:17
––––––––––––––––––––––––––––––––––––––––

Left Right

Peak Value: -0.25 dB –- -0.25 dB
Avg RMS: -12.01 dB –- -10.36 dB
DR channel: 10.12 dB –- 8.31 dB
––––––––––––––––––––––––––––––––––––––––

Official DR Value: DR9

Samplerate: 44100 Hz
Channels: 2
Bits per sample: 16
Bitrate: 889 kbps
Codec: FLAC
================================================================================
––––––––––––––––––––––––––––––––––––––––
Statistics for: 08-Contort Yourself
Number of samples: 11633580
Duration: 4:24
––––––––––––––––––––––––––––––––––––––––

Left Right

Peak Value: -0.56 dB –- -0.25 dB
Avg RMS: -11.64 dB –- -10.31 dB
DR channel: 9.89 dB –- 8.95 dB
––––––––––––––––––––––––––––––––––––––––

Official DR Value: DR9

Samplerate: 44100 Hz
Channels: 2
Bits per sample: 16
Bitrate: 889 kbps
Codec: FLAC
================================================================================
––––––––––––––––––––––––––––––––––––––––
Statistics for: 02-Baby Dee
Number of samples: 16000068
Duration: 6:03
––––––––––––––––––––––––––––––––––––––––

Left Right

Peak Value: -1.11 dB –- -0.31 dB
Avg RMS: -10.98 dB –- -9.62 dB
DR channel: 8.34 dB –- 7.80 dB
––––––––––––––––––––––––––––––––––––––––

Official DR Value: DR8

Samplerate: 44100 Hz
Channels: 2
Bits per sample: 16
Bitrate: 889 kbps
Codec: FLAC
================================================================================
––––––––––––––––––––––––––––––––––––––––
Analyzed: Liquid Liquid / New York Noise: Dance Music From the New York Underground [1978-1982] (1)
Lizzy Mercier Descloux / New York Noise: Dance Music From the New York Underground [1978-1982] (2)
Mars / New York Noise: Dance Music From the New York Underground [1978-1982] (3)
––––––––––––––––––––––––––––––––––––––––

DR Peak RMS Duration Track
––––––––––––––––––––––––––––––––––––––––
DR10 -0.99 dB -11.87 dB 2:43 01-Optimo
DR12 -0.25 dB -12.76 dB 2:23 05-Wawa
DR9 -0.25 dB -10.88 dB 2:31 14-Helen Fordsdale
––––––––––––––––––––––––––––––––––––––––

Number of tracks: 3
Official DR value: DR10

Samplerate: 44100 Hz
Channels: 2
Bits per sample: 16
Bitrate: 889 kbps
Codec: FLAC
================================================================================

––––––––––––––––––––––––––––––––––––––––
Analyzed: Material / New York Noise: Dance Music From the New York Underground [1978-1982] (1)
Rammelzee / New York Noise: Dance Music From the New York Underground [1978-1982] (2)
The Bloods / New York Noise: Dance Music From the New York Underground [1978-1982] (3)
––––––––––––––––––––––––––––––––––––––––

DR Peak RMS Duration Track
––––––––––––––––––––––––––––––––––––––––
DR11 -0.49 dB -13.21 dB 5:27 04-Reduction
DR10 -0.72 dB -12.26 dB 9:59 07-Beat Bop (Rammelzee vs. K.Rob)
DR11 -0.26 dB -12.64 dB 3:06 10-Button Up
––––––––––––––––––––––––––––––––––––––––

Number of tracks: 3
Official DR value: DR11

Samplerate: 44100 Hz
Channels: 2
Bits per sample: 16
Bitrate: 889 kbps
Codec: FLAC
================================================================================

––––––––––––––––––––––––––––––––––––––––
Analyzed: The Dance / New York Noise: Dance Music From the New York Underground [1978-1982] (1)
Theoretical Girls / New York Noise: Dance Music From the New York Underground [1978-1982] (2)
––––––––––––––––––––––––––––––––––––––––

DR Peak RMS Duration Track
––––––––––––––––––––––––––––––––––––––––
DR10 0.00 dB -11.49 dB 3:08 03-Do Dada
DR10 -0.50 dB -11.15 dB 3:55 12-You Got Me
––––––––––––––––––––––––––––––––––––––––

Number of tracks: 2
Official DR value: DR10

Samplerate: 44100 Hz
Channels: 2
Bits per sample: 16
Bitrate: 889 kbps
Codec: FLAC
================================================================================

Thanks to M@ce

password: BlondStyle