Subcategories

Various Artists - Cool + Hot (1999)

Posted By: technick
Various Artists - Cool + Hot (1999)

Various Artists - Cool + Hot (1999)
EAC: flac (tracks) + cue + log | RAR, 3 %, 394,75 MB
mp3 320 kbps | RAR, 3 %, 152,44 MB | Scans | RAR, 3 %, 22,02 MB
Label: Minos-EMI S.A. | Cat №: 7243 4 99706 2 5 | (DepositFiles+Uploaded)

A Greek-only premium compilation from the catalogue of Blue Note Records, released with the music magazine "Jazz & Tzaz" (Issue 72).

Exact Audio Copy V0.99 prebeta 5 from 4. May 2009

EAC extraction logfile from 12. April 2010, 14:21

Various / Cool & Hot (Pacific Jazz)

Used drive : HL-DT-STDVD-RAM GH22NP20 Adapter: 1 ID: 1

Read mode : Secure
Utilize accurate stream : Yes
Defeat audio cache : Yes
Make use of C2 pointers : No

Read offset correction : 102
Overread into Lead-In and Lead-Out : No
Fill up missing offset samples with silence : Yes
Delete leading and trailing silent blocks : No
Null samples used in CRC calculations : Yes
Used interface : Installed external ASPI interface
Gap handling : Appended to previous track

Used output format : User Defined Encoder
Selected bitrate : 1024 kBit/s
Quality : High
Add ID3 tag : No
Command line compressor : C:\Program Files\Exact Audio Copy\FLAC\FLAC.EXE
Additional command line options : -3 -V -T "ARTIST=%a" -T "TITLE=%t" -T "ALBUM=%g" -T "DATE=%y" -T "TRACKNUMBER=%n" -T "GENRE=%m" -T "COMMENT=%e" %s -o %d
Use compression offset : 48


TOC of the extracted CD

Track | Start | Length | Start sector | End sector
––––––––––––––––––––––––––––-
1 | 0:00.00 | 7:22.02 | 0 | 33151
2 | 7:22.02 | 6:18.10 | 33152 | 61511
3 | 13:40.12 | 6:45.45 | 61512 | 91931
4 | 20:25.57 | 8:48.38 | 91932 | 131569
5 | 29:14.20 | 5:09.57 | 131570 | 154801
6 | 34:24.02 | 6:06.65 | 154802 | 182316
7 | 40:30.67 | 7:24.08 | 182317 | 215624
8 | 47:55.00 | 4:21.57 | 215625 | 235256
9 | 52:16.57 | 8:06.45 | 235257 | 271751
10 | 60:23.27 | 5:15.63 | 271752 | 295439


Track 1

Filename C:\New Folder\01. Jack Sheldon - It's Only A Paper Moon.wav

Pre-gap length 0:00:02.00

Peak level 94.5 %
Track quality 100.0 %
Copy CRC 05913493
Accurately ripped (confidence 1) [59949F68]
Copy OK

Track 2

Filename C:\New Folder\02. Bud Shank & Bob Cooper - Blowin' Country.wav

Pre-gap length 0:00:03.22

Peak level 92.7 %
Track quality 100.0 %
Copy CRC 1720B3E0
Accurately ripped (confidence 1) [B8916A6B]
Copy OK

Track 3

Filename C:\New Folder\03. Chet Baker & Art Pepper - Picture Of Health.wav

Pre-gap length 0:00:02.10

Peak level 94.2 %
Track quality 100.0 %
Copy CRC A34358C0
Accurately ripped (confidence 1) [70FC3CEA]
Copy OK

Track 4

Filename C:\New Folder\04. Joe Pass - Joy Spring.wav

Pre-gap length 0:00:02.25

Peak level 97.1 %
Track quality 100.0 %
Copy CRC 68DE2620
Accurately ripped (confidence 1) [971C6919]
Copy OK

Track 5

Filename C:\New Folder\05. Gerry Mulligan - Venus De Milo.wav

Pre-gap length 0:00:02.38

Peak level 85.4 %
Track quality 100.0 %
Copy CRC E7DE23A6
Accurately ripped (confidence 1) [73B60EDF]
Copy OK

Track 6

Filename C:\New Folder\06. Bob Brookmeyer - Honeysuckle Rose.wav

Pre-gap length 0:00:02.37

Peak level 89.1 %
Track quality 100.0 %
Copy CRC 26FEC76B
Accurately ripped (confidence 1) [383FE1FA]
Copy OK

Track 7

Filename C:\New Folder\07. Bud Shank & Bill Perkins - Blues In The Night.wav

Pre-gap length 0:00:02.25

Peak level 97.9 %
Track quality 100.0 %
Copy CRC F8D13D20
Accurately ripped (confidence 1) [BC44C788]
Copy OK

Track 8

Filename C:\New Folder\08. Booker Ervin - Harlem Nocturne.wav

Pre-gap length 0:00:02.30

Peak level 94.0 %
Track quality 100.0 %
Copy CRC 04BE28EB
Accurately ripped (confidence 1) [3F2C0DAF]
Copy OK

Track 9

Filename C:\New Folder\09. Gil Evans - Django.wav

Pre-gap length 0:00:02.02

Peak level 92.9 %
Track quality 100.0 %
Copy CRC 43ECB1D5
Accurately ripped (confidence 1) [92E09EDF]
Copy OK

Track 10

Filename C:\New Folder\10. Gerry Mulligan - My Funny Valentine.wav

Pre-gap length 0:00:01.57

Peak level 95.3 %
Track quality 100.0 %
Copy CRC F1CA5388
Accurately ripped (confidence 1) [27F33993]
Copy OK


All tracks accurately ripped

No errors occurred

End of status report

Tracklist:
01. Jack Sheldon / It's Only a Paper Moon [07:22]
02. Bud Shank & Bob Cooper / Blowin' Country [06:18]
03. Chet Baker & Art Pepper / Picture Of Health [06:45]
04. Joe Pass / Joy Spring [08:48]
05. Gerry Mulligan / Venus De Milo [05:09]
06. Bob Brookmeyer / Honeysuckle Rose [06:06]
07. Bud Shank & Bill Perkins / Blues In The Night [07:24]
08. Booker Ervin / Harlem Nocturne [04:21]
09. Gil Evans / Django [08:06]
10. Gerry Mulligan / My Funny Valentine [05:15]
–––––––––––––
Total time [65:20]
Various Artists - Cool + Hot (1999)
Various Artists - Cool + Hot (1999)

No mirrors, please!
Not my rip! All Thanks to alekow!
Welcome to My Blog!
Uploaded: Part1, Part2, mp3, scans.
DepositFiles: flac, mp3, scans.
pass: kermith