Subcategories

Stan Getz, Astrud Gilberto, Sergio Mendes & others - Bossa Nova [Recorded 1962-1974] (2006) (Repost)

Posted By: gribovar
Stan Getz, Astrud Gilberto, Sergio Mendes & others - Bossa Nova [Recorded 1962-1974] (2006) (Repost)

Stan Getz, Astrud Gilberto, Sergio Mendes & others - Bossa Nova [Recorded 1962-1974] (2006)
EAC Rip | FLAC (tracks+.cue+log) - 384 MB | MP3 CBR 320 kbps (LAME 3.93) - 158 MB | Covers (6 MB) included
Genre: Jazz, Bossa Nova | RAR 3% Rec. | Label: Universal Music (4605026008168)

The Jazz Club series is an attractive addition to the Verve catalogue. With it's modern design and popular choice of repertoire, the Jazz Club is not only opened for Jazz fans, but for everyone that loves good music.
Tracklist:
01. Tamba Trio - Mas Que Nada
02. Sergio Mendes Trio - the Girl from Ipanema (Garota de Ipanema)
03. Klaus Doldinger Quartett - Copacabana
04. Sylvia Telles - Discussao
05. Baden Powell - Tristeza
06. Joe Pass - El Gento
07. Edu Lobo - Upa, Neguinho
08. Oscar Peterson Trio - Triste
09. Art Van Damme - Wave
10. Ella Fitzgerald - Useless Landscape (Inutil Paisagem)
11. J.T. Meirelles - O Barquinho
12. Coleman Hawkins - Desafinado
13. Astrud Gilberto - Agua de Beber
14. Luiz Bonfa - Bossa Nova Cha Cha
15. Bob Brookmeyer - A Felicidade
16. Elsie Bianchi - Meditation
17. Stan Getz & Laurindo Almeida - Once Again (Outra Vez)
18. Antonio Carlos Jobim - Chega de Saudade

Total time: 01:04:41

Exact Audio Copy V0.99 prebeta 5 from 4. May 2009

Отчёт EAC об извлечении, выполненном 5. июня 2011, 1:16

Various / Bossa Nova

Дисковод: Optiarc DVD RW AD-7190A Adapter: 0 ID: 0

Режим чтения : Достоверность
Использование точного потока : Да
Отключение кэша аудио : Да
Использование указателей C2 : Нет

Коррекция смещения при чтении : 6
Способность читать области Lead-in и Lead-out : Нет
Заполнение пропущенных сэмплов тишиной : Да
Удаление блоков с тишиной в начале и конце : Нет
При вычислениях CRC использовались нулевые сэмплы : Да
Интерфейс : Встроенный Win32-интерфейс для Win NT/2000
Обработка зазоров : Добавлено к предыдущему треку

Выходной формат : Пользовательский кодировщик
Выбранный битрейт : 128 kBit/s
Качество : Высокий
Добавление ID3-тэга : Нет
Утилита сжатия : E:\Аудио\Exact Audio Copy\Flac\flac.exe
Дополнительные параметры : -8 -V -T "ARTIST=%a" -T "TITLE=%t" -T "ALBUM=%g" -T "DATE=%y" -T "TRACKNUMBER=%n" -T "GENRE=%m" -T "COMMENT=EAC FLAC -8" %s


TOC извлечённого CD

Трек | Старт | Длительность | Начальный сектор | Конечный сектор
––––––––––––––––––––––––––––––––––-
1 | 0:00.00 | 2:45.62 | 0 | 12436
2 | 2:45.62 | 2:50.42 | 12437 | 25228
3 | 5:36.29 | 2:08.36 | 25229 | 34864
4 | 7:44.65 | 1:55.51 | 34865 | 43540
5 | 9:40.41 | 3:20.30 | 43541 | 58570
6 | 13:00.71 | 4:03.32 | 58571 | 76827
7 | 17:04.28 | 2:13.57 | 76828 | 86859
8 | 19:18.10 | 5:24.61 | 86860 | 111220
9 | 24:42.71 | 2:54.64 | 111221 | 124334
10 | 27:37.60 | 5:11.66 | 124335 | 147725
11 | 32:49.51 | 2:13.07 | 147726 | 157707
12 | 35:02.58 | 5:48.35 | 157708 | 183842
13 | 40:51.18 | 2:19.64 | 183843 | 194331
14 | 43:11.07 | 3:23.48 | 194332 | 209604
15 | 46:34.55 | 3:16.20 | 209605 | 224324
16 | 49:51.00 | 3:48.21 | 224325 | 241445
17 | 53:39.21 | 6:42.23 | 241446 | 271618
18 | 60:21.44 | 4:19.38 | 271619 | 291081


Трек 1

Имя файла D:\Temp\Bossa Nova-2011\01. Tamba Trio – Mas Que Nada.wav

Длина предзазора 0:00:02.00

Пиковый уровень 74.7 %
Качество трека 100.0 %
CRC теста 2F3FA07B
CRC копии 2F3FA07B
Точное извлечение (достоверность 40) [A09C9EEF]
Копирование… OK

Трек 2

Имя файла D:\Temp\Bossa Nova-2011\02. Sergio Mendes Trio – The Girl From Ipanema (Garota de Ipanema).wav

Длина предзазора 0:00:00.76

Пиковый уровень 98.5 %
Качество трека 100.0 %
CRC теста A0F6A8E0
CRC копии A0F6A8E0
Точное извлечение (достоверность 40) [6236AFA5]
Копирование… OK

Трек 3

Имя файла D:\Temp\Bossa Nova-2011\03. Klaus Doldinger Quartet – Copacabana.wav

Длина предзазора 0:00:01.46

Пиковый уровень 79.6 %
Качество трека 99.9 %
CRC теста 6AC9476F
CRC копии 6AC9476F
Точное извлечение (достоверность 40) [FBE62704]
Копирование… OK

Трек 4

Имя файла D:\Temp\Bossa Nova-2011\04. Sylvia Telles – Discussao.wav

Длина предзазора 0:00:01.97

Пиковый уровень 77.9 %
Качество трека 100.0 %
CRC теста DAEA304B
CRC копии DAEA304B
Точное извлечение (достоверность 40) [2256DE21]
Копирование… OK

Трек 5

Имя файла D:\Temp\Bossa Nova-2011\05. Baden Powell – Tristeza.wav

Длина предзазора 0:00:01.65

Пиковый уровень 74.4 %
Качество трека 100.0 %
CRC теста 37B258F6
CRC копии 37B258F6
Точное извлечение (достоверность 40) [B463FB8E]
Копирование… OK

Трек 6

Имя файла D:\Temp\Bossa Nova-2011\06. Joe Pass – El Gento.wav

Длина предзазора 0:00:01.37

Пиковый уровень 84.1 %
Качество трека 99.9 %
CRC теста 8F00C228
CRC копии 8F00C228
Точное извлечение (достоверность 39) [9A8291D6]
Копирование… OK

Трек 7

Имя файла D:\Temp\Bossa Nova-2011\07. Ebu Lobo – Upa, Neguinho.wav

Длина предзазора 0:00:02.66

Пиковый уровень 74.5 %
Качество трека 100.0 %
CRC теста 93F9A82F
CRC копии 93F9A82F
Точное извлечение (достоверность 40) [C488D67C]
Копирование… OK

Трек 8

Имя файла D:\Temp\Bossa Nova-2011\08. Oscar Peterson Trio – Triste.wav

Длина предзазора 0:00:01.66

Пиковый уровень 81.0 %
Качество трека 100.0 %
CRC теста 9ECC88C3
CRC копии 9ECC88C3
Точное извлечение (достоверность 40) [67EEFDBF]
Копирование… OK

Трек 9

Имя файла D:\Temp\Bossa Nova-2011\09. Art Van Damme – Wave.wav

Длина предзазора 0:00:01.48

Пиковый уровень 86.0 %
Качество трека 100.0 %
CRC теста E57BC9F6
CRC копии E57BC9F6
Точное извлечение (достоверность 40) [5F33E248]
Копирование… OK

Трек 10

Имя файла D:\Temp\Bossa Nova-2011\10. Ella Fitzgerald – Useless Landscape (Inъtil paisagem).wav

Длина предзазора 0:00:02.12

Пиковый уровень 98.9 %
Качество трека 100.0 %
CRC теста E9495F23
CRC копии E9495F23
Точное извлечение (достоверность 39) [5A2C0FC0]
Копирование… OK

Трек 11

Имя файла D:\Temp\Bossa Nova-2011\11. J. T. Meirelles – O Barquinho.wav

Длина предзазора 0:00:02.22

Пиковый уровень 99.9 %
Качество трека 100.0 %
CRC теста 964132E8
CRC копии 964132E8
Точное извлечение (достоверность 40) [FABEACDD]
Копирование… OK

Трек 12

Имя файла D:\Temp\Bossa Nova-2011\12. Coleman Hawkins – Desafinado.wav

Длина предзазора 0:00:01.62

Пиковый уровень 82.0 %
Качество трека 100.0 %
CRC теста D6C7B407
CRC копии D6C7B407
Точное извлечение (достоверность 40) [146B2710]
Копирование… OK

Трек 13

Имя файла D:\Temp\Bossa Nova-2011\13. Astrud Gilberto – Бgua de Beber.wav

Длина предзазора 0:00:01.66

Пиковый уровень 92.0 %
Качество трека 100.0 %
CRC теста 1F2AA803
CRC копии 1F2AA803
Точное извлечение (достоверность 40) [E02CC79F]
Копирование… OK

Трек 14

Имя файла D:\Temp\Bossa Nova-2011\14. Luiz Bonfa – Bossa Nova Cha Cha.wav

Длина предзазора 0:00:01.88

Пиковый уровень 84.7 %
Качество трека 100.0 %
CRC теста E05D8E92
CRC копии E05D8E92
Точное извлечение (достоверность 39) [272607BE]
Копирование… OK

Трек 15

Имя файла D:\Temp\Bossa Nova-2011\15. Bob Brookmeyer – A Felicidade.wav

Длина предзазора 0:00:02.62

Пиковый уровень 87.0 %
Качество трека 100.0 %
CRC теста 5152D541
CRC копии 5152D541
Точное извлечение (достоверность 40) [04A7A572]
Копирование… OK

Трек 16

Имя файла D:\Temp\Bossa Nova-2011\16. Elsie Bianchi – Meditation.wav

Длина предзазора 0:00:01.64

Пиковый уровень 92.7 %
Качество трека 100.0 %
CRC теста FB91D6D3
CRC копии FB91D6D3
Точное извлечение (достоверность 40) [25D2852E]
Копирование… OK

Трек 17

Имя файла D:\Temp\Bossa Nova-2011\17. Stan Getz & Laurindo Almeida – Once Again (Outra vez).wav

Длина предзазора 0:00:01.53

Пиковый уровень 96.1 %
Качество трека 100.0 %
CRC теста AF6C4CC4
CRC копии AF6C4CC4
Точное извлечение (достоверность 39) [9E62B33B]
Копирование… OK

Трек 18

Имя файла D:\Temp\Bossa Nova-2011\18. Antonio Carlos Jobim – Chega de Saudade.wav

Длина предзазора 0:00:02.24

Пиковый уровень 89.1 %
Качество трека 100.0 %
CRC теста 4824B881
CRC копии 4824B881
Точное извлечение (достоверность 38) [4C5EF4B1]
Копирование… OK


Все треки извлечены точно

Ошибок не произошло

Конец отчёта

[CUETools log; Date: 01.11.2018 1:06:59; Version: 2.1.4]
[CTDB TOCID: uxUlrca7yROjNkACHkpFLXY2Qy4-] found.
Track | CTDB Status
1 | (171/172) Accurately ripped
2 | (171/172) Accurately ripped
3 | (171/172) Accurately ripped
4 | (171/172) Accurately ripped
5 | (171/172) Accurately ripped
6 | (168/172) Accurately ripped
7 | (171/172) Accurately ripped
8 | (171/172) Accurately ripped
9 | (171/172) Accurately ripped
10 | (168/172) Accurately ripped
11 | (171/172) Accurately ripped
12 | (171/172) Accurately ripped
13 | (171/172) Accurately ripped
14 | (171/172) Accurately ripped
15 | (170/172) Accurately ripped
16 | (170/172) Accurately ripped
17 | (169/172) Accurately ripped
18 | (169/172) Accurately ripped
[AccurateRip ID: 00261455-02096ba6-050f2912] found.
Track [ CRC | V2 ] Status
01 [a09c9eef|27b8946d] (049+060/109) Accurately ripped
02 [6236afa5|78ff97af] (049+061/110) Accurately ripped
03 [fbe62704|3334f0e5] (049+061/110) Accurately ripped
04 [2256de21|5f9522ad] (049+061/110) Accurately ripped
05 [b463fb8e|1b838699] (049+061/110) Accurately ripped
06 [9a8291d6|71fdfcce] (048+061/109) Accurately ripped
07 [c488d67c|57133720] (049+061/110) Accurately ripped
08 [67eefdbf|d0725b62] (049+061/110) Accurately ripped
09 [5f33e248|b5843f77] (049+061/110) Accurately ripped
10 [5a2c0fc0|030e7b2f] (048+061/109) Accurately ripped
11 [fabeacdd|87ba3677] (049+061/110) Accurately ripped
12 [146b2710|e75136ef] (049+061/110) Accurately ripped
13 [e02cc79f|0e383716] (049+061/110) Accurately ripped
14 [272607be|0cad8854] (048+061/109) Accurately ripped
15 [04a7a572|351da260] (049+061/110) Accurately ripped
16 [25d2852e|00547cd3] (049+061/110) Accurately ripped
17 [9e62b33b|7b2aa314] (048+061/109) Accurately ripped
18 [4c5ef4b1|10ad041e] (047+059/106) Accurately ripped

Track Peak [ CRC32 ] [W/O NULL] [ LOG ]
– 99,9 [BF22A404] [70888123]
01 74,7 [2F3FA07B] [50007755] CRC32
02 98,5 [A0F6A8E0] [0D0F0AA5] CRC32
03 79,6 [6AC9476F] [21152755] CRC32
04 77,9 [DAEA304B] [9EB7B201] CRC32
05 74,4 [37B258F6] [15FB2F9B] CRC32
06 84,1 [8F00C228] [1DDD6006] CRC32
07 74,5 [93F9A82F] [8DEB1CC4] CRC32
08 81,0 [9ECC88C3] [55DB3E9E] CRC32
09 86,0 [E57BC9F6] [C39F3B70] CRC32
10 98,9 [E9495F23] [AF14944A] CRC32
11 99,9 [964132E8] [D6265B88] CRC32
12 82,0 [D6C7B407] [5242604D] CRC32
13 92,0 [1F2AA803] [5A0C1885] CRC32
14 84,7 [E05D8E92] [F9883614] CRC32
15 87,0 [5152D541] [DE1DCE15] CRC32
16 92,7 [FB91D6D3] [382490BA] CRC32
17 96,1 [AF6C4CC4] [EB863090] CRC32
18 89,1 [4824B881] [626F1D98] CRC32

Thanks to pti4ka