Subcategories

Various – Ethereal Magic Volume 2 – Deep Laid-Back Soulful Grooves (2016)

Posted By: JET 1
Various – Ethereal Magic Volume 2 – Deep Laid-Back Soulful Grooves (2016)

Various – Ethereal Magic Volume 2 – Deep Laid-Back Soulful Grooves (2016)
EAC Rip | FLAC (Tracks) +CUE, LOG | 656 MB | Covers Included
Genre: Soul | Label: Expansion Records | Catalog Number: EXCDP 68

Ethereal Magic is a concept and compilation by one of the UK’s most highly regarded and longest serving DJ and member of the UK soul music community, Tony Monson. Tony started DJ-ing on ZBM Radio in Bermuda from 1963-1967; then briefly was with offshore pirate Britain Radio 355 in 1967. In 1971-76, co-owner of Sound Unlimited in Brighton, which had the best selection of soul 7″ in the South outside London; then had his own shop at Worlds End, London, called Disc Empire from 1978-1981. From1981-1989; then more recently, from late 1998 onwards – he has exclusively involved with Solar Radio – first on analogue, and later on Sky and the net. Along the way he created a trademark feature of his radio show, ‘Ethereal Magic’, a time to take it easy, relax and indulge in some of the most breataking mellow moments, this first CD collection offering moments both exclusive and for the first time on CD alongside tracks by classic artists.

Exact Audio Copy V1.2 from 12. August 2016

EAC extraction logfile from 3. December 2016, 19:16

- / Ethereal Magic Volume 2

Used drive : GENERIC CDRCB05 Adapter: 1 ID: 1

Read mode : Secure
Utilize accurate stream : Yes
Defeat audio cache : Yes
Make use of C2 pointers : No

Read offset correction : 102
Overread into Lead-In and Lead-Out : No
Fill up missing offset samples with silence : Yes
Delete leading and trailing silent blocks : No
Null samples used in CRC calculations : Yes
Used interface : Native Win32 interface for Win NT & 2000
Gap handling : Appended to previous track

Used output format : User Defined Encoder
Selected bitrate : 1024 kBit/s
Quality : High
Add ID3 tag : No
Command line compressor : C:\Program Files (x86)\Exact Audio Copy\Flac\flac.exe
Additional command line options : -T "artist=%artist%" -T "title=%title%" -T "album=%albumtitle%" -T "date=%year%" -T "tracknumber=%tracknr%" -T "genre=%genre%" -5 %source%


TOC of the extracted CD

Track | Start | Length | Start sector | End sector
––––––––––––––––––––––––––––-
1 | 0:00.00 | 5:43.08 | 0 | 25732
2 | 5:43.08 | 5:03.38 | 25733 | 48495
3 | 10:46.46 | 5:40.60 | 48496 | 74055
4 | 16:27.31 | 4:27.31 | 74056 | 94111
5 | 20:54.62 | 5:52.23 | 94112 | 120534
6 | 26:47.10 | 3:21.06 | 120535 | 135615
7 | 30:08.16 | 4:17.08 | 135616 | 154898
8 | 34:25.24 | 3:37.17 | 154899 | 171190
9 | 38:02.41 | 9:09.65 | 171191 | 212430
10 | 47:12.31 | 6:18.03 | 212431 | 240783
11 | 53:30.34 | 4:35.72 | 240784 | 261480
12 | 58:06.31 | 6:07.46 | 261481 | 289051
13 | 64:14.02 | 5:02.50 | 289052 | 311751
14 | 69:16.52 | 4:29.48 | 311752 | 331974
15 | 73:46.25 | 6:06.30 | 331975 | 359454


Track 1

Filename K:\POST\Ethereal Magic Volume 2 (2016)\01 Under The Moon And Over The Sky.wav

Pre-gap length 0:00:02.00

Peak level 97.0 %
Extraction speed 2.6 X
Track quality 100.0 %
Test CRC 97511EEE
Copy CRC 97511EEE
Track not present in AccurateRip database
Copy OK

Track 2

Filename K:\POST\Ethereal Magic Volume 2 (2016)\02 Face In The Reflection.wav

Pre-gap length 0:00:00.62

Peak level 100.0 %
Extraction speed 2.8 X
Track quality 100.0 %
Test CRC AD0290BF
Copy CRC AD0290BF
Track not present in AccurateRip database
Copy OK

Track 3

Filename K:\POST\Ethereal Magic Volume 2 (2016)\03 Living So Fast.wav

Pre-gap length 0:00:00.49

Peak level 98.8 %
Extraction speed 3.1 X
Track quality 100.0 %
Test CRC 2DD9E829
Copy CRC 2DD9E829
Track not present in AccurateRip database
Copy OK

Track 4

Filename K:\POST\Ethereal Magic Volume 2 (2016)\04 Mississippi Delta Blues.wav

Pre-gap length 0:00:00.53

Peak level 97.0 %
Extraction speed 3.3 X
Track quality 100.0 %
Test CRC B95849A7
Copy CRC B95849A7
Track not present in AccurateRip database
Copy OK

Track 5

Filename K:\POST\Ethereal Magic Volume 2 (2016)\05 It’s Like Air.wav

Pre-gap length 0:00:00.57

Peak level 98.8 %
Extraction speed 3.6 X
Track quality 100.0 %
Test CRC DBE3D772
Copy CRC DBE3D772
Track not present in AccurateRip database
Copy OK

Track 6

Filename K:\POST\Ethereal Magic Volume 2 (2016)\06 The Highways Of My Life.wav

Pre-gap length 0:00:00.70

Peak level 91.6 %
Extraction speed 3.5 X
Track quality 100.0 %
Test CRC F8189AD7
Copy CRC F8189AD7
Track not present in AccurateRip database
Copy OK

Track 7

Filename K:\POST\Ethereal Magic Volume 2 (2016)\07 Blending Colour.wav

Pre-gap length 0:00:00.59

Peak level 99.9 %
Extraction speed 3.8 X
Track quality 100.0 %
Test CRC F4B2C051
Copy CRC F4B2C051
Track not present in AccurateRip database
Copy OK

Track 8

Filename K:\POST\Ethereal Magic Volume 2 (2016)\08 Unconditional Love.wav

Pre-gap length 0:00:00.51

Peak level 100.0 %
Extraction speed 3.8 X
Track quality 100.0 %
Test CRC 28569AEB
Copy CRC 28569AEB
Track not present in AccurateRip database
Copy OK

Track 9

Filename K:\POST\Ethereal Magic Volume 2 (2016)\09 Remember To Remember.wav

Pre-gap length 0:00:00.72

Peak level 97.0 %
Extraction speed 4.5 X
Track quality 100.0 %
Test CRC 5F5452B7
Copy CRC 5F5452B7
Track not present in AccurateRip database
Copy OK

Track 10

Filename K:\POST\Ethereal Magic Volume 2 (2016)\10 Far Beyond.wav

Pre-gap length 0:00:00.56

Peak level 99.7 %
Extraction speed 4.6 X
Track quality 100.0 %
Test CRC E917A913
Copy CRC E917A913
Track not present in AccurateRip database
Copy OK

Track 11

Filename K:\POST\Ethereal Magic Volume 2 (2016)\11 I Choose You.wav

Pre-gap length 0:00:00.73

Peak level 97.0 %
Extraction speed 4.6 X
Track quality 100.0 %
Test CRC A87676DD
Copy CRC A87676DD
Track not present in AccurateRip database
Copy OK

Track 12

Filename K:\POST\Ethereal Magic Volume 2 (2016)\12 He Mandu (Mother Mix).wav

Pre-gap length 0:00:01.03

Peak level 97.0 %
Extraction speed 4.9 X
Track quality 100.0 %
Test CRC B9F3D618
Copy CRC B9F3D618
Track not present in AccurateRip database
Copy OK

Track 13

Filename K:\POST\Ethereal Magic Volume 2 (2016)\13 It Should Be U.wav

Pre-gap length 0:00:00.69

Peak level 97.0 %
Extraction speed 4.9 X
Track quality 100.0 %
Test CRC B45FED4C
Copy CRC B45FED4C
Track not present in AccurateRip database
Copy OK

Track 14

Filename K:\POST\Ethereal Magic Volume 2 (2016)\14 You Are My Starship.wav

Pre-gap length 0:00:00.70

Peak level 99.8 %
Extraction speed 4.9 X
Track quality 100.0 %
Test CRC 9CE53AFD
Copy CRC 9CE53AFD
Track not present in AccurateRip database
Copy OK

Track 15

Filename K:\POST\Ethereal Magic Volume 2 (2016)\15 Peace In The Middle East.wav

Pre-gap length 0:00:00.55

Peak level 97.0 %
Extraction speed 5.2 X
Track quality 100.0 %
Test CRC 09039AB0
Copy CRC 09039AB0
Track not present in AccurateRip database
Copy OK


None of the tracks are present in the AccurateRip database

No errors occurred

End of status report

–– CUETools DB Plugin V2.1.6

[CTDB TOCID: LYHwWsoOn0Xg6djZ93XlzPZT1F8-] disk not present in database
Submit result: LYHwWsoOn0Xg6djZ93XlzPZT1F8- has been uploaded


Tracklist:
01. Under The Moon And Over The Sky – Angela Bofill
02. Face In The Reflection – Foreign Exchange
03. Living So Fast – Novecento
04. Mississippi Delta Blues -Lamar Thomas
05. It’s Like Air -Sunny Hawkins
06. The Highways Of My Life -The Isley Brothers
07. Blending Colour -DeBra Debs
08. Unconditional Love-Greg Dean
09. Remember To Remember – Rick Holmes
10. Far Beyond – Sunburst Band
11. I Choose You - Paris
12. He Mandu (Mother Mix) – Mouth Music
13. It Should Be U -Ashanti Munir
14. You Are My Starship – Norman Connors
15. Peace In The Middle East – Kerri Chandler & Miri Bin-Ari