Subcategories

Vassilis Tsabropoulos / Arild Andersen / John Marshall - Achirana (2000) {ECM 1728} [Repost]

Posted By: tiburon
Vassilis Tsabropoulos / Arild Andersen / John Marshall - Achirana (2000) {ECM 1728} [Repost]

Vassilis Tsabropoulos / Arild Andersen / John Marshall - Achirana (2000) {ECM 1728}
EAC 0.99pb5 | FLAC Image level 8 | Cue+Log | Full Scans (PDF) | 381MB + 5% Recovery
Genre: Jazz

"Achirana" marks the debut of a new trio, formed by ECM bassist of the first hour Arild Andersen and featuring, alongside veteran drummer John Marshall, Greek pianist Vassilis Tsabropoulos in his first recording for ECM. Likely to be hailed as a veritable 'discovery' in jazz circles, Tsabropoulos has long been recognised as an exceptionally gifted performer in other idioms. To quote Vladimir Ashkenazy, "Vassilis Tsabropoulos possesses rare talent". He has a reputation as a classical pianist, an interpreter of 19th and 20th century music, and as a conductor, and there is growing recognition for both his composing and his improvising.
Track List
01. Achirana 8:06
02. Diamond Cut Diamond 7:23
03. Valley 5:39
04. Mystic 7:18
05. The Spell 10:36
06. She's Gone 5:46
07. Fable 8:18
08. Song For Phyllis 7:50
09. Monologue 8:23

musicians
Vassilis Tsabropoulos - piano
Arild Andersen - double-bass
John Marshall - drums

Produced by Manfred Eicher


Exact Audio Copy V0.99 prebeta 5 from 4. May 2009

Отчёт EAC об извлечении, выполненном 18. октября 2010, 19:00

Vassilis Tsabropoulos, Arild Andersen & John Marshall / Achirana

Дисковод: Optiarc DVD RW AD-7240S Adapter: 0 ID: 0

Режим чтения : Достоверность
Использование точного потока : Да
Отключение кэша аудио : Да
Использование указателей C2 : Нет

Коррекция смещения при чтении : 48
Способность читать области Lead-in и Lead-out : Нет
Заполнение пропущенных сэмплов тишиной : Да
Удаление блоков с тишиной в начале и конце : Нет
При вычислениях CRC использовались нулевые сэмплы : Да
Интерфейс : Встроенный Win32-интерфейс для Win NT/2000

Выходной формат : Пользовательский кодировщик
Выбранный битрейт : 1024 kBit/s
Качество : Высокий
Добавление ID3-тэга : Нет
Утилита сжатия : C:\Program Files\Exact Audio Copy\Flac\flac.exe
Дополнительные параметры : -8 -V -T "ARTIST=%a" -T "TITLE=%t" -T "ALBUM=%g" -T "DATE=%y" -T "TRACKNUMBER=%n" -T "GENRE=%m" -T "COMMENT=%e" %s -o %d


TOC извлечённого CD

Трек | Старт | Длительность | Начальный сектор | Конечный сектор
––––––––––––––––––––––––––––––––––-
1 | 0:00.00 | 8:06.65 | 0 | 36514
2 | 8:06.65 | 7:25.15 | 36515 | 69904
3 | 15:32.05 | 5:42.40 | 69905 | 95594
4 | 21:14.45 | 7:21.12 | 95595 | 128681
5 | 28:35.57 | 10:40.65 | 128682 | 176746
6 | 39:16.47 | 5:48.15 | 176747 | 202861
7 | 45:04.62 | 8:22.20 | 202862 | 240531
8 | 53:27.07 | 7:52.70 | 240532 | 276001
9 | 61:20.02 | 8:23.13 | 276002 | 313739


Характеристики диапазона извлечения и сообщения об ошибках

Выбранный диапазон

Имя файла C:\Documents and Settings\Admin\Рабочий стол\EAC\Vassilis Tsabropoulos, Arild Andersen & John Marshall - Achirana.wav

Пиковый уровень 100.0 %
Качество диапазона 99.4 %
CRC теста 13BE3787
CRC копии 13BE3787
Копирование… OK

Ошибок не произошло


AccurateRip: сводка

Трек 1 точное извлечение (доверие 4) [CA1A14A3]
Трек 2 точное извлечение (доверие 5) [F7CAD283]
Трек 3 точное извлечение (доверие 5) [85991BFE]
Трек 4 точное извлечение (доверие 5) [B3628EDB]
Трек 5 точное извлечение (доверие 5) [AFD0DA86]
Трек 6 точное извлечение (доверие 5) [230BD9B5]
Трек 7 точное извлечение (доверие 5) [CF8FEAE7]
Трек 8 точность не определена (достоверность 17) [DA27BB75], AccurateRip вернул [F638A129]
Трек 9 точное извлечение (доверие 5) [FCF1BA5D]

8 трек(и) скопированы точно
1 трек(и) не удалось проверить на точность

Некоторые треки не прошли проверку на точность

Конец отчёта


––––––––––––––––––––––––––––––––––––––––
Analyzed: Vassilis Tsabropoulos, Arild Andersen & John Marshall / Achirana
––––––––––––––––––––––––––––––––––––––––

DR Peak RMS Duration Track
––––––––––––––––––––––––––––––––––––––––
DR14 0.00 dB -21.19 dB 8:07 01-Achirana
DR13 0.00 dB -18.00 dB 7:25 02-Diamond Cut Diamond
DR12 -3.13 dB -20.07 dB 5:43 03-Valley
DR12 -0.90 dB -16.57 dB 7:21 04-Mystic
DR12 -0.46 dB -17.17 dB 10:41 05-The Spell
DR14 -2.76 dB -21.77 dB 5:48 06-She's Gone
DR12 -0.04 dB -17.26 dB 8:22 07-Fable
DR13 -2.70 dB -20.09 dB 7:53 08-Song For Phyllis
DR13 -0.72 dB -18.13 dB 8:23 09-Monologue
––––––––––––––––––––––––––––––––––––––––

Number of tracks: 9
Official DR value: DR13

Samplerate: 44100 Hz
Channels: 2
Bits per sample: 16
Bitrate: 707 kbps
Codec: FLAC
================================================================================

Vassilis Tsabropoulos / Arild Andersen / John Marshall - Achirana (2000) {ECM 1728} [Repost]
Vassilis Tsabropoulos / Arild Andersen / John Marshall - Achirana (2000) {ECM 1728} [Repost]


Rip by Клава Сирень