Subcategories

Riccardo Chailly, Orchestra del Teatro alla Scala, Violeta Urmana, Roberto Alagna - Verdi: Aida (2008) [Blu-Ray]

Posted By: Vilboa
Riccardo Chailly, Orchestra del Teatro alla Scala, Violeta Urmana, Roberto Alagna - Verdi: Aida (2008) [Blu-Ray]

Riccardo Chailly, Orchestra del Teatro alla Scala, Violeta Urmana, Roberto Alagna - Verdi: Aida (2008) [Blu-Ray]
BluRay | BDMV | MPEG-4 AVC Video / 24974 kbps / 1080i / 29,970 fps | 158 min | 38,1 Gb
Audio1: Italian / LPCM Audio / 2.0 / 24-bit | Audio2: DTS-HD MA 5.1 / 48 kHz / 4141 kbps / 24-bit

BluRay-rip | AVC | MKV 1920x1080 / 6215 kbps / 29,97 fps | 158 min | 8,59 Gb
Audio: Italian / DTS / 6ch / 48.0 KHz / 24 bits
Classical | DECCA | Sub: English, German, French, Italian, Spanish, Chinese

Early recordings of Franco Zeffirelli's 2006 production of Verdi's opera which saw Roberto Alagna's high-profile exit during the second performance. Egypt and Ethiopia are at war. Radames is appointed commander of the Egyptian forces by the King, whose daughter, Amneris, loves Radames. It is in fact Amneris' Ethiopian slave Aida whom Radames loves. Ramades wins the war against the Ethiopians, capturing Aida's father Amonasro in the process. On his return to Egypt he faces a choice between marrying Amneris or betraying his country through his love for Aida.

Cast:
Aida - Violeta Urmana
Radamès - Roberto Alagna
Amneris - Ildiko Komlosi
Ramfis - Giorgio Giuseppini
Amonasro - Carlo Guelfi
Il Re di Egitto - Marco Spotti
Una Sacerdotessa - Sae Kyung Rim
Un Messaggero - Antonello Ceron
Orchestra e Coro del Teatro alla Scala
Conductor - Riccardo Chailly


Disc Title: AIDA_GUISEPPE_VERDI
Disc Size: 41 014 861 896 bytes
Protection: AACS
BD-Java: No
Playlist: 00002.MPLS
Size: 39 511 848 960 bytes
Length: 2:38:21.592
Total Bitrate: 33,27 Mbps
Video: MPEG-4 AVC Video / 24974 kbps / 1080i / 29,970 fps / 16:9 / High Profile 4.1
Audio: Italian / LPCM Audio / 2.0 / 48 kHz / 2304 kbps / 24-bit
Audio: Italian / DTS-HD Master Audio / 5.1 / 48 kHz / 4141 kbps / 24-bit (DTS Core: 5.1 / 48 kHz / 1509 kbps / 24-bit)
Subtitle: English / 15,456 kbps
Subtitle: French / 15,516 kbps
Subtitle: German / 17,132 kbps
Subtitle: Italian / 13,831 kbps
Subtitle: Spanish / 15,084 kbps
Subtitle: Chinese / 24,010 kbps


General
Unique ID : 189446977998830389600149949170199659177 (0x8E862928E3807A8C977759D0199D82A9)
Complete name : C:\Aida.mkv
Format : Matroska
Format version : Version 2
File size : 8.60 GiB
Duration : 2h 38mn
Overall bit rate : 7 772 Kbps
Movie name : Aida
Encoded date : UTC 2017-05-10 13:55:04
Writing application : DVDFab 9.1.6.8
Writing library : libebml v0.7.8 + libmatroska v0.8.1

Video
ID : 1
Format : AVC
Format/Info : Advanced Video Codec
Format profile : High@L4.1
Format settings, CABAC : Yes
Format settings, ReFrames : 2 frames
Codec ID : V_MPEG4/ISO/AVC
Duration : 2h 38mn
Bit rate : 6 215 Kbps
Width : 1 920 pixels
Height : 1 080 pixels
Display aspect ratio : 16:9
Frame rate mode : Constant
Frame rate : 29.970 fps
Color space : YUV
Chroma subsampling : 4:2:0
Bit depth : 8 bits
Scan type : Progressive
Bits/(Pixel*Frame) : 0.100
Stream size : 6.76 GiB (79%)
Writing library : x264 core 142
Encoding settings : cabac=1 / ref=1 / deblock=1:-1:-1 / analyse=0x3:0 / me=hex / subme=5 / psy=0 / mixed_ref=0 / me_range=16 / chroma_me=1 / trellis=0 / 8x8dct=1 / cqm=0 / deadzone=21,11 / fast_pskip=1 / chroma_qp_offset=0 / threads=8 / lookahead_threads=2 / sliced_threads=0 / nr=0 / decimate=1 / interlaced=0 / bluray_compat=0 / constrained_intra=0 / bframes=2 / b_pyramid=0 / b_adapt=1 / b_bias=0 / direct=1 / weightb=1 / open_gop=0 / weightp=0 / keyint=24 / keyint_min=13 / scenecut=40 / intra_refresh=0 / rc=abr / mbtree=0 / bitrate=6215 / ratetol=1.0 / qcomp=0.60 / qpmin=0 / qpmax=69 / qpstep=4 / ip_ratio=1.40 / pb_ratio=1.30 / aq=1:1.00
Default : Yes
Forced : No
Color primaries : BT.709
Transfer characteristics : BT.709
Matrix coefficients : BT.709
Color range : Limited

Audio
ID : 2
Format : DTS
Format/Info : Digital Theater Systems
Mode : 16
Format settings, Endianness : Big
Codec ID : A_DTS
Duration : 2h 38mn
Bit rate mode : Constant
Bit rate : 1 509 Kbps
Channel(s) : 6 channels
Channel positions : Front: L C R, Side: L R, LFE
Sampling rate : 48.0 KHz
Bit depth : 24 bits
Compression mode : Lossy
Stream size : 1.67 GiB (19%)
Language : Italian
Default : Yes
Forced : No

Text #1
ID : 3
Format : VobSub
Codec ID : S_VOBSUB
Codec ID/Info : The same subtitle format used on DVDs
Language : English
Default : Yes
Forced : No

Text #2
ID : 4
Format : VobSub
Codec ID : S_VOBSUB
Codec ID/Info : The same subtitle format used on DVDs
Language : French
Default : No
Forced : No

Text #3
ID : 5
Format : VobSub
Codec ID : S_VOBSUB
Codec ID/Info : The same subtitle format used on DVDs
Language : German
Default : No
Forced : No

Text #4
ID : 6
Format : VobSub
Codec ID : S_VOBSUB
Codec ID/Info : The same subtitle format used on DVDs
Language : Italian
Default : No
Forced : No

Text #5
ID : 7
Format : VobSub
Codec ID : S_VOBSUB
Codec ID/Info : The same subtitle format used on DVDs
Language : Spanish
Default : No
Forced : No

Text #6
ID : 8
Format : VobSub
Codec ID : S_VOBSUB
Codec ID/Info : The same subtitle format used on DVDs
Language : Chinese
Default : No
Forced : No

Menu
00:00:00.000 : en:Chapter 01
00:03:31.211 : en:Chapter 02
00:05:03.536 : en:Chapter 03
00:09:45.084 : en:Chapter 04
00:13:11.390 : en:Chapter 05
00:15:59.959 : en:Chapter 06
00:19:21.660 : en:Chapter 07
00:22:22.207 : en:Chapter 08
00:25:28.360 : en:Chapter 09
00:28:52.397 : en:Chapter 10
00:34:22.226 : en:Chapter 11
00:35:18.249 : en:Chapter 12
00:40:16.347 : en:Chapter 13
00:46:00.257 : en:Chapter 14
00:51:04.061 : en:Chapter 15
00:55:56.186 : en:Chapter 16
00:59:14.083 : en:Chapter 17
01:05:43.439 : en:Chapter 18
01:08:01.610 : en:Chapter 19
01:10:09.171 : en:Chapter 20
01:11:05.594 : en:Chapter 21
01:16:45.167 : en:Chapter 22
01:24:08.376 : en:Chapter 23
01:29:24.359 : en:Chapter 24
01:35:11.472 : en:Chapter 25
01:38:22.296 : en:Chapter 26
01:42:56.737 : en:Chapter 27
01:46:18.372 : en:Chapter 28
01:50:27.287 : en:Chapter 29
01:52:36.416 : en:Chapter 30
01:56:14.367 : en:Chapter 31
01:59:23.556 : en:Chapter 32
02:06:24.743 : en:Chapter 33
02:10:48.040 : en:Chapter 34
02:17:25.670 : en:Chapter 35
02:19:56.388 : en:Chapter 36
02:23:57.528 : en:Chapter 37
02:33:55.392 : en:Chapter 38


All screenshots taken from Blu-ray

Riccardo Chailly, Orchestra del Teatro alla Scala, Violeta Urmana, Roberto Alagna - Verdi: Aida (2008) [Blu-Ray]
Riccardo Chailly, Orchestra del Teatro alla Scala, Violeta Urmana, Roberto Alagna - Verdi: Aida (2008) [Blu-Ray]
Riccardo Chailly, Orchestra del Teatro alla Scala, Violeta Urmana, Roberto Alagna - Verdi: Aida (2008) [Blu-Ray]
Riccardo Chailly, Orchestra del Teatro alla Scala, Violeta Urmana, Roberto Alagna - Verdi: Aida (2008) [Blu-Ray]