Subcategories

Verdi: Il Trovatore - Cleva, Price, Dalis, Corelli, Sereni (2011)

Posted By: peotuvave
Verdi: Il Trovatore - Cleva, Price, Dalis, Corelli, Sereni (2011)

Verdi: Il Trovatore - Cleva, Price, Dalis, Corelli, Sereni (2011)
EAC Rip | Flac (Tracks + cue + log) | 2 CDs | Full Scans | 384 MB
Genre: Classical | Label: Sony | Catalog Number: 791006

A great debut makes an impression that remains in your memory for a lifetime. But how often do you hear two amazing debuts in one performance? That’s what happened more than forty years ago when Leontyne Price and Franco Corelli made simultaneous Met debuts in Il Trovatore before a delirious public. A week later, the February 4, 1961, Saturday matinee Trovatore was broadcast live on the Texaco-Metropolitan Opera radio network. New York had been hit by a major snowstorm, but the house was packed with an enthusiastic audience, alerted by the reviews to the sensational new singers.

Composer: Giuseppe Verdi
Performer: Leontyne Price, Mario Sereni, Irene Dalis, Franco Corelli, …
Conductor: Fausto Cleva
Orchestra/Ensemble: Metropolitan Opera Orchestra

Reviews: It is not clear where the major decision-making authority is behind the Sony series of “historic” Metropolitan Opera broadcasts. Does it lie principally with Met officials, or with executives at Sony? It would be interesting to know in particular concerning this release. Was anyone even aware of its almost direct competition with DG’s release (447659), long considered one of Il trovatore’s great recordings, of a live Salzburg Festival performance from six months later with the same tenor and soprano, a more famous baritone and mezzo, and one of the era’s most highly regarded conductors (Herbert von Karajan)? As wonderful as this performance is, and as satisfying as it is to have it available in terrifically clear and natural monaural sound, one has to wonder how a careful examination of the Met’s considerable broadcast archives and available competition would have led to the conclusion that this should be one of the earlier commercial releases in the series. Now that it is here, one has no choice but to compare it directly with the DG. The surprise is how well this version fares in that comparison.


Both performances employ the usual cuts from the period. Sony’s track listing claims that Leonora’s last-act cabaletta, “Tu vedrai,” is here, but in fact it is not. Both are in good, natural monaural sound, with the Met’s audience a bit less intrusive during the performance, and the Salzburg/DG’s sound occasionally too heavily favoring the orchestra. Sony’s version includes lengthier applause after big moments. There is a definite advantage to the DG set in terms of ensemble togetherness. Salzburg Festival conditions guarantee greater rehearsal time, and Karajan is a better disciplinarian than Fausto Cleva. There are moments that threaten to fall apart in the Met performance, but they go by quickly. And if this detail is important to you, be aware that in both performances Corelli is permitted to transpose “Di quella pira” down a half-step for a final high B instead of C. DG provides a libretto and translation; Sony does not.


Fanatic collectors like me probably love the fact that we can have both. But even the majority of opera nuts, who will probably also want other Trovatore recordings (Milanov/Bjoerling, a classic despite flaccid conducting; or Price/Domingo/Mehta, the best uncut studio effort), are not likely to want two recordings with the same soprano and tenor leads. On paper the obvious choice would be the starrier Salzburg performance, and that is what I anticipated when I set out to compare the two.


It didn’t quite come out that way. No question that Karajan is the more refined and, in many ways, musically accomplished conductor. But that refinement doesn’t always work to his advantage in Verdi. Cleva, an operatic veteran, understood the idiom thoroughly. Cleva was considered a “singers’ conductor” at the Met, meaning that he accompanied sensitively and let singers have their head. Thus Corelli gets to hold a few notes longer on the Met performance (the end of his entrance serenade, for example), and if you’re a purist that might trouble you. If you think that that is what Italian opera is all about, you’ll love it. Overall, to my ears the Cleva performance flows more naturally; the Karajan seems a bit fussy and controlled at times. Ensemble is generally tighter with Karajan, though there are moments with him, too (he and Bastianini don’t seem in complete agreement regarding tempos, and the ensemble that ends the first act threatens to collapse). But it is those gear shifts, from one tempo into another, that just seem more natural, smoother, with Cleva, and more studied, more thought-through (not in a good way) with Karajan.


Price and Corelli are similar in both performances, though both take a few more liberties under Cleva, and sing with a touch more abandon. Price is a glory—her Leonora a triumph in every way. This is Verdi singing for the ages, and it is hard to imagine better. The glow on the voice, the majestic phrasing, and her identification with the character make hers a unique achievement. She sounds, particularly in her last-act aria, just a bit more flowing and comfortable under Cleva—but that difference is slight. Corelli will always be a more controversial singer, though there can be little argument over the basic quality of the voice. This was a tenor whose sound defined the Italian spinto: dark, but with a bright overlay of ring. Corelli could sing softly, and did more than he is given credit for (the end of “Mal reggendo,” for instance). He did scoop into notes, he did take liberties with note values that his admirers felt added to spontaneity and excitement and his detractors felt savaged the intention of the composer. Count me among his admirers (when I listen to the freedom displayed by some of the earliest singers to record, like Fernando de Lucia, many of whom were sought-after by composers, I conclude that today’s rigid adherence to the printed score is historically questionable, at best). At his best, in this kind of repertoire, I find Corelli thrilling, and he is more so under Cleva. Directly comparing Manrico’s outburst at Leonora in the final scene, beginning “Dal mio rivale! … Intendo, intendo! Ha quest’infame l’amor venduto,” one is swept away by the intensity, bordering on rage, one hears in the Met performance. Under Karajan, Corelli is not permitted to let loose to such a degree, and the result is less convincing.


The Karajan performance has one of the great Azucenas on disc, Giulietta Simionato, at her peak. I cannot honestly say that Irene Dalis is her equal. But there is much to cherish in Dalis’s performance, and hers was a career sadly underrepresented on disc because of the competition (Simionato, Barbieri, Cossotto, Gorr, Bumbry, and Verrett). She was a Met mainstay—and in fact one of the finest Amnerises I have ever seen. Today, she would share the spotlight with Dolores Zajic ahead of all competition. Her voice was plummy, her dramatic intensity always at the white-hot level, and having her Azucena preserved in this recording is an important addition to our knowledge of Verdi singing in that era. I believe Kundry for Knappertsbusch is her only commercial recording, adding to the value of her Azucena here.


Vocally, Mario Sereni is no match for Bastianini, the latter blessed with one of the most beautiful, ringing baritone voices of this period. Sereni has the right basic sound for this music, knows how it goes, and sings with involvement. But so does Bastianini, heard in the Salzburg Trovatore at his very best, perhaps inspired by Karajan to pay attention to text and dynamics. And there is no denying the ordinariness of Sereni’s voice when compared with Bastianini’s.


The Vienna Philharmonic is a better orchestra than the Met ensemble was in 1961 (that is much less the case today), and the choral singing is better too on the DG. But despite some clear points of specific superiority on the DG, and despite the occasional (and soft) presence of the prompter in the Met/Sony edition, I know that it is that Met performance on Sony to which I will return more often, when I want a recording of Il trovatore that just sweeps everything before it because of its dramatic thrust and momentum matched with great singing.

Tracklisting:

1. Il trovatore by Giuseppe Verdi
Performer: Leontyne Price (Soprano), Mario Sereni (Baritone), Irene Dalis (Mezzo Soprano),
Franco Corelli (Tenor), Teresa Stratas (Soprano)
Conductor: Fausto Cleva
Orchestra/Ensemble: Metropolitan Opera Orchestra
Period: Romantic
Written: 1853; Italy
Date of Recording: February 4, 1961
Venue: Metropolitan Opera, New York

Exact Audio Copy V1.0 beta 3 from 29. August 2011

EAC extraction logfile from 12. October 2012, 11:58

Price, Corelli, Dalis, Sereni, Wilderman, Stratas, Anthony, Nagy, Tomanelli, Metropolitan Opera Orchestra and Chorus / Giuseppe Verdi - Il Trovatore - Fausto Cleva 1961 (2011) CD1of2

Used drive : Optiarc DVD RW AD-7231S5 Adapter: 0 ID: 1

Read mode : Secure
Utilize accurate stream : Yes
Defeat audio cache : Yes
Make use of C2 pointers : No

Read offset correction : 48
Overread into Lead-In and Lead-Out : No
Fill up missing offset samples with silence : Yes
Delete leading and trailing silent blocks : No
Null samples used in CRC calculations : Yes
Used interface : Native Win32 interface for Win NT & 2000
Gap handling : Appended to previous track

Used output format : User Defined Encoder
Selected bitrate : 1024 kBit/s
Quality : High
Add ID3 tag : No
Command line compressor : C:\Program Files (x86)\Exact Audio Copy\Flac\flac.exe
Additional command line options : -8 -V -T "ARTIST=%artist%" -T "TITLE=%title%" -T "ALBUM=%albumtitle%" -T "DATE=%year%" -T "TRACKNUMBER=%tracknr%" -T "GENRE=%genre%" -T "PERFORMER=%albuminterpret%" -T "COMPOSER=%composer%" %haslyrics%–tag-from-file=LYRICS="%lyricsfile%"%haslyrics% -T "ALBUMARTIST=%albumartist%" -T "DISCNUMBER=%cdnumber%" -T "TOTALDISCS=%totalcds%" -T "TOTALTRACKS=%numtracks%" -T "COMMENT=%comment%" %source% -o %dest%


TOC of the extracted CD

Track | Start | Length | Start sector | End sector
––––––––––––––––––––––––––––-
1 | 0:00.00 | 2:58.59 | 0 | 13408
2 | 2:58.59 | 4:06.21 | 13409 | 31879
3 | 7:05.05 | 3:16.37 | 31880 | 46616
4 | 10:21.42 | 2:14.32 | 46617 | 56698
5 | 12:35.74 | 4:25.18 | 56699 | 76591
6 | 17:01.17 | 1:53.28 | 76592 | 85094
7 | 18:54.45 | 3:26.07 | 85095 | 100551
8 | 22:20.52 | 1:48.60 | 100552 | 108711
9 | 24:09.37 | 2:31.62 | 108712 | 120098
10 | 26:41.24 | 2:43.68 | 120099 | 132391
11 | 29:25.17 | 4:57.48 | 132392 | 154714
12 | 34:22.65 | 0:52.09 | 154715 | 158623
13 | 35:14.74 | 4:54.02 | 158624 | 180675
14 | 40:09.01 | 2:30.21 | 180676 | 191946
15 | 42:39.22 | 4:32.31 | 191947 | 212377
16 | 47:11.53 | 1:55.11 | 212378 | 221013
17 | 49:06.64 | 1:30.45 | 221014 | 227808
18 | 50:37.34 | 3:03.62 | 227809 | 241595
19 | 53:41.21 | 2:35.23 | 241596 | 253243
20 | 56:16.44 | 2:19.50 | 253244 | 263718
21 | 58:36.19 | 2:31.69 | 263719 | 275112
22 | 61:08.13 | 4:12.59 | 275113 | 294071


Track 1

Filename C:\EAC Rips\01 Il Trovatore - Act I- All'erta! All'erta! - Ferrando (William Wilderman), Chorus.wav

Pre-gap length 0:00:02.00

Peak level 46.3 %
Extraction speed 1.9 X
Track quality 100.0 %
Test CRC 056E7EAB
Copy CRC 056E7EAB
Track not present in AccurateRip database
Copy OK

Track 2

Filename C:\EAC Rips\02 Il Trovatore - Di due figli vivea padre beato … Abbietta zingara - Ferrando (William Wilderman), Chorus.wav

Peak level 51.7 %
Extraction speed 2.1 X
Track quality 100.0 %
Test CRC C2990E6C
Copy CRC C2990E6C
Track not present in AccurateRip database
Copy OK

Track 3

Filename C:\EAC Rips\03 Il Trovatore - E il padre; Brevi e tristi giorni visse - Ferrando (William Wilderman), Chorus.wav

Peak level 60.0 %
Extraction speed 2.2 X
Track quality 100.0 %
Test CRC AA10A481
Copy CRC AA10A481
Track not present in AccurateRip database
Copy OK

Track 4

Filename C:\EAC Rips\04 Il Trovatore - Che più t'arresti - Ines (Teresa Stratas), Leonora (Leontyne Price).wav

Peak level 34.9 %
Extraction speed 1.8 X
Track quality 99.9 %
Test CRC 014EC816
Copy CRC 014EC816
Track not present in AccurateRip database
Copy OK

Track 5

Filename C:\EAC Rips\05 Il Trovatore - Tacea la notte placida - Leonora (Leontyne Price), Ines (Teresa Stratas).wav

Peak level 47.3 %
Extraction speed 2.3 X
Track quality 99.9 %
Test CRC A66E7BF4
Copy CRC A66E7BF4
Track not present in AccurateRip database
Copy OK

Track 6

Filename C:\EAC Rips\06 Il Trovatore - Di tale amor - Leonora (Leontyne Price), Ines (Teresa Stratas).wav

Peak level 48.7 %
Extraction speed 2.3 X
Track quality 100.0 %
Test CRC 242B87C4
Copy CRC 242B87C4
Track not present in AccurateRip database
Copy OK

Track 7

Filename C:\EAC Rips\07 Il Trovatore - Tace la notte!; Deserto sulla terra - Di Luna (Mario Sereni), Manrico (Franco Corelli).wav

Peak level 46.0 %
Extraction speed 2.7 X
Track quality 100.0 %
Test CRC 5F209820
Copy CRC 5F209820
Track not present in AccurateRip database
Copy OK

Track 8

Filename C:\EAC Rips\08 Il Trovatore - Anima mia!; Ah! Dalle tenebre - Leonora (Leontyne Price), Di Luna (Mario Sereni), Manrico (Franco Corelli).wav

Peak level 42.4 %
Extraction speed 2.4 X
Track quality 100.0 %
Test CRC 77D6BD78
Copy CRC 77D6BD78
Track not present in AccurateRip database
Copy OK

Track 9

Filename C:\EAC Rips\09 Il Trovatore - Di geloso amor sprezzato - Di Luna (Mario Sereni), Leonora (Leontyne Price), Manrico (Franco Corelli).wav

Peak level 55.5 %
Extraction speed 2.8 X
Track quality 100.0 %
Test CRC 95C84972
Copy CRC 95C84972
Track not present in AccurateRip database
Copy OK

Track 10

Filename C:\EAC Rips\10 Il Trovatore - Act II- Vedi! Le fosche notturne - Chorus.wav

Peak level 65.3 %
Extraction speed 2.8 X
Track quality 100.0 %
Test CRC 89EADFBE
Copy CRC 89EADFBE
Track not present in AccurateRip database
Copy OK

Track 11

Filename C:\EAC Rips\11 Il Trovatore - Stride la vampa! - Azucena (Irene Dalis), Manrico (Franco Corelli), Gypsy (Carlo Tomanelli), Chorus.wav

Peak level 56.6 %
Extraction speed 3.3 X
Track quality 100.0 %
Test CRC 552D0A8B
Copy CRC 552D0A8B
Track not present in AccurateRip database
Copy OK

Track 12

Filename C:\EAC Rips\12 Il Trovatore - Soli or siamo! - Manrico (Franco Corelli), Azucena (Irene Dalis).wav

Peak level 47.1 %
Extraction speed 1.5 X
Track quality 99.7 %
Test CRC 83985976
Copy CRC 83985976
Track not present in AccurateRip database
Copy OK

Track 13

Filename C:\EAC Rips\13 Il Trovatore - Condotta ell'era in ceppi - Azucena (Irene Dalis), Manrico (Franco Corelli).wav

Peak level 52.8 %
Extraction speed 3.4 X
Track quality 100.0 %
Test CRC C1AE375D
Copy CRC C1AE375D
Track not present in AccurateRip database
Copy OK

Track 14

Filename C:\EAC Rips\14 Il Trovatore - Non son tuo figlio - Manrico (Franco Corelli), Azucena (Irene Dalis).wav

Peak level 53.0 %
Extraction speed 3.2 X
Track quality 100.0 %
Test CRC 1D8EE071
Copy CRC 1D8EE071
Track not present in AccurateRip database
Copy OK

Track 15

Filename C:\EAC Rips\15 Il Trovatore - Mal reggendo all'aspro assalto - Manrico (Franco Corelli), Azucena (Irene Dalis), Messenger (Robert Nagy).wav

Peak level 55.1 %
Extraction speed 3.6 X
Track quality 100.0 %
Test CRC 73A03FC3
Copy CRC 73A03FC3
Track not present in AccurateRip database
Copy OK

Track 16

Filename C:\EAC Rips\16 Il Trovatore - Perigliarti ancor laguente - Azucena (Irene Dalis), Manrico (Franco Corelli).wav

Peak level 50.7 %
Extraction speed 3.1 X
Track quality 100.0 %
Test CRC 363CD4C6
Copy CRC 363CD4C6
Track not present in AccurateRip database
Copy OK

Track 17

Filename C:\EAC Rips\17 Il Trovatore - Tutto è deserto - Di Luna (Mario Sereni), Ferrando (William Wilderman).wav

Peak level 48.8 %
Extraction speed 2.2 X
Track quality 99.8 %
Test CRC F6A6E51E
Copy CRC F6A6E51E
Track not present in AccurateRip database
Copy OK

Track 18

Filename C:\EAC Rips\18 Il Trovatore - Il balen del suo sorriso - Di Luna (Mario Sereni).wav

Peak level 47.0 %
Extraction speed 3.6 X
Track quality 100.0 %
Test CRC 9FFFF1B0
Copy CRC 9FFFF1B0
Track not present in AccurateRip database
Copy OK

Track 19

Filename C:\EAC Rips\19 Il Trovatore - Qual suono!; Per me ora fatale - Di Luna (Mario Sereni), Ferrando (William Wilderman), Chorus.wav

Peak level 53.4 %
Extraction speed 3.5 X
Track quality 100.0 %
Test CRC B35D425E
Copy CRC B35D425E
Track not present in AccurateRip database
Copy OK

Track 20

Filename C:\EAC Rips\20 Il Trovatore - Ah! Se l'error t'ingombra - Di Luna (Mario Sereni), Ferrando (William Wilderman), Chorus.wav

Peak level 39.4 %
Extraction speed 3.5 X
Track quality 100.0 %
Test CRC 186E320D
Copy CRC 186E320D
Track not present in AccurateRip database
Copy OK

Track 21

Filename C:\EAC Rips\21 Il Trovatore - Perchè piangete - Leonora (Leontyne Price), Ines (Teresa Stratas), Di Luna (Mario Sereni), Ferrando (William Wilderman), Chorus.wav

Peak level 82.3 %
Extraction speed 3.6 X
Track quality 100.0 %
Test CRC FA4C9C5F
Copy CRC FA4C9C5F
Track not present in AccurateRip database
Copy OK

Track 22

Filename C:\EAC Rips\22 Il Trovatore - E deggio e posso crederlo - Leonora (Leontyne Price), Di Luna (Mario Sereni), Manrico (Franco Corelli), Ferrando (William Wilderman), Ines (Teresa Stratas), Ruiz (Charles Anthony), Chorus.wav

Peak level 59.1 %
Extraction speed 4.0 X
Track quality 100.0 %
Test CRC 08578957
Copy CRC 08578957
Track not present in AccurateRip database
Copy OK


None of the tracks are present in the AccurateRip database

No errors occurred

End of status report

–– CUETools DB Plugin V2.1.3

[CTDB TOCID: fByWrXaImOyevHAr_kM2RE7Z1gU-] disk not present in database, Submit result: fByWrXaImOyevHAr_kM2RE7Z1gU- has been uploaded


==== Log checksum 1FB7FE2BA096B27C476756D512138BA6EAF6B1306B08C2BCEB65C09402041FA1 ====

Exact Audio Copy V1.0 beta 3 from 29. August 2011

EAC extraction logfile from 12. October 2012, 16:39

Price, Corelli, Dalis, Sereni, Wilderman, Stratas, Anthony, Nagy, Tomanelli, Metropolitan Opera Orchestra and Chorus / Giuseppe Verdi - Il Trovatore - Fausto Cleva 1961 (2011) CD2of2

Used drive : Optiarc DVD RW AD-7231S5 Adapter: 0 ID: 1

Read mode : Secure
Utilize accurate stream : Yes
Defeat audio cache : Yes
Make use of C2 pointers : No

Read offset correction : 48
Overread into Lead-In and Lead-Out : No
Fill up missing offset samples with silence : Yes
Delete leading and trailing silent blocks : No
Null samples used in CRC calculations : Yes
Used interface : Native Win32 interface for Win NT & 2000
Gap handling : Appended to previous track

Used output format : User Defined Encoder
Selected bitrate : 1024 kBit/s
Quality : High
Add ID3 tag : No
Command line compressor : C:\Program Files (x86)\Exact Audio Copy\Flac\flac.exe
Additional command line options : -8 -V -T "ARTIST=%artist%" -T "TITLE=%title%" -T "ALBUM=%albumtitle%" -T "DATE=%year%" -T "TRACKNUMBER=%tracknr%" -T "GENRE=%genre%" -T "PERFORMER=%albuminterpret%" -T "COMPOSER=%composer%" %haslyrics%–tag-from-file=LYRICS="%lyricsfile%"%haslyrics% -T "ALBUMARTIST=%albumartist%" -T "DISCNUMBER=%cdnumber%" -T "TOTALDISCS=%totalcds%" -T "TOTALTRACKS=%numtracks%" -T "COMMENT=%comment%" %source% -o %dest%


TOC of the extracted CD

Track | Start | Length | Start sector | End sector
––––––––––––––––––––––––––––-
1 | 0:00.00 | 4:20.65 | 0 | 19564
2 | 4:20.65 | 2:08.16 | 19565 | 29180
3 | 6:29.06 | 2:51.24 | 29181 | 42029
4 | 9:20.30 | 1:57.52 | 42030 | 50856
5 | 11:18.07 | 2:11.69 | 50857 | 60750
6 | 13:30.01 | 3:57.72 | 60751 | 78597
7 | 17:27.73 | 1:45.22 | 78598 | 86494
8 | 19:13.20 | 2:26.58 | 86495 | 97502
9 | 21:40.03 | 3:05.27 | 97503 | 111404
10 | 24:45.30 | 4:54.44 | 111405 | 133498
11 | 29:39.74 | 5:00.32 | 133499 | 156030
12 | 34:40.31 | 1:44.55 | 156031 | 163885
13 | 36:25.11 | 5:22.49 | 163886 | 188084
14 | 41:47.60 | 5:17.25 | 188085 | 211884
15 | 47:05.10 | 3:25.60 | 211885 | 227319
16 | 50:30.70 | 1:29.04 | 227320 | 233998
17 | 51:59.74 | 2:32.58 | 233999 | 245456
18 | 54:32.57 | 4:55.23 | 245457 | 267604


Track 1

Filename C:\EAC Rips\01 Il Trovatore - Act III- Or co' dadi, ma fra poco - Ferrando (William Wilderman), Chorus.wav

Pre-gap length 0:00:02.00

Peak level 56.4 %
Extraction speed 2.1 X
Track quality 100.0 %
Test CRC 0F5370CF
Copy CRC 0F5370CF
Track not present in AccurateRip database
Copy OK

Track 2

Filename C:\EAC Rips\02 Il Trovatore - In braccio al mio rival! - Di Luna (Mario Sereni), Ferrando (William Wilderman), Azucena (Irene Dalis).wav

Peak level 53.4 %
Extraction speed 2.0 X
Track quality 100.0 %
Test CRC FB5E58F1
Copy CRC FB5E58F1
Track not present in AccurateRip database
Copy OK

Track 3

Filename C:\EAC Rips\03 Il Trovatore - Giorni poveri vivea - Azucena (Irene Dalis), Ferrando (William Wilderman), Di Luna (Mario Sereni).wav

Peak level 50.9 %
Extraction speed 1.8 X
Track quality 99.9 %
Test CRC 2AA4C336
Copy CRC 2AA4C336
Track not present in AccurateRip database
Copy OK

Track 4

Filename C:\EAC Rips\04 Il Trovatore - Deh! Rallentate, o barbari - Azucena (Irene Dalis), Di Luna (Mario Sereni), Ferrando (William Wilderman), Chorus.wav

Peak level 59.0 %
Extraction speed 2.1 X
Track quality 100.0 %
Test CRC A67164FA
Copy CRC A67164FA
Track not present in AccurateRip database
Copy OK

Track 5

Filename C:\EAC Rips\05 Il Trovatore - Quale d'armi fragor - Leonora (Leontyne Price), Manrico (Franco Corelli).wav

Peak level 50.6 %
Extraction speed 2.3 X
Track quality 100.0 %
Test CRC 8487ECAD
Copy CRC 8487ECAD
Track not present in AccurateRip database
Copy OK

Track 6

Filename C:\EAC Rips\06 Il Trovatore - Ah! sì, ben mio - Manrico (Franco Corelli).wav

Peak level 53.2 %
Extraction speed 2.6 X
Track quality 100.0 %
Test CRC A44A19F8
Copy CRC A44A19F8
Track not present in AccurateRip database
Copy OK

Track 7

Filename C:\EAC Rips\07 Il Trovatore - L'onda de'suoni mistici - Leonora (Leontyne Price), Manrico (Franco Corelli), Ruiz (Charles Anthony).wav

Peak level 59.4 %
Extraction speed 2.3 X
Track quality 100.0 %
Test CRC 45985FA4
Copy CRC 45985FA4
Track not present in AccurateRip database
Copy OK

Track 8

Filename C:\EAC Rips\08 Il Trovatore - Di quella pira - Manrico (Franco Corelli), Chorus.wav

Peak level 73.7 %
Extraction speed 2.6 X
Track quality 100.0 %
Test CRC BCAAFC76
Copy CRC BCAAFC76
Track not present in AccurateRip database
Copy OK

Track 9

Filename C:\EAC Rips\09 Il Trovatore - Act IV- Siam guinti - Ruiz (Charles Anthony), Leonora (Leontyne Price).wav

Peak level 65.6 %
Extraction speed 2.8 X
Track quality 100.0 %
Test CRC 06B43C47
Copy CRC 06B43C47
Track not present in AccurateRip database
Copy OK

Track 10

Filename C:\EAC Rips\10 Il Trovatore - D'amor sull'ali rosee - Leonora (Leontyne Price).wav

Peak level 65.8 %
Extraction speed 3.1 X
Track quality 100.0 %
Test CRC 791A016D
Copy CRC 791A016D
Track not present in AccurateRip database
Copy OK

Track 11

Filename C:\EAC Rips\11 Il Trovatore - Miserere d'un alma già vicina; Tu vedrai che amore in terra - Leonora (Leontyne Price), Manrico (Franco Corelli), Chorus.wav

Peak level 75.7 %
Extraction speed 2.9 X
Track quality 99.9 %
Test CRC D970E854
Copy CRC D970E854
Track not present in AccurateRip database
Copy OK

Track 12

Filename C:\EAC Rips\12 Il Trovatore - Udite Come albeggi, la scure al figlio - Di Luna (Mario Sereni), Leonora (Leontyne Price).wav

Peak level 63.1 %
Extraction speed 2.8 X
Track quality 100.0 %
Test CRC A0A4D57A
Copy CRC A0A4D57A
Track not present in AccurateRip database
Copy OK

Track 13

Filename C:\EAC Rips\13 Il Trovatore - Mira, di acerbe lagrime; Vivrà! Contende il giubilo - Leonora (Leontyne Price), Di Luna (Mario Sereni).wav

Peak level 70.9 %
Extraction speed 3.5 X
Track quality 100.0 %
Test CRC B70AFE8B
Copy CRC B70AFE8B
Track not present in AccurateRip database
Copy OK

Track 14

Filename C:\EAC Rips\14 Il Trovatore - Madre, non dormi - Manrico (Franco Corelli), Azucena (Irene Dalis).wav

Peak level 67.7 %
Extraction speed 3.6 X
Track quality 100.0 %
Test CRC CFC9EA74
Copy CRC CFC9EA74
Track not present in AccurateRip database
Copy OK

Track 15

Filename C:\EAC Rips\15 Il Trovatore - Sì, la stanchezza m'opprime, o figlio; Ai nostri monti - Azucena (Irene Dalis), Manrico (Franco Corelli).wav

Peak level 61.6 %
Extraction speed 3.5 X
Track quality 100.0 %
Test CRC 23C00DCB
Copy CRC 23C00DCB
Track not present in AccurateRip database
Copy OK

Track 16

Filename C:\EAC Rips\16 Il Trovatore - Che! Non m'inganna quel fioco lume - Manrico (Franco Corelli), Leonora (Leontyne Price).wav

Peak level 70.8 %
Extraction speed 3.0 X
Track quality 100.0 %
Test CRC 7D7E7C9C
Copy CRC 7D7E7C9C
Track not present in AccurateRip database
Copy OK

Track 17

Filename C:\EAC Rips\17 Il Trovatore - Ha quest'infame l'amor - Manrico (Franco Corelli), Leonora (Leontyne Price), Azucena (Irene Dalis).wav

Peak level 63.2 %
Extraction speed 3.5 X
Track quality 100.0 %
Test CRC EAE66FF4
Copy CRC EAE66FF4
Track not present in AccurateRip database
Copy OK

Track 18

Filename C:\EAC Rips\18 Il Trovatore - Ti scosta!; Prima che d'altri vivere - Manrico (Franco Corelli), Leonora (Leontyne Price), Di Luna (Mario Sereni), Azucena (Irene Dalis).wav

Peak level 70.3 %
Extraction speed 4.0 X
Track quality 100.0 %
Test CRC C57C438E
Copy CRC C57C438E
Track not present in AccurateRip database
Copy OK


None of the tracks are present in the AccurateRip database

No errors occurred

End of status report

–– CUETools DB Plugin V2.1.3

[CTDB TOCID: NF.qfA62blCb6OONAuCKK_Q_Njc-] disk not present in database, Submit result: NF.qfA62blCb6OONAuCKK_Q_Njc- has been uploaded


==== Log checksum 5533ECFF547AEC16D140F7FEEAA80AB7BA908729815AEF5B31F02DED5870458E ====


Thanks to the original releaser
Download:

Filepost

CD 1 | CD 2
Scans

Uploaded

CD 1 | CD 2
Scans