Subcategories

Daniele Callegari, Orchestra e Coro del Teatro Regio di Parma - Verdi: Simon Boccanegra (2012) [Blu-Ray]

Posted By: Vilboa
Daniele Callegari, Orchestra e Coro del Teatro Regio di Parma - Verdi: Simon Boccanegra (2012) [Blu-Ray]

Daniele Callegari, Orchestra e Coro del Teatro Regio di Parma - Verdi: Simon Boccanegra (2012) [Blu-Ray]
BluRay | BDMV | MPEG-4 AVC Video / 1080i / 29,970 fps | 136 min | 39,7 Gb
Audio1: Italian / LPCM Audio / 2.0 / 24-bit | Audio2: DTS-HD Master Audio / 5.1 / 48 kHz / 24-bit

BluRay-rip | AVC | MKV 1920x1080 / 6215 kbps / 29,97 fps | 136 min | 7,41 Gb
Audio: Italian / DTS / 6ch / 48.0 KHz / 24 bits
Classical | C Major | Sub: Italian, English, German, French, Spanish, Chinese, Korean, Japanese

Parma’s Boccanegra is Leo Nucci…The handsome voice, which once seemed on the light side for Verdi’s heavier, darker title roles, now has the apposite color and weight, and it remains surprisingly firm and focused…he’s honest, commanding and deeply moving. Honest commitment distinguishes his colleagues, too. Tamar Iveri…[has] a lovely, full lyric voice with a welcome authority at bottom, steered by fine musicianship…and a lively, sympathetic temperament and presence. Francesco Meli…sings handsomely and looks properly romantic…Roberto Scandiuzzi…makes a fine, idiomatic Fiesco; and Simone Piazzola…gives promise of a major-league Boccanegra to come. Daniele Callegari, in Parma’s pit, lets the score unfold naturally and compellingly. (Opera News)

Cast:
Simon Boccanegra – Leo Nucci
Jacopo Fiesco – Roberto Scandiuzzi
Paolo Albiani – Simone Piazzola
Pietro – Paolo Pecchioli
Amelia (Maria Boccanegra) – Tamar Iveri
Gabriele Adorno – Francesco Meli
Un capitano dei balestrieri – Luca Casalin
Un’ancella di Amelia – Olena Kharachko
Orchestra e Coro del Teatro Regio di Parma
Conductor – Daniele Callegari


Disc Title: SIMON BOCCANEGRA
Disc Size: 42 654 094 686 bytes
Protection: AACS
BD-Java: No
Playlist: 00001.MPLS
Size: 37 404 850 176 bytes
Length: 2:16:55.407
Total Bitrate: 36,42 Mbps
Video: MPEG-4 AVC Video / 28450 kbps / 1080i / 29,970 fps / 16:9 / High Profile 4.1
Audio: Italian / LPCM Audio / 2.0 / 48 kHz / 2304 kbps / 24-bit
Audio: Italian / DTS-HD Master Audio / 5.1 / 48 kHz / 3671 kbps / 24-bit (DTS Core: 5.1 / 48 kHz / 1509 kbps / 24-bit)
Subtitle: Italian / 14,509 kbps
Subtitle: English / 16,567 kbps
Subtitle: German / 17,472 kbps
Subtitle: French / 16,695 kbps
Subtitle: Spanish / 15,965 kbps
Subtitle: Chinese / 15,915 kbps
Subtitle: Korean / 15,016 kbps
Subtitle: Japanese / 13,820 kbps


General
Unique ID : 193017364663989792475788473990102966924 (0x9135CAD0320231FEA4DBE3FBC944E28C)
Complete name : C:\Simon_Boccanegra.mkv
Format : Matroska
Format version : Version 2
File size : 7.41 GiB
Duration : 2h 16mn
Overall bit rate : 7 776 Kbps
Movie name : Simon_Boccanegra
Encoded date : UTC 2018-01-29 09:06:29
Writing application : DVDFab 9.1.6.8
Writing library : libebml v0.7.8 + libmatroska v0.8.1

Video
ID : 1
Format : AVC
Format/Info : Advanced Video Codec
Format profile : High@L4.1
Format settings, CABAC : Yes
Format settings, ReFrames : 2 frames
Codec ID : V_MPEG4/ISO/AVC
Duration : 2h 16mn
Bit rate : 6 215 Kbps
Width : 1 920 pixels
Height : 1 080 pixels
Display aspect ratio : 16:9
Frame rate mode : Constant
Frame rate : 29.970 fps
Color space : YUV
Chroma subsampling : 4:2:0
Bit depth : 8 bits
Scan type : Progressive
Bits/(Pixel*Frame) : 0.100
Stream size : 5.83 GiB (79%)
Writing library : x264 core 142
Encoding settings : cabac=1 / ref=1 / deblock=1:-1:-1 / analyse=0x3:0 / me=hex / subme=5 / psy=0 / mixed_ref=0 / me_range=16 / chroma_me=1 / trellis=0 / 8x8dct=1 / cqm=0 / deadzone=21,11 / fast_pskip=1 / chroma_qp_offset=0 / threads=8 / lookahead_threads=2 / sliced_threads=0 / nr=0 / decimate=1 / interlaced=0 / bluray_compat=0 / constrained_intra=0 / bframes=2 / b_pyramid=0 / b_adapt=1 / b_bias=0 / direct=1 / weightb=1 / open_gop=0 / weightp=0 / keyint=24 / keyint_min=13 / scenecut=40 / intra_refresh=0 / rc=abr / mbtree=0 / bitrate=6215 / ratetol=1.0 / qcomp=0.60 / qpmin=0 / qpmax=69 / qpstep=4 / ip_ratio=1.40 / pb_ratio=1.30 / aq=1:1.00
Default : Yes
Forced : No
Color primaries : BT.709
Transfer characteristics : BT.709
Matrix coefficients : BT.709
Color range : Limited

Audio
ID : 2
Format : DTS
Format/Info : Digital Theater Systems
Mode : 16
Format settings, Endianness : Big
Codec ID : A_DTS
Duration : 2h 16mn
Bit rate mode : Constant
Bit rate : 1 509 Kbps
Channel(s) : 6 channels
Channel positions : Front: L C R, Side: L R, LFE
Sampling rate : 48.0 KHz
Bit depth : 24 bits
Compression mode : Lossy
Stream size : 1.44 GiB (19%)
Language : Italian
Default : Yes
Forced : No

Text #1
ID : 3
Format : VobSub
Codec ID : S_VOBSUB
Codec ID/Info : The same subtitle format used on DVDs
Language : Italian
Default : Yes
Forced : No

Text #2
ID : 4
Format : VobSub
Codec ID : S_VOBSUB
Codec ID/Info : The same subtitle format used on DVDs
Language : English
Default : No
Forced : No

Text #3
ID : 5
Format : VobSub
Codec ID : S_VOBSUB
Codec ID/Info : The same subtitle format used on DVDs
Language : German
Default : No
Forced : No

Text #4
ID : 6
Format : VobSub
Codec ID : S_VOBSUB
Codec ID/Info : The same subtitle format used on DVDs
Language : French
Default : No
Forced : No

Text #5
ID : 7
Format : VobSub
Codec ID : S_VOBSUB
Codec ID/Info : The same subtitle format used on DVDs
Language : Spanish
Default : No
Forced : No

Text #6
ID : 8
Format : VobSub
Codec ID : S_VOBSUB
Codec ID/Info : The same subtitle format used on DVDs
Language : Chinese
Default : No
Forced : No

Text #7
ID : 9
Format : VobSub
Codec ID : S_VOBSUB
Codec ID/Info : The same subtitle format used on DVDs
Language : Korean
Default : No
Forced : No

Text #8
ID : 10
Format : VobSub
Codec ID : S_VOBSUB
Codec ID/Info : The same subtitle format used on DVDs
Language : Japanese
Default : No
Forced : No

Menu
00:00:00.000 : en:Chapter 01
00:01:51.744 : en:Chapter 02
00:06:49.876 : en:Chapter 03
00:08:39.151 : en:Chapter 04
00:11:48.674 : en:Chapter 05
00:17:11.997 : en:Chapter 06
00:20:35.367 : en:Chapter 07
00:23:14.693 : en:Chapter 08
00:27:14.265 : en:Chapter 09
00:29:07.378 : en:Chapter 10
00:33:02.113 : en:Chapter 11
00:35:30.027 : en:Chapter 12
00:40:00.798 : en:Chapter 13
00:44:46.116 : en:Chapter 14
00:48:00.010 : en:Chapter 15
00:52:01.284 : en:Chapter 16
00:56:46.770 : en:Chapter 17
00:58:09.118 : en:Chapter 18
01:06:11.600 : en:Chapter 19
01:08:36.745 : en:Chapter 20
01:13:24.032 : en:Chapter 21
01:17:44.292 : en:Chapter 22
01:20:35.463 : en:Chapter 23
01:22:16.231 : en:Chapter 24
01:23:47.856 : en:Chapter 25
01:28:36.944 : en:Chapter 26
01:32:51.198 : en:Chapter 27
01:38:04.511 : en:Chapter 28
01:41:20.707 : en:Chapter 29
01:44:58.392 : en:Chapter 30
01:46:26.012 : en:Chapter 31
01:52:41.121 : en:Chapter 32
01:57:18.664 : en:Chapter 33
02:02:34.647 : en:Chapter 34
02:04:46.512 : en:Chapter 35
02:11:36.521 : en:Chapter 36
02:14:07.672 : en:Chapter 37

All screenshots taken from BDRip

Daniele Callegari, Orchestra e Coro del Teatro Regio di Parma - Verdi: Simon Boccanegra (2012) [Blu-Ray]