Tags
Language
Tags

Veronica Unlimited - Gimme More... The Best Of The Singles Collection 1977-1982 (2003)

Posted By: Rtax
Veronica Unlimited - Gimme More... The Best Of The Singles Collection 1977-1982 (2003)

Veronica Unlimited - Gimme More… The Best Of The Singles Collection 1977-1982 (2003)
EAC Rip | FLAC (tracks, cue, log, scans) - 365 MB
49:26 | Disco, Europop | Label: Phonogram

Veronica Vasquez, mononymously known to listeners as Veronica, was born on July 24th 1974 in Queens, New York to two Cuban parents. Debuting in 1995 with the single “Without Love”, a slow-mo R&B number released via Mercury Records, the young singer went on to release her first album, V… As In Veronica, just two months later. The LP drew clear influences from hip-hop and included productions from R&B heavyweights Darkchild and Dallas Austin. While it failed to enter the Billboard 200, Veronica would enjoy a greater commercial performance with her 1997 follow-up, Rise. The album’s lead single, “No One But You”, featured guest vocals from Bad Boy Records affiliate Craig Mack, and its title track saw her team up with Terror Squad members Big Pun and Cuban Link. However, despite her grounding in hip-hop, it would be house music which propelled her into the spotlight. A self-titled remix album, consisting of eight dance reinterpretations of tracks from Rise, landed in 2000 as one of the first releases on producer Jellybean Benitez’ label, Jellybean Recordings. DJ/producer Johnny Vicious’ club-ready repurposing of “Let Me Go… Release Me” topped the Billboard Hot Dance Music/Club Play Chart, and subsequent remixes of “Someone to Hold” and “I’m in Love” – the latter a cover of the Evelyn “Champagne” King song of the same name – both entered the chart’s top ten, too. Amassing a loyal following among gay fans, she took a brief break from the club scene to star in the musical Selena Forever before returning with a new dance single in 2006 entitled “Relentless… Just a Game”.

Tracklist
1. Gimme More (3:42)
2. What A Lousy Party (3:18)
3. I Wanna Dance With You (3:34)
4. New York City (3:43)
5. Right On (3:10)
6. Daddy (3:45)
7. Lost Love (3:22)
8. Ferme La Porte (5:08)
9. What Kind Of Dance Is This (3:41)
10. I Feel Like Dancing (3:17)
11. Love Me, Baby (2:34)
12. Sailing In The Sun (4:07)
13. Jet Legs (2:41)
14. Baby Baby (3:08)
Exact Audio Copy V1.3 from 2. September 2016

EAC extraction logfile from 21. April 2019, 13:31

Veronica Unlimited / The Best Of The Singles Collection 1977-1982

Used drive : ASUS DRW-24B3ST Adapter: 1 ID: 0

Read mode : Secure
Utilize accurate stream : Yes
Defeat audio cache : Yes
Make use of C2 pointers : No

Read offset correction : 6
Overread into Lead-In and Lead-Out : No
Fill up missing offset samples with silence : Yes
Delete leading and trailing silent blocks : No
Null samples used in CRC calculations : Yes
Used interface : Native Win32 interface for Win NT & 2000

Used output format : User Defined Encoder
Selected bitrate : 1024 kBit/s
Quality : High
Add ID3 tag : No
Command line compressor : C:\Program Files (x86)\Exact Audio Copy\FLAC\FLAC.EXE
Additional command line options : -8 -V -T "TITLE=%title%" -T "ARTIST=%artist%" -T "ALBUMARTIST=%albumartist%" -T "ALBUM=%albumtitle%" -T "DATE=%year%" -T "TRACKNUMBER=%tracknr%" -T "TRACKTOTAL=%numtracks%" -T "GENRE=%genre%" -T "COMMENT=%comment%" -T "PERFORMER=%albuminterpret%" -T "COMPOSER=%composer%" %source% -o %dest%


TOC of the extracted CD

Track | Start | Length | Start sector | End sector
––––––––––––––––––––––––––––-
1 | 0:00.00 | 3:42.26 | 0 | 16675
2 | 3:42.26 | 3:18.33 | 16676 | 31558
3 | 7:00.59 | 3:34.13 | 31559 | 47621
4 | 10:34.72 | 3:43.15 | 47622 | 64361
5 | 14:18.12 | 3:10.65 | 64362 | 78676
6 | 17:29.02 | 3:45.35 | 78677 | 95586
7 | 21:14.37 | 3:22.48 | 95587 | 110784
8 | 24:37.10 | 5:08.09 | 110785 | 133893
9 | 29:45.19 | 3:41.68 | 133894 | 150536
10 | 33:27.12 | 3:17.57 | 150537 | 165368
11 | 36:44.69 | 2:34.62 | 165369 | 176980
12 | 39:19.56 | 4:07.08 | 176981 | 195513
13 | 43:26.64 | 2:41.27 | 195514 | 207615
14 | 46:08.16 | 3:08.41 | 207616 | 221756


Range status and errors

Selected range

Filename E:\бСССР\0 NEW\Veronica Unlimited - The Best Of The Singles Collection 1977-1982.wav

Peak level 100.0 %
Extraction speed 5.9 X
Range quality 99.9 %
Test CRC 7B65E1D7
Copy CRC 7B65E1D7
Copy OK

No errors occurred


AccurateRip summary

Track 1 not present in database
Track 2 not present in database
Track 3 not present in database
Track 4 not present in database
Track 5 not present in database
Track 6 not present in database
Track 7 not present in database
Track 8 not present in database
Track 9 not present in database
Track 10 not present in database
Track 11 not present in database
Track 12 not present in database
Track 13 not present in database
Track 14 not present in database

None of the tracks are present in the AccurateRip database

End of status report

–– CUETools DB Plugin V2.1.6

[CTDB TOCID: 7MkivPCmY9.oZEpYCPR7auxt.7g-] disk not present in database
Submit result: 7MkivPCmY9.oZEpYCPR7auxt.7g- has been uploaded


==== Log checksum 9C6EFC2A248D529AD5F722A649D7877569B60FE5E7151D2BA2581782C2FFA40E ====