Subcategories

Vibravoid - Distortions (2009)

Posted By: Necromandus
Vibravoid - Distortions (2009)

Vibravoid - Distortions (2009)
EAC Rip | WV, IMG+CUE+LOG | 420 MB | MP3 CBR 320 Kbps | 130 MB |Complete HQ Scans (included, 30 MB)
Psychedelic Rock | Label: Nasoni Records | Catalog Number: NR91 | RAR 3% Rec. | RS.com

"Trip out with the wild and far out sounds of the paisley underground, the group will take you the centre of your mind. Swirling Mellotron sounds, aggressive Fuzz overloads and massive use of Space Echo will ensure a trip to the end of the road. Vibravoid create a timeless testament of the now sound with the right combination of the old and the new."

~ StonerRock.com
Tracklist:

1. Christmas on Earth - 3:16
2. Random Generated Future - 4:55
3. Eye Shaking King - 5:00
4. Save My Soul - 8:12
5. Mother Sky - 19:17
6. Save My Soul (Reprise) - 2:39
7. Mother Cubehead's Daily Black Out (Bonus Track) - 10:38

Exact Audio Copy V0.99 prebeta 4 from 23. January 2008

EAC extraction logfile from 20. December 2009, 22:06

Vibravoid / Destortions

Used drive : Optiarc DVD RW AD-7191A Adapter: 1 ID: 0

Read mode : Secure
Utilize accurate stream : Yes
Defeat audio cache : Yes
Make use of C2 pointers : No

Read offset correction : 6
Overread into Lead-In and Lead-Out : No
Fill up missing offset samples with silence : Yes
Delete leading and trailing silent blocks : No
Null samples used in CRC calculations : Yes
Used interface : Installed external ASPI interface

Used output format : Internal WAV Routines
Sample format : 44.100 Hz; 16 Bit; Stereo


TOC of the extracted CD

Track | Start | Length | Start sector | End sector
––––––––––––––––––––––––––––-
1 | 0:00.00 | 3:15.70 | 0 | 14694
2 | 3:15.70 | 4:54.54 | 14695 | 36798
3 | 8:10.49 | 5:00.28 | 36799 | 59326
4 | 13:11.02 | 8:11.58 | 59327 | 96209
5 | 21:22.60 | 19:16.39 | 96210 | 182948
6 | 40:39.24 | 2:39.14 | 182949 | 194887
7 | 43:18.38 | 10:38.05 | 194888 | 242742


Range status and errors

Selected range

Filename G:\-= lossless work =-\Vibravoid - Destortions.wav

Peak level 100.0 %
Range quality 100.0 %
Copy CRC FD0F1337
Copy OK

No errors occurred


AccurateRip summary

Track 1 not present in database
Track 2 not present in database
Track 3 not present in database
Track 4 not present in database
Track 5 not present in database
Track 6 not present in database
Track 7 not present in database

None of the tracks are present in the AccurateRip database

End of status report

auCDtect: CD records authenticity detector, version 0.8.2
Copyright © 2004 Oleg Berngardt. All rights reserved.
Copyright © 2004 Alexander Djourik. All rights reserved.
––––––––––––––––––––––––––––––
Processing file: [Vibravoid - Destortions.wav]
Detected average hi-boundary frequency: 2.032049e+004 Hz
Detected average lo-boundary frequency: 1.265000e+004 Hz
Detected average hi-cut frequency: 2.155626e+004 Hz
Detected average lo-cut frequency: 1.484574e+004 Hz
Maximum probablis boundary frequency: 2.189100e+004 Hz
Coefficient of nonlinearity of a phase: 5.376040e-002
First order smothness: 3.954992e-001
Second order smothness: 6.681324e-001

––––––––––––––––––––––––––––––
This track looks like CDDA with probability 100%

––––––––––––––––––––––––––––––
Final Conclusion:
––––––––––––––––––––––––––––––
These tracks looks like CDDA with probability 100%

• Christian Koch - vocals, guitar
• Robert Braune - drums
• Martin Lammert - bass

Recorded, mixed and produced by Vibravoid, Dusseldorf, March 2009.
'Mother Cubehead's Daily Black Out' recorded and mixed June 2008.

All songs written by Vibravoid except 'Eye Shaking King' by Amon Düül II.

lossless* (wv + scans, 420Mb):
LOS.part1.rar
LOS.part2.rar
LOS.part3.rar
LOS.part4.rar
LOS.part5.rar

mp3 (cbr320, 130Mb):
MP3.part1.rar
MP3.part2.rar

PASSWORD: Necromandus
* - EAC Image, standard LOG, embedded cuesheet, Foobar2000 ready