Subcategories

Victoria - The Mystery of the Cross - The Sixteen

Posted By: cayel69
Victoria - The Mystery of the Cross - The Sixteen


Tomás Luis de Victoria - The Mystery of the Cross - The Sixteen - Harry Christophers
Classical, Renaissance - 1CD - EAC - FLAC, CUE, LOG - Scans, covers - 264 Mb
Recorded at St. Judes on the Hill - London - 2004
Label CORO COR16021
Recording producer: Mark Brown
Series advisers: Martyn Imrie and Bruno Turner


Scholar, mystic, priest, singer, organist and composer -six persons all rolled into one and that is, quite simply, why Victoria is the most outstanding composer of the Renaissance. He devoted his life to the church, and his works reveal such heartfelt passion that there are times, in performance, when we are almost overwhelmed by their intensity. Our Victoria series aims to show not only the deeply felt emotion of the Lenten settings but also his ability to be joyously inventive and highly sensual, as in his treatment of texts from "The Song of Songs".

This is what recording should be about…excellent performances and recorded sound…beautiful and moving. GRAMOPHONE

Exact Audio Copy V0.99 prebeta 5 from 4. May 2009

Archivo Log de extracciones desde 28. Diciembre 2009, 0:21

The Sixteen / Victoria - The Mystery of the Cross

Usar unidad : HL-DT-STDVDRAM_GSA-H60N Adapter: 3 ID: 1

Modo de Lectura : Seguro
Utilizar Corriente Exacta : Sí
Descartar Audio caché : No
Utilizar los punteros C2 : No

Corrección de Desplazamiento de Lectura : 667
Sobreleer tanto en Lead-In como en Lead-Out : No
Rellenar las muestras faltantes con silencios : Sí
Eliminar silencios inicial y final : No
Se han usado muestras nulas en los cálculos CRC : No
Interfaz usada : Interfaz propio de Win32 para Windowns NT y 2000

Formato de Salida utilizado : Compresor definido por el usuario
Bitrate seleccionado : 768 kBit/s
Calidad : Alta
Añadir Etiqueta ID3 : No
Compresor de linea de comandos : C:\Program Files\Exact Audio Copy\FLAC\FLAC.EXE
Opciones adicionales en línea de comandos : -6 -V -T "ARTIST=%a" -T "TITLE=%t" -T "ALBUM=%g" -T "DATE=%y" -T "TRACKNUMBER=%n" -T "GENRE=%m" -T "COMMENT=%e" %s -o %d


TOC del CD extraido

Pista | Inicio | Duración | Sector inicial | Sector final
––––––––––––––––––––––––––––––-
1 | 0:00.00 | 6:58.37 | 0 | 31386
2 | 6:58.37 | 7:06.28 | 31387 | 63364
3 | 14:04.65 | 6:25.00 | 63365 | 92239
4 | 20:29.65 | 10:13.62 | 92240 | 138276
5 | 30:43.52 | 4:20.38 | 138277 | 157814
6 | 35:04.15 | 6:29.35 | 157815 | 187024
7 | 41:33.50 | 5:38.50 | 187025 | 212424
8 | 47:12.25 | 8:37.12 | 212425 | 251211
9 | 55:49.37 | 5:04.00 | 251212 | 274011
10 | 60:53.37 | 6:14.55 | 274012 | 302116
11 | 67:08.17 | 8:59.53 | 302117 | 342594


Gama de estados y errores

Seleccionar gama

Nombre de Archivo C:\Users\Carlos\Desktop\Tomás Luis de Victoria - The Mystery of the Cross - The Sixteen.wav

Nivel Pico 75.6 %
Gama de Calidad 100.0 %
Copiar CRC 74D3555B
Copia OK

Sin Errores


Resumen AccurateRip

Pista 1 no presente en la base de datos
Pista 2 no presente en la base de datos
Pista 3 no presente en la base de datos
Pista 4 no presente en la base de datos
Pista 5 no presente en la base de datos
Pista 6 no presente en la base de datos
Pista 7 no presente en la base de datos
Pista 8 no presente en la base de datos
Pista 9 no presente en la base de datos
Pista 10 no presente en la base de datos
Pista 11 no presente en la base de datos

Ninguna de las pistas está presente en la base de datos AccurateRip

Final del Informe



links:

http://rapidshare.com/files/326967451/VicMysotCross.part1.rar
http://rapidshare.com/files/326974612/VicMysotCross.part2.rar
http://rapidshare.com/files/326978192/VicMysotCross.part3.rar
http://rapidshare.com/files/324343380/Scans_Victoria_MOTC.rar