Subcategories

Vintage Trouble - The Bomb Shelter Sessions (2010) {Limited Edition}

Posted By: popsakov
Vintage Trouble - The Bomb Shelter Sessions (2010) {Limited Edition}

Vintage Trouble - The Bomb Shelter Sessions (2010)
2CD | EAC Rip | FLAC (Img) + Cue + Log ~ 445 Mb | MP3 CBR320 ~ 173 Mb
Scans Included (JPG, 600 dpi) | RAR 5% Recovery
Blues, Rock, R&B, Funk, Soul | Vintage Trouble Publishing #5060156654446

Echoing the vintage blues-rock of Chuck Berry and Led Zeppelin, and the timeless soul of Otis Redding and Sam Cooke, The Bomb Shelter Sessions is Californian four-piece Vintage Trouble's attempt to re-create the era of vinyl records and juke joints. Produced by Rogers Masson (Daughtry, Day of Fire), and recorded live in just three days at the Bomb Shelter studios in Laurel Canyon, its 11 retro tracks, described by James Brown-esque frontman Ty Taylor as "primitive soul," include the singles "Nancy Lee" and "Nobody Told Me."
~ Jon O'Brien, All Music

Vintage Trouble - The Bomb Shelter Sessions (2010) {Limited Edition}


***************

Vintage Trouble - The Bomb Shelter Sessions (2010) {Limited Edition}

Vintage Trouble - The Bomb Shelter Sessions (2010) {Limited Edition}

Track List CD1:

01. Blues Hand Me Down [03:46]
02. Still And Always Will [03:24]
03. Nancy Lee [03:42]
04. Gracefully [03:39]
05. You Better Believe It [04:11]
06. Not Alright By Me [03:21]
07. Nobody Told Me [04:37]
08. Jezzebella [04:01]
09. Total Strangers [03:35]
10. Run Outta You [08:14]

Exact Audio Copy V1.1 from 23. June 2015

EAC extraction logfile from 30. May 2016, 13:42

Vintage Trouble / The Bomb Shelter Sessions

Used drive : hp CDDVDW SH-216BB Adapter: 1 ID: 0

Read mode : Secure
Utilize accurate stream : Yes
Defeat audio cache : Yes
Make use of C2 pointers : No

Read offset correction : 6
Overread into Lead-In and Lead-Out : No
Fill up missing offset samples with silence : Yes
Delete leading and trailing silent blocks : No
Null samples used in CRC calculations : Yes
Used interface : Native Win32 interface for Win NT & 2000

Used output format : Internal WAV Routines
Sample format : 44.100 Hz; 16 Bit; Stereo


TOC of the extracted CD

Track | Start | Length | Start sector | End sector
––––––––––––––––––––––––––––-
1 | 0:00.00 | 3:45.64 | 0 | 16938
2 | 3:45.64 | 3:23.69 | 16939 | 32232
3 | 7:09.58 | 3:41.32 | 32233 | 48839
4 | 10:51.15 | 3:38.59 | 48840 | 65248
5 | 14:29.74 | 4:10.17 | 65249 | 84015
6 | 18:40.16 | 3:20.14 | 84016 | 99029
7 | 22:00.30 | 4:36.21 | 99030 | 119750
8 | 26:36.51 | 4:00.17 | 119751 | 137767
9 | 30:36.68 | 3:34.18 | 137768 | 153835
10 | 34:11.11 | 8:13.48 | 153836 | 190858


Range status and errors

Selected range

Filename C:\Users\Arturs\Desktop\Vintage Trouble - The Bomb Shelter Sessions.wav

Copy aborted

End of status report

==== Log checksum 08E0E612A6EC8C8EFCD99BA6832B90D2D73E853573FDFCACC515F2565D3C1257 ====

––––––––––––––––––––––––––––––

Exact Audio Copy V1.1 from 23. June 2015

EAC extraction logfile from 31. May 2016, 12:02

Vintage Trouble / The Bomb Shelter Sessions

Used drive : hp CDDVDW SH-216BB Adapter: 1 ID: 0

Read mode : Secure
Utilize accurate stream : Yes
Defeat audio cache : Yes
Make use of C2 pointers : No

Read offset correction : 6
Overread into Lead-In and Lead-Out : No
Fill up missing offset samples with silence : Yes
Delete leading and trailing silent blocks : No
Null samples used in CRC calculations : Yes
Used interface : Native Win32 interface for Win NT & 2000

Used output format : Internal WAV Routines
Sample format : 44.100 Hz; 16 Bit; Stereo


TOC of the extracted CD

Track | Start | Length | Start sector | End sector
––––––––––––––––––––––––––––-
1 | 0:00.00 | 3:45.64 | 0 | 16938
2 | 3:45.64 | 3:23.69 | 16939 | 32232
3 | 7:09.58 | 3:41.32 | 32233 | 48839
4 | 10:51.15 | 3:38.59 | 48840 | 65248
5 | 14:29.74 | 4:10.17 | 65249 | 84015
6 | 18:40.16 | 3:20.14 | 84016 | 99029
7 | 22:00.30 | 4:36.21 | 99030 | 119750
8 | 26:36.51 | 4:00.17 | 119751 | 137767
9 | 30:36.68 | 3:34.18 | 137768 | 153835
10 | 34:11.11 | 8:13.48 | 153836 | 190858


Range status and errors

Selected range

Filename C:\Users\Arturs\Desktop\Vintage Trouble - The Bomb Shelter Sessions.wav

Peak level 98.8 %
Extraction speed 2.8 X
Range quality 99.9 %
Test CRC A14DE56D
Copy CRC A14DE56D
Copy OK

No errors occurred


AccurateRip summary

Track 1 accurately ripped (confidence 27) [275865B6] (AR v2)
Track 2 accurately ripped (confidence 27) [6EC36EC6] (AR v2)
Track 3 accurately ripped (confidence 27) [088BD716] (AR v2)
Track 4 accurately ripped (confidence 27) [BBD2AAA7] (AR v2)
Track 5 accurately ripped (confidence 27) [0B187750] (AR v2)
Track 6 accurately ripped (confidence 27) [6C13089D] (AR v2)
Track 7 accurately ripped (confidence 27) [F0BE57E6] (AR v2)
Track 8 accurately ripped (confidence 27) [6A9D1625] (AR v2)
Track 9 accurately ripped (confidence 27) [59760116] (AR v2)
Track 10 accurately ripped (confidence 27) [D459E3A3] (AR v2)

All tracks accurately ripped

End of status report

–– CUETools DB Plugin V2.1.6

[CTDB TOCID: HjYlli2wrv.QjYiYGZdeKt7PhJE-] found
Submit result: HjYlli2wrv.QjYiYGZdeKt7PhJE- has been confirmed
Track | CTDB Status
1 | (79/79) Accurately ripped
2 | (79/79) Accurately ripped
3 | (79/79) Accurately ripped
4 | (79/79) Accurately ripped
5 | (79/79) Accurately ripped
6 | (78/79) Accurately ripped
7 | (78/79) Accurately ripped
8 | (78/79) Accurately ripped
9 | (78/79) Accurately ripped
10 | (78/79) Accurately ripped


==== Log checksum D88227D7DB340B58CBA99E8670F99E8B77DC61C1EFCA54C246AB35B263792046 ====

foobar2000 1.2.6 / Dynamic Range Meter 1.1.1
log date: 2016-06-02 15:38:34

––––––––––––––––––––––––––––––––––––––––
Analyzed: Vintage Trouble / The Bomb Shelter Sessions
––––––––––––––––––––––––––––––––––––––––

DR Peak RMS Duration Track
––––––––––––––––––––––––––––––––––––––––
DR6 -0.10 dB -7.67 dB 3:46 01-Blues Hand Me Down
DR8 -0.10 dB -9.13 dB 3:24 02-Still And Always Will
DR7 -0.10 dB -8.37 dB 3:41 03-Nancy Lee
DR9 -0.10 dB -10.75 dB 3:39 04-Gracefully
DR8 -0.10 dB -10.25 dB 4:10 05-You Better Believe It
DR8 -0.10 dB -10.90 dB 3:20 06-Not Alright By Me
DR7 -0.10 dB -9.60 dB 4:36 07-Nobody Told Me
DR8 -0.10 dB -8.99 dB 4:00 08-Jezzebella
DR7 -0.10 dB -8.42 dB 3:34 09-Total Strangers
DR7 -0.10 dB -10.15 dB 8:14 10-Run Outta You
––––––––––––––––––––––––––––––––––––––––

Number of tracks: 10
Official DR value: DR8

Samplerate: 44100 Hz
Channels: 2
Bits per sample: 16
Bitrate: 921 kbps
Codec: FLAC
================================================================================

[CUETools log; Date: 02.06.2016 15:38:32; Version: 2.1.5]
[CTDB TOCID: HjYlli2wrv.QjYiYGZdeKt7PhJE-] found.
Track | CTDB Status
1 | (80/80) Accurately ripped
2 | (80/80) Accurately ripped
3 | (80/80) Accurately ripped
4 | (80/80) Accurately ripped
5 | (80/80) Accurately ripped
6 | (79/80) Accurately ripped
7 | (79/80) Accurately ripped
8 | (79/80) Accurately ripped
9 | (79/80) Accurately ripped
10 | (79/80) Accurately ripped
[AccurateRip ID: 000e7929-00754462-7609f00a] found.
Track [ CRC | V2 ] Status
01 [39ca6a3c|275865b6] (07+27/68) Accurately ripped
02 [9c47a04a|6ec36ec6] (07+27/68) Accurately ripped
03 [05e89f7e|088bd716] (07+27/68) Accurately ripped
04 [95f65be1|bbd2aaa7] (07+27/68) Accurately ripped
05 [907352ae|0b187750] (07+27/68) Accurately ripped
06 [0f923134|6c13089d] (07+27/68) Accurately ripped
07 [ac20de1a|f0be57e6] (07+27/68) Accurately ripped
08 [e8c633c6|6a9d1625] (07+27/68) Accurately ripped
09 [060278b6|59760116] (07+27/67) Accurately ripped
10 [3ce05f05|d459e3a3] (07+27/67) Accurately ripped
Offsetted by -224:
01 [b09b323c] (04/68) Accurately ripped
02 [41ae6e0a] (04/68) Accurately ripped
03 [89f667fe] (04/68) Accurately ripped
04 [0721b401] (04/68) Accurately ripped
05 [3237be0e] (04/68) Accurately ripped
06 [b12f8574] (04/68) Accurately ripped
07 [d730ba9a] (04/68) Accurately ripped
08 [0fc69ce6] (04/68) Accurately ripped
09 [29dcff70] (03/67) Accurately ripped
10 [86c7349b] (03/67) Accurately ripped
Offsetted by -91:
01 [720f3b7c] (00/68) No match (V2 was not tested)
02 [8f7963e0] (00/68) No match (V2 was not tested)
03 [9b8e38f2] (00/68) No match (V2 was not tested)
04 [dbeff7ae] (00/68) No match (V2 was not tested)
05 [822b1e4d] (00/68) No match (V2 was not tested)
06 [813a1b6e] (00/68) No match (V2 was not tested)
07 [259f4fae] (00/68) No match (V2 was not tested)
08 [b09e5e7b] (00/68) No match (V2 was not tested)
09 [36a49b24] (00/67) No match (V2 was not tested)
10 [b26cccd9] (00/67) No match (V2 was not tested)
Offsetted by 6:
01 [5d771bbc] (00/68) No match (V2 was not tested)
02 [1347287e] (00/68) No match (V2 was not tested)
03 [b015f7d6] (00/68) No match (V2 was not tested)
04 [be5c0e17] (00/68) No match (V2 was not tested)
05 [be673460] (00/68) No match (V2 was not tested)
06 [ab3dfa60] (00/68) No match (V2 was not tested)
07 [a41e2832] (00/68) No match (V2 was not tested)
08 [65719eac] (00/68) No match (V2 was not tested)
09 [7f0bbb33] (00/67) No match (V2 was not tested)
10 [32cd7b44] (00/67) No match (V2 was not tested)
Offsetted by 664:
01 [5071d03c] (00/68) No match (V2 was not tested)
02 [0d692c1a] (00/68) No match (V2 was not tested)
03 [ec2d7ade] (00/68) No match (V2 was not tested)
04 [61ecbb39] (00/68) No match (V2 was not tested)
05 [c33638f6] (00/68) No match (V2 was not tested)
06 [b07fd2e4] (00/68) No match (V2 was not tested)
07 [359f907a] (00/68) No match (V2 was not tested)
08 [22e069de] (00/68) No match (V2 was not tested)
09 [88a3e27f] (00/67) No match (V2 was not tested)
10 [b10e340c] (00/67) No match (V2 was not tested)

Track Peak [ CRC32 ] [W/O NULL] [ LOG ]
– 98,8 [A14DE56D] [DEB80551] CRC32
01 98,8 [1B50C3F3] [D7A9AE5A]
02 98,8 [795FEB23] [C7323905]
03 98,8 [3AA7ADE7] [49567916]
04 98,8 [71F29135] [2B8B6771]
05 98,8 [42FA3179] [7A3A66CD]
06 98,8 [D651E6CD] [7F34ADDB]
07 98,8 [BD1D1925] [B9082E25]
08 98,8 [6FCDBEA2] [E257CD15]
09 98,8 [5A13A75F] [CCB14F0B]
10 98,8 [BE4917EE] [7690E736]

Vintage Trouble - The Bomb Shelter Sessions (2010) {Limited Edition}

Vintage Trouble - The Bomb Shelter Sessions (2010) {Limited Edition}

Track List CD2 - Bonus Disc:

01. Love With Me (live) [04:42]
02. Nancy Lee (live) [03:33]
03. Come On By [03:51]
04. Total Strangers (Round 2) [03:18]
05. World's Gonna Have to Take a Turn Around [02:39]

Exact Audio Copy V1.1 from 23. June 2015

EAC extraction logfile from 30. May 2016, 13:12

Vintage Trouble / The Bomb Shelter Sessions (Bonus CD)

Used drive : hp CDDVDW SH-216BB Adapter: 1 ID: 0

Read mode : Secure
Utilize accurate stream : Yes
Defeat audio cache : Yes
Make use of C2 pointers : No

Read offset correction : 6
Overread into Lead-In and Lead-Out : No
Fill up missing offset samples with silence : Yes
Delete leading and trailing silent blocks : No
Null samples used in CRC calculations : Yes
Used interface : Native Win32 interface for Win NT & 2000

Used output format : Internal WAV Routines
Sample format : 44.100 Hz; 16 Bit; Stereo


TOC of the extracted CD

Track | Start | Length | Start sector | End sector
––––––––––––––––––––––––––––-
1 | 0:00.00 | 4:41.15 | 0 | 21089
2 | 4:41.15 | 3:32.61 | 21090 | 37050
3 | 8:14.01 | 3:50.18 | 37051 | 54318
4 | 12:04.19 | 3:17.19 | 54319 | 69112
5 | 15:21.38 | 2:38.31 | 69113 | 80993


Range status and errors

Selected range

Filename C:\Users\Arturs\Desktop\Vintage Trouble - The Bomb Shelter Sessions (Bonus CD).wav

Peak level 100.0 %
Extraction speed 2.4 X
Range quality 100.0 %
Test CRC 0303828E
Copy CRC 0303828E
Copy OK

No errors occurred


AccurateRip summary

Track 1 accurately ripped (confidence 9) [FB015270] (AR v2)
Track 2 accurately ripped (confidence 9) [3F835CF4] (AR v2)
Track 3 accurately ripped (confidence 9) [691C27E4] (AR v2)
Track 4 accurately ripped (confidence 9) [E5F75ECF] (AR v2)
Track 5 accurately ripped (confidence 9) [F3B86ABE] (AR v2)

All tracks accurately ripped

End of status report

–– CUETools DB Plugin V2.1.6

[CTDB TOCID: r6QTmLiC3ATSUtSOUUNe_7P3Nng-] found
Submit result: r6QTmLiC3ATSUtSOUUNe_7P3Nng- has been confirmed
Track | CTDB Status
1 | (12/12) Accurately ripped
2 | (12/12) Accurately ripped
3 | (12/12) Accurately ripped
4 | (12/12) Accurately ripped
5 | (12/12) Accurately ripped


==== Log checksum AE34BAA3F5780A7DE4100912204FB538018E72F7FB141EFC8A67AC9A79A84ADC ====

foobar2000 1.2.6 / Dynamic Range Meter 1.1.1
log date: 2016-06-02 15:32:54

––––––––––––––––––––––––––––––––––––––––
Analyzed: Vintage Trouble / The Bomb Shelter Sessions (Bonus CD)
––––––––––––––––––––––––––––––––––––––––

DR Peak RMS Duration Track
––––––––––––––––––––––––––––––––––––––––
DR7 0.00 dB -8.58 dB 4:41 01-Love With Me (live)
DR13 0.00 dB -14.23 dB 3:33 02-Nancy Lee (live)
DR7 0.00 dB -8.14 dB 3:50 03-Come On By
DR13 -0.41 dB -15.63 dB 3:17 04-Total Strangers (Round 2)
DR7 0.00 dB -8.18 dB 2:38 05-World's Gonna Have to Take a Turn Around
––––––––––––––––––––––––––––––––––––––––

Number of tracks: 5
Official DR value: DR9

Samplerate: 44100 Hz
Channels: 2
Bits per sample: 16
Bitrate: 910 kbps
Codec: FLAC
================================================================================

[CUETools log; Date: 02.06.2016 15:32:49; Version: 2.1.5]
[CTDB TOCID: r6QTmLiC3ATSUtSOUUNe_7P3Nng-] found.
Track | CTDB Status
1 | (13/13) Accurately ripped
2 | (13/13) Accurately ripped
3 | (13/13) Accurately ripped
4 | (13/13) Accurately ripped
5 | (13/13) Accurately ripped
[AccurateRip ID: 000401a7-001257db-3f043705] found.
Track [ CRC | V2 ] Status
01 [ba765da6|fb015270] (02+09/11) Accurately ripped
02 [83037467|3f835cf4] (02+09/11) Accurately ripped
03 [89859185|691c27e4] (02+09/11) Accurately ripped
04 [6790751d|e5f75ecf] (02+09/11) Accurately ripped
05 [7984cc07|f3b86abe] (02+09/11) Accurately ripped

Track Peak [ CRC32 ] [W/O NULL] [ LOG ]
– 100,0 [0303828E] [17BB65A5] CRC32
01 100,0 [40D24653] [45C2D1BA]
02 100,0 [CD25622C] [75FD1B10]
03 99,9 [116F01BE] [9650297D]
04 95,4 [0BD3451F] [C84C6399]
05 99,9 [365F1E5A] [E36371F5]

Vintage Trouble - The Bomb Shelter Sessions (2010) {Limited Edition}

All thanks go to London

Visit my blog!

Download:
Nitroflare: FLAC-CD1 | FLAC-CD2 | mp3-CD1 | mp3-CD2