Subcategories
Tags
Language
Tags

Vir Unis - 2 Studio Albums (1999-2000)

Posted By: gribovar
Vir Unis - 2 Studio Albums (1999-2000)

Vir Unis - 2 Studio Albums (1999-2000)
EAC Rip | FLAC (tracks+.cue+log) - 740 MB | MP3 CBR 320 kbps (LAME 3.93) - 333 MB | Covers - 191 MB
Genre: Ambient | RAR 3% Rec. | Label: GreenHouse Music

The Drift Inside (1999). Following on the heels of The Ambient Expanse, the first solo effort by Vir Unis, after collaborations with Steve Roach and Ma Ja Le, consists entirely of ambient floats and drifts, putting aside the 'fractal grooves' of Body Electric. Naturally, the closest similarity would be with the co-producer Steve Roach, yet Vir Unis already has his unique voice, already a sure hand with subtlety and nuance. There are 12 pieces here, and as with many albums of textual nature, the divisions between tracks aren't always noticeable. At times, such as on the opener "Currents Beneath the Shine" or "Resonate and Glow", the sound is crystalline and ethereally positive, reminding of early Michael Sterns with the music's shimmering, mandala-like patterning. At others, Vir Unis reaches the abstraction of his contribution to The Ambient Expanse, sounds of twilight grottos and other such vivid imagery. Every moment is rich with atmosphere, mystery, and vision, each piece picturesque and compelling.
Aeonian Glow (2000). "Aeonian Glow" explores the same musical terrain as "The Drift Inside" but goes deeper and into the more shadowy realms of atmospheric, highlighting the differences between light and dark spaces. The boundaries of sanctuary are examined as this quiet, self-reflective music serves as a catalyst to seek deeper refuge. Their brand of space music is the beatless, deeply spiraling variety, offering infinitely shifting spaces of deceptive stillness to fall into.

Vir Unis - 2 Studio Albums (1999-2000)

Vir Unis - The Drift Inside (1999)
EAC Rip | FLAC (tracks+.cue+log) - 371 MB | MP3 CBR 320 kbps (LAME 3.93) - 171 MB | Covers - 81 MB
Genre: Ambient | RAR 3% Rec. | Label: GreenHouse Music (GHM.99.02)

Tracklist:
01. Currents Beneath the Shine
02. Hidden Streams
03. Leaving the Skin
04. The Drift Inside
05. Zero Ground
06. Resonate & Glow
07. Crystal Eyes
08. In the Wake of a Passing Thought
09. Adrift
10. Solar Plexus
11. Neuron Lights
12. Deepest Dream

Total time: 01:12:44

Exact Audio Copy V1.0 beta 4 from 7. December 2014

EAC extraction logfile from 7. February 2015, 23:23

Vir Unis / The Drift Inside

Used drive : PIONEER DVD-RW DVR-XD11 Adapter: 2 ID: 1

Read mode : Secure
Utilize accurate stream : Yes
Defeat audio cache : Yes
Make use of C2 pointers : No

Read offset correction : 702
Overread into Lead-In and Lead-Out : No
Fill up missing offset samples with silence : Yes
Delete leading and trailing silent blocks : No
Null samples used in CRC calculations : Yes
Used interface : Installed external ASPI interface
Gap handling : Appended to previous track

Used output format : User Defined Encoder
Selected bitrate : 1024 kBit/s
Quality : High
Add ID3 tag : No
Command line compressor : ..\..\codecs\flac.exe
Additional command line options : -T "comment=Ripped by Synthrex for New-Team.org" -8 -V %source%


TOC of the extracted CD

Track | Start | Length | Start sector | End sector
––––––––––––––––––––––––––––-
1 | 0:00.00 | 7:05.00 | 0 | 31874
2 | 7:05.00 | 4:59.00 | 31875 | 54299
3 | 12:04.00 | 7:02.00 | 54300 | 85949
4 | 19:06.00 | 5:25.00 | 85950 | 110324
5 | 24:31.00 | 8:39.00 | 110325 | 149249
6 | 33:10.00 | 5:43.00 | 149250 | 174974
7 | 38:53.00 | 8:13.00 | 174975 | 211949
8 | 47:06.00 | 6:06.00 | 211950 | 239399
9 | 53:12.00 | 5:34.00 | 239400 | 264449
10 | 58:46.00 | 3:02.00 | 264450 | 278099
11 | 61:48.00 | 5:30.00 | 278100 | 302849
12 | 67:18.00 | 5:26.10 | 302850 | 327309


Track 1

Filename C:\Vir Unis - (1999) - The Drift Inside\01.Currents Beneath the Shine.wav

Pre-gap length 0:00:02.00

Peak level 98.8 %
Extraction speed 3.1 X
Track quality 100.0 %
Test CRC 4E479AFB
Copy CRC 4E479AFB
Accurately ripped (confidence 2) [50EBB81E] (AR v2)
Copy OK

Track 2

Filename C:\Vir Unis - (1999) - The Drift Inside\02.Hidden Streams.wav

Pre-gap length 0:00:01.45

Peak level 98.8 %
Extraction speed 3.4 X
Track quality 100.0 %
Test CRC 108B7675
Copy CRC 108B7675
Accurately ripped (confidence 2) [582E0519] (AR v2)
Copy OK

Track 3

Filename C:\Vir Unis - (1999) - The Drift Inside\03.Leaving the Skin.wav

Pre-gap length 0:00:01.45

Peak level 98.8 %
Extraction speed 3.9 X
Track quality 100.0 %
Test CRC 4A74D250
Copy CRC 4A74D250
Accurately ripped (confidence 2) [BDCA41B8] (AR v2)
Copy OK

Track 4

Filename C:\Vir Unis - (1999) - The Drift Inside\04.The Drift Inside.wav

Pre-gap length 0:00:01.45

Peak level 98.8 %
Extraction speed 3.6 X
Track quality 99.9 %
Test CRC BA2AD5F4
Copy CRC BA2AD5F4
Accurately ripped (confidence 2) [7237B3F3] (AR v2)
Copy OK

Track 5

Filename C:\Vir Unis - (1999) - The Drift Inside\05.Zero Ground.wav

Pre-gap length 0:00:01.45

Peak level 97.0 %
Extraction speed 4.6 X
Track quality 100.0 %
Test CRC 10C4241E
Copy CRC 10C4241E
Accurately ripped (confidence 2) [6A29A1CD] (AR v2)
Copy OK

Track 6

Filename C:\Vir Unis - (1999) - The Drift Inside\06.Resonate & Glow.wav

Pre-gap length 0:00:01.45

Peak level 98.8 %
Extraction speed 4.8 X
Track quality 100.0 %
Test CRC 2EAE03C2
Copy CRC 2EAE03C2
Accurately ripped (confidence 2) [D50DEFC4] (AR v2)
Copy OK

Track 7

Filename C:\Vir Unis - (1999) - The Drift Inside\07.Crystal Eyes.wav

Pre-gap length 0:00:01.45

Peak level 64.4 %
Extraction speed 4.7 X
Track quality 99.9 %
Test CRC BC6BF045
Copy CRC BC6BF045
Accurately ripped (confidence 2) [2BB74304] (AR v2)
Copy OK

Track 8

Filename C:\Vir Unis - (1999) - The Drift Inside\08.In the Wake of a Passing Thought.wav

Pre-gap length 0:00:01.45

Peak level 73.7 %
Extraction speed 5.4 X
Track quality 100.0 %
Test CRC 1EEB5434
Copy CRC 1EEB5434
Accurately ripped (confidence 2) [DC79F878] (AR v2)
Copy OK

Track 9

Filename C:\Vir Unis - (1999) - The Drift Inside\09.Adrift.wav

Pre-gap length 0:00:01.45

Peak level 97.7 %
Extraction speed 4.8 X
Track quality 99.9 %
Test CRC D3DC76D0
Copy CRC D3DC76D0
Accurately ripped (confidence 2) [B2A8E220] (AR v2)
Copy OK

Track 10

Filename C:\Vir Unis - (1999) - The Drift Inside\10.Solar Plexus.wav

Pre-gap length 0:00:01.45

Peak level 93.4 %
Extraction speed 5.2 X
Track quality 100.0 %
Test CRC D3B841A8
Copy CRC D3B841A8
Accurately ripped (confidence 2) [B2584E2B] (AR v2)
Copy OK

Track 11

Filename C:\Vir Unis - (1999) - The Drift Inside\11.Neuron Lights.wav

Pre-gap length 0:00:01.45

Peak level 82.0 %
Extraction speed 5.0 X
Track quality 99.9 %
Test CRC 3E9EF8F2
Copy CRC 3E9EF8F2
Accurately ripped (confidence 2) [692C42EE] (AR v2)
Copy OK

Track 12

Filename C:\Vir Unis - (1999) - The Drift Inside\12.Deepest Dream.wav

Pre-gap length 0:00:01.45

Peak level 73.4 %
Extraction speed 5.9 X
Track quality 100.0 %
Test CRC 4E7F2B55
Copy CRC 4E7F2B55
Accurately ripped (confidence 2) [B4D39307] (AR v2)
Copy OK


All tracks accurately ripped

No errors occurred

End of status report

–– CUETools DB Plugin V2.1.6

[CTDB TOCID: EN0ocV0aa_Jk24aVIXF.hQ_RQfk-] found
Submit result: EN0ocV0aa_Jk24aVIXF.hQ_RQfk- has been confirmed
Track | CTDB Status
1 | (2/2) Accurately ripped
2 | (2/2) Accurately ripped
3 | (2/2) Accurately ripped
4 | (2/2) Accurately ripped
5 | (2/2) Accurately ripped
6 | (2/2) Accurately ripped
7 | (2/2) Accurately ripped
8 | (2/2) Accurately ripped
9 | (2/2) Accurately ripped
10 | (2/2) Accurately ripped
11 | (2/2) Accurately ripped
12 | (2/2) Accurately ripped


==== Log checksum 485939AD05D73BE00220652CCDBC8021BAA77F86185D7087D96199E4B0D66A52 ====

[CUETools log; Date: 30.11.2020 23:44:11; Version: 2.1.4]
[CTDB TOCID: EN0ocV0aa_Jk24aVIXF.hQ_RQfk-] found.
Track | CTDB Status
1 | (10/10) Accurately ripped
2 | (10/10) Accurately ripped
3 | (10/10) Accurately ripped
4 | (10/10) Accurately ripped
5 | (10/10) Accurately ripped
6 | (10/10) Accurately ripped
7 | (10/10) Accurately ripped
8 | (10/10) Accurately ripped
9 | (10/10) Accurately ripped
10 | (10/10) Accurately ripped
11 | (10/10) Accurately ripped
12 | (10/10) Accurately ripped
[AccurateRip ID: 002209cf-013ba277-a7110c0c] found.
Track [ CRC | V2 ] Status
01 [321521d6|50ebb81e] (3+3/6) Accurately ripped
02 [2e702ce3|582e0519] (3+3/6) Accurately ripped
03 [104e64ad|bdca41b8] (3+3/6) Accurately ripped
04 [dfb285dd|7237b3f3] (3+3/6) Accurately ripped
05 [ec6f23ac|6a29a1cd] (3+3/6) Accurately ripped
06 [ac17cddb|d50defc4] (3+3/6) Accurately ripped
07 [bb8dbd9f|2bb74304] (3+3/6) Accurately ripped
08 [437d9431|dc79f878] (3+3/6) Accurately ripped
09 [ef1a30f3|b2a8e220] (3+3/6) Accurately ripped
10 [09e7c15a|b2584e2b] (3+3/6) Accurately ripped
11 [59c23ee6|692c42ee] (3+3/6) Accurately ripped
12 [05f76d03|b4d39307] (3+3/6) Accurately ripped

Track Peak [ CRC32 ] [W/O NULL] [ LOG ]
– 98,8 [07CB781B] [55A57957]
01 98,8 [4E479AFB] [64F6EEAF] CRC32
02 98,8 [108B7675] [ECC1F0AB] CRC32
03 98,8 [4A74D250] [E61EBE72] CRC32
04 98,8 [BA2AD5F4] [316C4479] CRC32
05 97,0 [10C4241E] [07CD2D4A] CRC32
06 98,8 [2EAE03C2] [B9830DF2] CRC32
07 64,4 [BC6BF045] [0A032C21] CRC32
08 73,7 [1EEB5434] [59197D8E] CRC32
09 97,7 [D3DC76D0] [BD5E031B] CRC32
10 93,4 [D3B841A8] [8B354B48] CRC32
11 82,0 [3E9EF8F2] [89752253] CRC32
12 73,4 [4E7F2B55] [517499FA] CRC32

Vir Unis - 2 Studio Albums (1999-2000)

Vir Unis - Aeonian Glow (2000)
EAC Rip | FLAC (tracks+.cue+log) - 369 MB | MP3 CBR 320 kbps (LAME 3.93) - 162 MB | Covers - 110 MB
Genre: Ambient | RAR 3% Rec. | Label: GreenHouse Music (GHM.00.02)

Tracklist:
01. Glide
02. The Ghost of Aeons
03. Indigo Light
04. Particle Path
05. A Night of Passage
06. Flying Dream
07. Alien Machinery
08. Letting Go of This Radiant Hive

Total time: 01:08:54

Exact Audio Copy V1.0 beta 4 from 7. December 2014

EAC extraction logfile from 7. February 2015, 21:46

Vir Unis / Aeonian Glow

Used drive : PIONEER DVD-RW DVR-XD11 Adapter: 2 ID: 1

Read mode : Secure
Utilize accurate stream : Yes
Defeat audio cache : Yes
Make use of C2 pointers : No

Read offset correction : 702
Overread into Lead-In and Lead-Out : No
Fill up missing offset samples with silence : Yes
Delete leading and trailing silent blocks : No
Null samples used in CRC calculations : Yes
Used interface : Installed external ASPI interface
Gap handling : Appended to previous track

Used output format : User Defined Encoder
Selected bitrate : 1024 kBit/s
Quality : High
Add ID3 tag : No
Command line compressor : ..\..\codecs\flac.exe
Additional command line options : -T "comment=Ripped by Synthrex for New-Team.org" -8 -V %source%


TOC of the extracted CD

Track | Start | Length | Start sector | End sector
––––––––––––––––––––––––––––-
1 | 0:00.00 | 7:03.00 | 0 | 31724
2 | 7:03.00 | 9:57.00 | 31725 | 76499
3 | 17:00.00 | 12:35.00 | 76500 | 133124
4 | 29:35.00 | 3:43.00 | 133125 | 149849
5 | 33:18.00 | 12:37.00 | 149850 | 206624
6 | 45:55.00 | 10:11.00 | 206625 | 252449
7 | 56:06.00 | 6:26.00 | 252450 | 281399
8 | 62:32.00 | 6:21.50 | 281400 | 310024


Track 1

Filename C:\Vir Unis - (2000) - Aeonian Glow\01.Glide.wav

Pre-gap length 0:00:02.00

Peak level 68.9 %
Extraction speed 3.1 X
Track quality 100.0 %
Test CRC F2577F5D
Copy CRC F2577F5D
Accurately ripped (confidence 6) [8FF1747B] (AR v2)
Copy OK

Track 2

Filename C:\Vir Unis - (2000) - Aeonian Glow\02.The Ghost of Aeons.wav

Peak level 76.6 %
Extraction speed 3.9 X
Track quality 100.0 %
Test CRC 23CA7EE3
Copy CRC 23CA7EE3
Accurately ripped (confidence 6) [0F1DF231] (AR v2)
Copy OK

Track 3

Filename C:\Vir Unis - (2000) - Aeonian Glow\03.Indigo Light.wav

Peak level 87.8 %
Extraction speed 4.6 X
Track quality 100.0 %
Test CRC 3F5C2FEE
Copy CRC 3F5C2FEE
Accurately ripped (confidence 6) [391E10E5] (AR v2)
Copy OK

Track 4

Filename C:\Vir Unis - (2000) - Aeonian Glow\04.Particle Path.wav

Peak level 60.6 %
Extraction speed 4.4 X
Track quality 100.0 %
Test CRC 42A4FD68
Copy CRC 42A4FD68
Accurately ripped (confidence 6) [BF081B7C] (AR v2)
Copy OK

Track 5

Filename C:\Vir Unis - (2000) - Aeonian Glow\05.A Night of Passage.wav

Peak level 86.1 %
Extraction speed 5.4 X
Track quality 100.0 %
Test CRC 31B5651F
Copy CRC 31B5651F
Accurately ripped (confidence 6) [D57DDAEE] (AR v2)
Copy OK

Track 6

Filename C:\Vir Unis - (2000) - Aeonian Glow\06.Flying Dream.wav

Peak level 81.1 %
Extraction speed 5.8 X
Track quality 100.0 %
Test CRC A0D8D388
Copy CRC A0D8D388
Accurately ripped (confidence 6) [347F759E] (AR v2)
Copy OK

Track 7

Filename C:\Vir Unis - (2000) - Aeonian Glow\07.Alien Machinery.wav

Peak level 69.5 %
Extraction speed 5.8 X
Track quality 100.0 %
Test CRC 8FF79689
Copy CRC 8FF79689
Accurately ripped (confidence 6) [B8A718CD] (AR v2)
Copy OK

Track 8

Filename C:\Vir Unis - (2000) - Aeonian Glow\08.Letting Go of This Radiant Hive.wav

Peak level 65.8 %
Extraction speed 6.0 X
Track quality 100.0 %
Test CRC 0DBB3516
Copy CRC 0DBB3516
Accurately ripped (confidence 6) [A7757647] (AR v2)
Copy OK


All tracks accurately ripped

No errors occurred

End of status report

–– CUETools DB Plugin V2.1.6

[CTDB TOCID: qzZ9_PvrZ6Y0iTD55Tg_tv79KAU-] found
Submit result: qzZ9_PvrZ6Y0iTD55Tg_tv79KAU- has been confirmed
Track | CTDB Status
1 | (3/3) Accurately ripped
2 | (3/3) Accurately ripped
3 | (3/3) Accurately ripped
4 | (3/3) Accurately ripped
5 | (3/3) Accurately ripped
6 | (3/3) Accurately ripped
7 | (3/3) Accurately ripped
8 | (3/3) Accurately ripped


==== Log checksum 4571B6B65239C1020D4474963B218600F1CBA75837B032A6E4F3A1C3491A41F1 ====

[CUETools log; Date: 30.11.2020 23:44:47; Version: 2.1.4]
[CTDB TOCID: qzZ9_PvrZ6Y0iTD55Tg_tv79KAU-] found.
Track | CTDB Status
1 | (12/12) Accurately ripped
2 | (12/12) Accurately ripped
3 | (12/12) Accurately ripped
4 | (12/12) Accurately ripped
5 | (12/12) Accurately ripped
6 | (12/12) Accurately ripped
7 | (12/12) Accurately ripped
8 | (12/12) Accurately ripped
[AccurateRip ID: 0015ffa4-0092d5f2-66102508] found.
Track [ CRC | V2 ] Status
01 [a7828688|8ff1747b] (02+10/12) Accurately ripped
02 [0e5ed50c|0f1df231] (02+10/12) Accurately ripped
03 [5ee7a195|391e10e5] (02+10/12) Accurately ripped
04 [e6c5f36c|bf081b7c] (02+10/12) Accurately ripped
05 [4cdc9a7a|d57ddaee] (02+10/12) Accurately ripped
06 [a9ced495|347f759e] (02+10/12) Accurately ripped
07 [bbbf67dc|b8a718cd] (02+10/12) Accurately ripped
08 [d2387eae|a7757647] (02+10/12) Accurately ripped

Track Peak [ CRC32 ] [W/O NULL] [ LOG ]
– 87,8 [BB7716C9] [F17C1AB2]
01 68,9 [F2577F5D] [0D6D056D] CRC32
02 76,6 [23CA7EE3] [3FB8BF86] CRC32
03 87,8 [3F5C2FEE] [7B7088A3] CRC32
04 60,6 [42A4FD68] [DCABBD01] CRC32
05 86,1 [31B5651F] [D093FF48] CRC32
06 81,1 [A0D8D388] [968CE117] CRC32
07 69,5 [8FF79689] [EA131B60] CRC32
08 65,8 [0DBB3516] [70E27F6C] CRC32

Thanks to Synthrex