Tags
Language
Tags

Jean-Christophe Spinosi, Ensemble Matheus - Vivaldi: La verita in cimento [2003]

Posted By:
Jean-Christophe Spinosi, Ensemble Matheus - Vivaldi: La verita in cimento [2003]

Vivaldi - La verità in cimento (Jean-Christophe Spinosi) [2003]
Classical | Opus 111 OP30365 | TT: 155.37 | EAC (flac, cue, log) | Covers | 752 Mb

Opus 111's Vivaldi: 'La verità in cimento' is the first complete recording of Antonio Vivaldi's 1720 opera, made in conjunction with a revival of this work at the Bologna Festival, albeit with a different group of singers. This recording has an excellent frontline cast, including veteran singers such as Anthony Rolfe Johnson, Gemma Bertagnolli, Guillemette Laurens, Nathalie Stutzmann, and Sara Mingardo and Philippe Jaroussky. The band is Ensemble Matheus under the direction of Jean-Christophe Spinosi, and the instrumental complement is especially aggressive in executing extreme dynamics in Vivaldi. Some may find it a bit much; Spinosi's group almost makes Fabio Biondi sound romantic in approach, though conversely in Europe its work has been very well received overall. This is an extraordinary opera by anyone's standards, an outstanding selection being the ethereal trio, "Aure placide, e serene," featuring the combined talents of Bertagnolli, Mingardo and Jaroussky. Those looking for the aria "La pena amara" – stated in a popular published edition of Vivaldi's arias as belonging to La verità in cimento, but perhaps not so – will be disappointed. However, another aria from this work, "Amato ben tu sei la mia speranza," has developed a life of its own and is performed splendidly well here by Gemma Bertagnolli. Vivaldi's story is a comedy of errors set in the court of a Turkish sultan and is rife with numerous deceptions, foils, and intrigues.

Cast:
Rosane - Gemma Bertagnolli
Rustena - Guillemette Laurens
Melindo - Sara Mingardo
Damira - Nathalie Stutzmann
Zelim - Philippe Jaroussky
Mamud - Anthony Rolfe Johnson
Ensemble Matheus
Conductor - Jean-Christophe Spinosi


CD1:
01. Sinfonia: I. Allegro
02. II. Andante
03. III. Allegro
04. Atto I. Recitativo (Mamud, Damira)
05. Aria: Mi fè reo l'amor d'un figlio (Mamud)
06. Recitativo (Damira, Zelim)
07. Aria: Vorrei veder anch'io (Damira)
08. Recitativo (Zelim, Rustena, Rosane, Melindo)
09. Aria: Solo quella guancia bella (Rosane)
10. Recitativo (Rustena, Zelim, Melindo)
11. Aria: Ne vostri dolci sguardi (Rustena)
12. Recitativo (Zelim, Melindo)
13. Aria: Tu m'offendi (Zelim)
14. Recitativo (Melindo)
15. Aria: La del Nilo sull'arene (Melindo)
16. Recitativo (Mamud, Rosane, Zelim, Rustena, Damira)
17. Recitativo (Damira, Rustena)
18. Aria: Se l'acquisito di quel Soglio (Damira)
19. Recitativo (Rustena)
20. Aria: Fragil fior, ch'appena nasce (Rustena)
21. Trio: Aure placide, e serene (Rosane, Zelim, Melindo)
22. Recitativo (Rosane, Zelim, Melindo)
23. Aria: No, non ti credo (Zelim)
24. Recitativo (Melindo, Rosane)
25. Aria: Mi vuoi tradir, lo so (Melindo)
CD2:
01. Recitativo (Rosane)
02. Aria: Amato ben tu sei la mia speranza (Rosane)
03. Atto II. Recitativo (Mamud, Rosane)
04. Aria: Vinta à piè d'un dolce affetto (Mamud)
05. Recitativo (Rosane, Melindo)
06. Aria: Addio caro. Tu ben sai (Rosane)
07. Recitativo (Melindo, Rustena Damira, Zelim)
08. Recitativo (Melindo, Zelim, Rustena)
09. Aria: Un tenoro affetto (Zelim)
10. Recitativo (Rustena, Melindo)
11. Aria: Quel bel ciglio, quel bel volto (Rustena)
12. Recitativo (Melindo)
13. Aria: Occhio non gira (Melindo)
14. Recitativo (Mamud, Rosane, Zelim, Rustena, Damira)
15. Recitativo (Mamud, Rosane)
16. Aria: Tu sei sol dell'alma mia (Rosane)
17. Recitativo (Mamud, Rustena, Damira, Zelim, Melindo)
18. Quintetto: Anima mia, mio ben (Mamud, Rustena, Damira, Zelim, Melindo)
CD3:
01. Atto III. Recitativo (Zelim, Mamud, Melindo)
02. Aria: Lo splendor, ch'à sperare m'invita (Zelim)
03. Recitativo (Mamud, Melindo)
04. Aria: Crudele, tu brami (Melindo)
05. Recitativo (Mamud, Damira)
06. Aria: Quando serve alla ragione (Mamud)
07. Recitativo (Damira, Rustena)
08. Aria: Langrimette alle pupille (Damira)
09. Recitativo (Rustena)
10. Aria: Cara sorte di chi nata (Rustena)
11. Recitativo (Rosane, Zelim, Melindo)
12. Recitativo (Rosane, Zelim)
13. Aria: Con cento, e cento baci (Rosane)
14. Recitativo (Zelim)
15. Aria: Sia conforto alle tue piaghe (Zelim)
16. Recitativo (Tutti)
17. Recitativo (Tutti)
18. Coro: Dopo i nembi, e le procelle


Exact Audio Copy V1.0 beta 3 from 29. August 2011

EAC extraction logfile from 2. January 2017, 11:24

Jean-Christophe Spinosi, Ensemble Matheus / Vivaldi - La Verità in cimento CD1

Used drive : PIONEER BD-RW BDR-207M Adapter: 0 ID: 0

Read mode : Secure
Utilize accurate stream : Yes
Defeat audio cache : Yes
Make use of C2 pointers : No

Read offset correction : 667
Overread into Lead-In and Lead-Out : No
Fill up missing offset samples with silence : Yes
Delete leading and trailing silent blocks : No
Null samples used in CRC calculations : Yes
Used interface : Native Win32 interface for Win NT & 2000

Used output format : User Defined Encoder
Selected bitrate : 128 kBit/s
Quality : High
Add ID3 tag : No
Command line compressor : C:\Program Files\Exact Audio Copy\Flac\flac.exe
Additional command line options : -V -8 -T "Date=%year%" -T "Genre=%genre%" %source%


TOC of the extracted CD

Track | Start | Length | Start sector | End sector
––––––––––––––––––––––––––––-
1 | 0:00.00 | 1:37.72 | 0 | 7346
2 | 1:37.72 | 1:46.26 | 7347 | 15322
3 | 3:24.23 | 0:45.73 | 15323 | 18770
4 | 4:10.21 | 3:57.02 | 18771 | 36547
5 | 8:07.23 | 4:12.35 | 36548 | 55482
6 | 12:19.58 | 2:37.43 | 55483 | 67300
7 | 14:57.26 | 3:20.25 | 67301 | 82325
8 | 18:17.51 | 1:41.57 | 82326 | 89957
9 | 19:59.33 | 2:09.73 | 89958 | 99705
10 | 22:09.31 | 0:49.10 | 99706 | 103390
11 | 22:58.41 | 3:11.54 | 103391 | 117769
12 | 26:10.20 | 0:52.53 | 117770 | 121722
13 | 27:02.73 | 5:49.31 | 121723 | 147928
14 | 32:52.29 | 0:17.59 | 147929 | 149262
15 | 33:10.13 | 3:33.02 | 149263 | 165239
16 | 36:43.15 | 6:51.69 | 165240 | 196133
17 | 43:35.09 | 1:36.42 | 196134 | 203375
18 | 45:11.51 | 3:31.06 | 203376 | 219206
19 | 48:42.57 | 0:31.60 | 219207 | 221591
20 | 49:14.42 | 3:27.45 | 221592 | 237161
21 | 52:42.12 | 3:07.30 | 237162 | 251216
22 | 55:49.42 | 2:05.26 | 251217 | 260617
23 | 57:54.68 | 2:49.36 | 260618 | 273328
24 | 60:44.29 | 0:45.58 | 273329 | 276761
25 | 61:30.12 | 3:26.47 | 276762 | 292258


Range status and errors

Selected range

Filename C:\Vivaldi - La Verità in cimento CD1.wav

Peak level 96.8 %
Extraction speed 7.2 X
Range quality 100.0 %
Test CRC 3BCC437B
Copy CRC 3BCC437B
Copy OK

No errors occurred

End of status report

==== Log checksum E3A9CBA516CB32C733E2080ECBBEEDA4A435B19B253B5C801126810B0AFD5848 ====


Exact Audio Copy V1.0 beta 3 from 29. August 2011

EAC extraction logfile from 2. January 2017, 11:47

Jean-Christophe Spinosi, Ensemble Matheus / Vivaldi - La Verità in cimento CD2

Used drive : PIONEER BD-RW BDR-207M Adapter: 0 ID: 0

Read mode : Secure
Utilize accurate stream : Yes
Defeat audio cache : Yes
Make use of C2 pointers : No

Read offset correction : 667
Overread into Lead-In and Lead-Out : No
Fill up missing offset samples with silence : Yes
Delete leading and trailing silent blocks : No
Null samples used in CRC calculations : Yes
Used interface : Native Win32 interface for Win NT & 2000

Used output format : User Defined Encoder
Selected bitrate : 128 kBit/s
Quality : High
Add ID3 tag : No
Command line compressor : C:\Program Files\Exact Audio Copy\Flac\flac.exe
Additional command line options : -V -8 -T "Date=%year%" -T "Genre=%genre%" %source%


TOC of the extracted CD

Track | Start | Length | Start sector | End sector
––––––––––––––––––––––––––––-
1 | 0:00.00 | 0:33.36 | 0 | 2510
2 | 0:33.36 | 6:31.69 | 2511 | 31904
3 | 7:05.30 | 1:39.54 | 31905 | 39383
4 | 8:45.09 | 3:12.55 | 39384 | 53838
5 | 11:57.64 | 2:23.67 | 53839 | 64630
6 | 14:21.56 | 3:28.14 | 64631 | 80244
7 | 17:49.70 | 2:34.34 | 80245 | 91828
8 | 20:24.29 | 0:43.34 | 91829 | 95087
9 | 21:07.63 | 4:17.00 | 95088 | 114362
10 | 25:24.63 | 1:09.73 | 114363 | 119610
11 | 26:34.61 | 2:08.22 | 119611 | 129232
12 | 28:43.08 | 0:22.08 | 129233 | 130890
13 | 29:05.16 | 2:28.15 | 130891 | 142005
14 | 31:33.31 | 7:06.04 | 142006 | 173959
15 | 38:39.35 | 1:21.41 | 173960 | 180075
16 | 40:01.01 | 2:54.11 | 180076 | 193136
17 | 42:55.12 | 1:19.70 | 193137 | 199131
18 | 44:15.07 | 3:59.44 | 199132 | 217100


Range status and errors

Selected range

Filename C:\Vivaldi - La Verità in cimento CD2.wav

Peak level 93.2 %
Extraction speed 6.7 X
Range quality 100.0 %
Test CRC 476A57D6
Copy CRC 476A57D6
Copy OK

No errors occurred

End of status report

==== Log checksum 4C4095F9DCC2D825B2F520A63CE13572A73B304F92593E5537999532ABF3DDAC ====


Exact Audio Copy V1.0 beta 3 from 29. August 2011

EAC extraction logfile from 2. January 2017, 12:07

Jean-Christophe Spinosi, Ensemble Matheus / Vivaldi - La Verità in cimento CD3

Used drive : PIONEER BD-RW BDR-207M Adapter: 0 ID: 0

Read mode : Secure
Utilize accurate stream : Yes
Defeat audio cache : Yes
Make use of C2 pointers : No

Read offset correction : 667
Overread into Lead-In and Lead-Out : No
Fill up missing offset samples with silence : Yes
Delete leading and trailing silent blocks : No
Null samples used in CRC calculations : Yes
Used interface : Native Win32 interface for Win NT & 2000

Used output format : User Defined Encoder
Selected bitrate : 128 kBit/s
Quality : High
Add ID3 tag : No
Command line compressor : C:\Program Files\Exact Audio Copy\Flac\flac.exe
Additional command line options : -V -8 -T "Date=%year%" -T "Genre=%genre%" %source%


TOC of the extracted CD

Track | Start | Length | Start sector | End sector
––––––––––––––––––––––––––––-
1 | 0:00.00 | 1:29.49 | 0 | 6723
2 | 1:29.49 | 4:23.24 | 6724 | 26472
3 | 5:52.73 | 0:43.70 | 26473 | 29767
4 | 6:36.68 | 4:06.05 | 29768 | 48222
5 | 10:42.73 | 4:05.61 | 48223 | 66658
6 | 14:48.59 | 3:29.53 | 66659 | 82386
7 | 18:18.37 | 1:37.02 | 82387 | 89663
8 | 19:55.39 | 3:46.43 | 89664 | 106656
9 | 23:42.07 | 0:35.09 | 106657 | 109290
10 | 24:17.16 | 3:47.47 | 109291 | 126362
11 | 28:04.63 | 2:05.36 | 126363 | 135773
12 | 30:10.24 | 1:06.53 | 135774 | 140776
13 | 31:17.02 | 2:52.29 | 140777 | 153705
14 | 34:09.31 | 0:34.71 | 153706 | 156326
15 | 34:44.27 | 2:59.20 | 156327 | 169771
16 | 37:43.47 | 0:12.13 | 169772 | 170684
17 | 37:55.60 | 2:47.40 | 170685 | 183249
18 | 40:43.25 | 1:09.10 | 183250 | 188434


Range status and errors

Selected range

Filename C:\Vivaldi - La Verità in cimento CD3.wav

Peak level 96.1 %
Extraction speed 6.6 X
Range quality 100.0 %
Test CRC 224C803D
Copy CRC 224C803D
Copy OK

No errors occurred

End of status report

==== Log checksum 9B25A24BF34470FDF4FAFD083253778682DFC83F1CBBC026954F77A573A6ADF2 ====