Subcategories

Village People - We Want You: The Very Best Of... (1997) {Edelton/Scorpio}

Posted By: TestTickles
Village People - We Want You: The Very Best Of... (1997) {Edelton/Scorpio}

Village People - We Want You: The Very Best Of… (1997) {Edelton/Scorpio}
EAC Rip | FLAC with CUE and log | scans | 471 mb
MP3 CBR 320 kbps | RAR | 148 mb
Genre: R&B, soul, disco

We Want You: The Very Best Of Village People is a 1997 compilation released by American disco group VIllage People. This was released by Edelton in association with Scorpio.

01. Village People (5:09)
02. Y.M.C.A. (4:45)
03. Go West (4:11)
04. Fire Island (5:16)
05. Ready For The 80's (6:38)
06. In The Navy (5:38)
07. I am what I Am (5:28)
08. San Francisco (You've Got Me) (5:18)
09. Macho Man (5:17)
10. Sex Over The Phone (4:22)
11. Can't Stop The Music (3:36)
12. Go West (Radio Edit '97) (3:57)
13. We Want You (Megamix '97) (7:07)

Exact Audio Copy V0.99 prebeta 4 from 23. January 2008

EAC extraction logfile from 17. June 2008, 22:24

Village People / We Want You, The Very Best Of…

Used drive : _NEC DVD_RW ND-3550A Adapter: 5 ID: 0

Read mode : Secure
Utilize accurate stream : Yes
Defeat audio cache : Yes
Make use of C2 pointers : No

Read offset correction : 48
Overread into Lead-In and Lead-Out : No
Fill up missing offset samples with silence : Yes
Delete leading and trailing silent blocks : No
Null samples used in CRC calculations : Yes
Used interface : Native Win32 interface for Win NT & 2000

Used output format : Monkey's Audio Lossless Encoder v3.99 DLL
Sample format : High Lossless Compression


TOC of the extracted CD

Track | Start | Length | Start sector | End sector
––––––––––––––––––––––––––––-
1 | 0:00.00 | 5:09.27 | 0 | 23201
2 | 5:09.27 | 4:45.20 | 23202 | 44596
3 | 9:54.47 | 4:11.20 | 44597 | 63441
4 | 14:05.67 | 5:16.40 | 63442 | 87181
5 | 19:22.32 | 6:38.35 | 87182 | 117066
6 | 26:00.67 | 5:38.40 | 117067 | 142456
7 | 31:39.32 | 5:28.38 | 142457 | 167094
8 | 37:07.70 | 5:18.70 | 167095 | 191014
9 | 42:26.65 | 5:17.00 | 191015 | 214789
10 | 47:43.65 | 4:22.55 | 214790 | 234494
11 | 52:06.45 | 3:36.55 | 234495 | 250749
12 | 55:43.25 | 3:57.37 | 250750 | 268561
13 | 59:40.62 | 7:07.28 | 268562 | 300614


Range status and errors

Selected range

Filename C:\FLAC\Village People - We Want You, The Very Best Of… (1997) [FLAC] {Edelton, Scorpio}\Village People - We Want You, The Very Best Of Village People.wav

Peak level 99.9 %
Range quality 100.0 %
Copy CRC 81F7A0A7
Copy OK

No errors occurred


AccurateRip summary

Track 1 cannot be verified as accurate (confidence 3) [835BB8FE], AccurateRip returned [8A12D57E]
Track 2 cannot be verified as accurate (confidence 3) [E2CA55F8], AccurateRip returned [1C9B5EF0]
Track 3 cannot be verified as accurate (confidence 3) [EB137DFB], AccurateRip returned [31EF5BD3]
Track 4 cannot be verified as accurate (confidence 3) [4DA41B89], AccurateRip returned [89520DFF]
Track 5 cannot be verified as accurate (confidence 3) [5573E6F0], AccurateRip returned [5EB12962]
Track 6 cannot be verified as accurate (confidence 3) [0A295C67], AccurateRip returned [95837857]
Track 7 cannot be verified as accurate (confidence 3) [485E80C0], AccurateRip returned [DB546230]
Track 8 cannot be verified as accurate (confidence 3) [4FB37726], AccurateRip returned [8495503E]
Track 9 cannot be verified as accurate (confidence 3) [D99C4024], AccurateRip returned [5502C6E4]
Track 10 cannot be verified as accurate (confidence 3) [7225AB59], AccurateRip returned [786F5589]
Track 11 cannot be verified as accurate (confidence 3) [8591799F], AccurateRip returned [F3B558EF]
Track 12 cannot be verified as accurate (confidence 3) [F7D94DD4], AccurateRip returned [35EB5744]
Track 13 cannot be verified as accurate (confidence 2) [D965ED5C], AccurateRip returned [CB8DFF54]

No tracks could be verified as accurate
You may have a different pressing from the one(s) in the database

End of status report


Village People - We Want You: The Very Best Of... (1997) {Edelton/Scorpio}


Thank you to the original uploader.