Subcategories

The Vince Guaraldi Trio - Jazz Impressions Of Black Orpheus (1962) {2003 20bit K2 Super Coding}

Posted By: TestTickles
THIS EDITION LIMITED TO 10,000 COPIES


The Vince Guaraldi Trio - Jazz Impressions Of Black Orpheus (1962) {2003 20bit K2 Super Coding}

The Vince Guaraldi Trio - Jazz Impressions Of Black Orpheus (1962) {2003 20bit K2 Super Coding}
EAC Rip | FLAC with CUE and log | scans | 254 mb
MP3 CBR 320kbps | RAR | 105 mb
Genre: jazz

Jazz Impressions Of Black Orpheus is the 1962 album by The Vince Guaraldi Trio. Originally released on the Fantasy label, this remaster done by Shigeo Miyamoto was released on 1 April, 2003 and is a 20bit K2 Super Coding pressing
Here is Vince Guaraldi's breakthrough album – musically, commercially, in every which way. After numerous records as a leader or sideman, for the first time a recognizable Guaraldi piano style emerges, with whimsical phrasing all his own, a madly swinging right hand and occasional boogie-influenced left hand, and a distinctive, throat-catching, melodic improvisational gift. The first half of the CD is taken up by cover versions of tunes from the Antonio Carlos Jobim/Luiz Bonfa score for the film Black Orpheus, recorded just as bossa nova was taking hold in America. These are genuinely jazz-oriented impressions in a mainstream boppish manner, with only a breath of samba from Monty Budwig (bass) and Colin Bailey (drums) in the opening minute of "Samba de Orpheus"; an edited version of this haunting song was issued as a 45 rpm single. But DJs soon began flipping the single over to play the B-side, a wistful, unforgettably catchy Guaraldi tune called "Cast Your Fate to the Wind" that opens the North American half of the album. The tune became a surprise hit; Fantasy redesigned the cover to call attention to it, and Vince was on his way to fame as one of Latin and mainstream jazz's most irresistible composers. The whole album evokes the ambience of San Francisco's jazz life in the 1960s as few others do – and such is this record's appeal that even non-jazz and non-Latin music people have been grooving to this music ever since it came out.

The Vince Guaraldi Trio - Jazz Impressions Of Black Orpheus (1962) {2003 20bit K2 Super Coding}

1. Samba De Orfeo
2. Manha de Carnaval
3. O Nosso Amor
4. Felicidade
5. Cast Your Fate To The Wind
6. Moon River
7. Alma-Ville
8. Since I Fell For You

–-
Vince Guaraldi-piano
Monty Budwig-bass
Colin Bailey-drums


Recorded November 1961 (#6, #8) and February 1962 (other selections)
Mastering engineer: Shigeo Miyamoto under supervision of Tamaki Beck for JVC Studios
This album is remastered using 20-bit A/D Converter with digital K2 interface

The Vince Guaraldi Trio - Jazz Impressions Of Black Orpheus (1962) {2003 20bit K2 Super Coding}


EAC extraction logfile from 15. September 2007, 19:02 for CD
The Vince Guaraldi Trio / Jazz Impressions Of Black Orpheus (20bit K2)

Used drive : LITE-ON DVDRW SOHW-1633S Adapter: 0 ID: 0
Read mode : Secure with NO C2, accurate stream, disable cache
Read offset correction : 12
Overread into Lead-In and Lead-Out : No

Used output format : Internal WAV Routines
44.100 Hz; 16 Bit; Stereo

Other options :
Fill up missing offset samples with silence : Yes
Delete leading and trailing silent blocks : No
Installed external ASPI interface


Track 1
Filename D:\FLAC\The Vince Guaraldi Trio - Jazz Impressions Of Black Orpheus (1962) [FLAC] {2003 20bit K2 Super Coding}\01 - Samba De Orfeo.wav

Pre-gap length 0:00:02.00

Peak level 98.2 %
Track quality 100.0 %
Test CRC D1D3A6EE
Copy CRC D1D3A6EE
Copy OK

Track 2
Filename D:\FLAC\The Vince Guaraldi Trio - Jazz Impressions Of Black Orpheus (1962) [FLAC] {2003 20bit K2 Super Coding}\02 - Manha de Carnaval.wav

Pre-gap length 0:00:02.84

Peak level 98.2 %
Track quality 100.0 %
Test CRC 59A5117E
Copy CRC 59A5117E
Copy OK

Track 3
Filename D:\FLAC\The Vince Guaraldi Trio - Jazz Impressions Of Black Orpheus (1962) [FLAC] {2003 20bit K2 Super Coding}\03 - O Nosso Amor.wav

Pre-gap length 0:00:02.46

Peak level 98.3 %
Track quality 100.0 %
Test CRC AC1421F3
Copy CRC AC1421F3
Copy OK

Track 4
Filename D:\FLAC\The Vince Guaraldi Trio - Jazz Impressions Of Black Orpheus (1962) [FLAC] {2003 20bit K2 Super Coding}\04 - Felicidade.wav

Pre-gap length 0:00:02.33

Peak level 98.4 %
Track quality 100.0 %
Test CRC 277EE66B
Copy CRC 277EE66B
Copy OK

Track 5
Filename D:\FLAC\The Vince Guaraldi Trio - Jazz Impressions Of Black Orpheus (1962) [FLAC] {2003 20bit K2 Super Coding}\05 - Cast Your Fate To The Wind.wav

Pre-gap length 0:00:02.26

Peak level 98.6 %
Track quality 100.0 %
Test CRC 5835822A
Copy CRC 5835822A
Copy OK

Track 6
Filename D:\FLAC\The Vince Guaraldi Trio - Jazz Impressions Of Black Orpheus (1962) [FLAC] {2003 20bit K2 Super Coding}\06 - Moon River.wav

Pre-gap length 0:00:02.13

Peak level 98.2 %
Track quality 99.9 %
Test CRC B83ADAE9
Copy CRC B83ADAE9
Copy OK

Track 7
Filename D:\FLAC\The Vince Guaraldi Trio - Jazz Impressions Of Black Orpheus (1962) [FLAC] {2003 20bit K2 Super Coding}\07 - Alma-Ville.wav

Pre-gap length 0:00:02.44

Peak level 98.6 %
Track quality 100.0 %
Test CRC 03EB3165
Copy CRC 03EB3165
Copy OK

Track 8
Filename D:\FLAC\The Vince Guaraldi Trio - Jazz Impressions Of Black Orpheus (1962) [FLAC] {2003 20bit K2 Super Coding}\08 - Since I Fell For You.wav

Pre-gap length 0:00:02.42

Peak level 98.3 %
Track quality 99.9 %
Test CRC AA6431AF
Copy CRC AA6431AF
Copy OK

No errors occured


End of status report
NITROFLARE (FLAC)
NITROFLARE (MP3)