Vladimir Cosma - Diva: Bande Originale Du Film (Original Soundtrack) (1981) Complete Edition 1993

Posted By: Efgrapha
Vladimir Cosma - Diva: Bande Originale Du Film (Original Soundtrack) (1981) Complete Edition 1993

Vladimir Cosma - Diva: Bande Originale Du Film (Original Soundtrack) (1981/1993)
EAC | FLAC (Tracks) + cue.+log ~ 220 Mb | Mp3, CBR320 kbps ~ 110 Mb | Scans ~ 71 Mb
Soundtrack, Score, Modern Classical | Label: Pomme Music | # 950 622 | 00:48:10

The 1981 Jean-Jacques Beineix film Diva is a dizzying cornucopia of delights, with a strong sense of urban cool and a cast of characters whose alternating detachments and obsessions hint at the legacy of pain and loneliness that helped form them. Its score, composed by Vladimir Cosma, is inseparable from the film, which, after all, is about music itself, and the ways that it links to desire and longing. From the beautiful arias of Wilhemina Wiggins Fernandez (who plays an opera singer in the film) to the eerie, achingly beautiful instrumental pieces composed by Cosma to set the mood for images of rain-slicked streets, Taiwanese music pirates, teenaged Vietnamese thieves, jaded middle-aged art sages, motorbikes and car chases, the score for Diva remains one of Cosma's masterpieces, a perfect companion to a film that became an international underground hit.

Review by Stacia Proefrock, Allmusic.com

Vladimir Cosma - Diva: Bande Originale Du Film (Original Soundtrack) (1981) Complete Edition 1993


~ Vladimir Cosma at Allmusic
~ Vladimir Cosma at Wiki

~ Film at IMDB
~ Film at Wiki

Tracklist:

01. La Wally (A. Catalani - argt V. Cosma) (03:35)
02. Promenade Sentimentale (piano solo: V. Cosma) (02:39)
03. Voie Sans Issue (03:07)
04. Gorodish (03:04)
05. Le zen dans l'art de la tartine (02:06)
06. Ave Maria (C. Gounod) (01:39)
07. La Wally (version instrumentale) (03:08)
08. Promenade Sentimentale 2 (piano solo: V. Cosma) (03:35)
09. Lame de Fond (04:24)
10. Metro Police (02:36)
11. L'Usine Desaffectee (03:11)
12. Le Cure et l'antillais (01:32)
13. Tuileries sous la Pluie (piano: V. Cosma) (01:29)
14. Prelude de la Suite en Re mineur BWV 1005 (J.S. Bach, violoncelle solo: H. Varron) (01:12)
15. La Baignoire et la Mer (02:22)
16. J'aime pas les Ascenseurs (02:30)
17. La Wally (A. Catalani - argt V. Cosma, Piano solo: R. Allessandrini) (03:03)
18. Le Chien de M. Michel (02:50)


Exact Audio Copy V1.0 beta 3 from 29. August 2011

EAC extraction logfile from 22. May 2013, 18:34

Vladimir Cosma / Diva

Used drive : PLEXTOR DVDR PX-L890SA Adapter: 1 ID: 0

Read mode : Secure
Utilize accurate stream : Yes
Defeat audio cache : Yes
Make use of C2 pointers : No

Read offset correction : 6
Overread into Lead-In and Lead-Out : No
Fill up missing offset samples with silence : Yes
Delete leading and trailing silent blocks : No
Null samples used in CRC calculations : Yes
Used interface : Installed external ASPI interface
Gap handling : Appended to previous track

Used output format : User Defined Encoder
Selected bitrate : 1024 kBit/s
Quality : High
Add ID3 tag : No
Command line compressor : C:\Program Files\Exact Audio Copy\Flac\flac.exe
Additional command line options : -V -8 -T "Genre=%genre%" -T "Artist=%artist%" -T "Title=%title%" -T "Album=%albumtitle%" -T "Date=%year%" -T "Tracknumber=%tracknr%" -T "Comment=%comment%" %source%


TOC of the extracted CD

Track | Start | Length | Start sector | End sector
––––––––––––––––––––––––––––-
1 | 0:00.32 | 3:35.55 | 32 | 16211
2 | 3:36.12 | 2:39.30 | 16212 | 28166
3 | 6:15.42 | 3:07.58 | 28167 | 42249
4 | 9:23.25 | 3:04.22 | 42250 | 56071
5 | 12:27.47 | 2:06.50 | 56072 | 65571
6 | 14:34.22 | 1:39.53 | 65572 | 73049
7 | 16:14.00 | 3:08.32 | 73050 | 87181
8 | 19:22.32 | 3:35.63 | 87182 | 103369
9 | 22:58.20 | 4:24.22 | 103370 | 123191
10 | 27:22.42 | 2:36.58 | 123192 | 134949
11 | 29:59.25 | 3:11.55 | 134950 | 149329
12 | 33:11.05 | 1:32.35 | 149330 | 156264
13 | 34:43.40 | 1:29.32 | 156265 | 162971
14 | 36:12.72 | 1:12.23 | 162972 | 168394
15 | 37:25.20 | 2:22.35 | 168395 | 179079
16 | 39:47.55 | 2:30.07 | 179080 | 190336
17 | 42:17.62 | 3:03.28 | 190337 | 204089
18 | 45:21.15 | 2:50.17 | 204090 | 216856


Track 1

Filename F:\torrent\Diva_Vladimir Cosma\score\01 La Wally.wav

Pre-gap length 0:00:02.32

Peak level 86.4 %
Extraction speed 4.9 X
Track quality 100.0 %
Test CRC B20F777A
Copy CRC B20F777A
Accurately ripped (confidence 2) [3BF8AFD5] (AR v2)
Copy OK

Track 2

Filename F:\torrent\Diva_Vladimir Cosma\score\02 Promenade Sentimentale (piano solo- V. Cosma).wav

Pre-gap length 0:00:01.58

Peak level 49.0 %
Extraction speed 5.1 X
Track quality 100.0 %
Test CRC 21CD4444
Copy CRC 21CD4444
Accurately ripped (confidence 2) [FD44AB1A] (AR v2)
Copy OK

Track 3

Filename F:\torrent\Diva_Vladimir Cosma\score\03 Voie Sans Issue.wav

Pre-gap length 0:00:01.50

Peak level 99.9 %
Extraction speed 5.6 X
Track quality 100.0 %
Test CRC 3A101C8B
Copy CRC 3A101C8B
Accurately ripped (confidence 2) [B394B5AB] (AR v2)
Copy OK

Track 4

Filename F:\torrent\Diva_Vladimir Cosma\score\04 Gorodish.wav

Pre-gap length 0:00:01.51

Peak level 72.8 %
Extraction speed 5.9 X
Track quality 100.0 %
Test CRC 05BBC1B3
Copy CRC 05BBC1B3
Accurately ripped (confidence 2) [759F607E] (AR v2)
Copy OK

Track 5

Filename F:\torrent\Diva_Vladimir Cosma\score\05 Le zen dans l'art de la tartine.wav

Pre-gap length 0:00:01.00

Peak level 69.4 %
Extraction speed 5.7 X
Track quality 100.0 %
Test CRC ED00C82C
Copy CRC ED00C82C
Accurately ripped (confidence 2) [C06B01C8] (AR v2)
Copy OK

Track 6

Filename F:\torrent\Diva_Vladimir Cosma\score\06 Ave Maria.wav

Pre-gap length 0:00:02.50

Peak level 78.3 %
Extraction speed 5.6 X
Track quality 100.0 %
Test CRC C90DED51
Copy CRC C90DED51
Accurately ripped (confidence 2) [7A42C19A] (AR v2)
Copy OK

Track 7

Filename F:\torrent\Diva_Vladimir Cosma\score\07 La Wally (version instrumentale).wav

Pre-gap length 0:00:00.03

Peak level 54.5 %
Extraction speed 6.5 X
Track quality 100.0 %
Test CRC F708A0BA
Copy CRC F708A0BA
Accurately ripped (confidence 2) [FC647B53] (AR v2)
Copy OK

Track 8

Filename F:\torrent\Diva_Vladimir Cosma\score\08 Promenade Sentimentale 2 (piano solo- V. Cosma).wav

Pre-gap length 0:00:02.50

Peak level 73.4 %
Extraction speed 7.2 X
Track quality 100.0 %
Test CRC 8ECB4B61
Copy CRC 8ECB4B61
Accurately ripped (confidence 2) [5EC504F2] (AR v2)
Copy OK

Track 9

Filename F:\torrent\Diva_Vladimir Cosma\score\09 Lame de Fond.wav

Pre-gap length 0:00:01.26

Peak level 44.3 %
Extraction speed 6.7 X
Track quality 99.9 %
Test CRC A05F2CFD
Copy CRC A05F2CFD
Accurately ripped (confidence 2) [742D0423] (AR v2)
Copy OK

Track 10

Filename F:\torrent\Diva_Vladimir Cosma\score\10 Metro Police.wav

Pre-gap length 0:00:01.35

Peak level 54.6 %
Extraction speed 7.3 X
Track quality 100.0 %
Test CRC 05EF8EFD
Copy CRC 05EF8EFD
Accurately ripped (confidence 2) [2DE96B6C] (AR v2)
Copy OK

Track 11

Filename F:\torrent\Diva_Vladimir Cosma\score\11 L'Usine Desaffectee.wav

Pre-gap length 0:00:01.01

Peak level 45.6 %
Extraction speed 7.8 X
Track quality 100.0 %
Test CRC 22A1850D
Copy CRC 22A1850D
Accurately ripped (confidence 2) [2309378F] (AR v2)
Copy OK

Track 12

Filename F:\torrent\Diva_Vladimir Cosma\score\12 Le Cure et l'antillais.wav

Pre-gap length 0:00:01.01

Peak level 34.3 %
Extraction speed 6.8 X
Track quality 100.0 %
Test CRC 497BB78B
Copy CRC 497BB78B
Accurately ripped (confidence 2) [369C8292] (AR v2)
Copy OK

Track 13

Filename F:\torrent\Diva_Vladimir Cosma\score\13 Tuileries sous la Pluie (piano- V. Cosma).wav

Pre-gap length 0:00:01.01

Peak level 43.7 %
Extraction speed 6.8 X
Track quality 100.0 %
Test CRC 108E86F0
Copy CRC 108E86F0
Accurately ripped (confidence 2) [A506D8B2] (AR v2)
Copy OK

Track 14

Filename F:\torrent\Diva_Vladimir Cosma\score\14 Prelude de la Suite en Re mineur BWV 1005 (violoncelle solo- H. Varron).wav

Pre-gap length 0:00:00.03

Peak level 44.5 %
Extraction speed 6.5 X
Track quality 100.0 %
Test CRC 4CF5E5DD
Copy CRC 4CF5E5DD
Accurately ripped (confidence 2) [3D3E1469] (AR v2)
Copy OK

Track 15

Filename F:\torrent\Diva_Vladimir Cosma\score\15 La Baignoire et la Mer.wav

Pre-gap length 0:00:01.01

Peak level 43.4 %
Extraction speed 7.7 X
Track quality 100.0 %
Test CRC B8533717
Copy CRC B8533717
Accurately ripped (confidence 2) [D18BA311] (AR v2)
Copy OK

Track 16

Filename F:\torrent\Diva_Vladimir Cosma\score\16 J'aime pas les Ascenseurs.wav

Pre-gap length 0:00:02.01

Peak level 47.9 %
Extraction speed 8.0 X
Track quality 100.0 %
Test CRC AC998BD6
Copy CRC AC998BD6
Accurately ripped (confidence 2) [DEF591DD] (AR v2)
Copy OK

Track 17

Filename F:\torrent\Diva_Vladimir Cosma\score\17 La Wally (Piano solo- R. Allessandrini).wav

Pre-gap length 0:00:01.45

Peak level 97.4 %
Extraction speed 8.6 X
Track quality 100.0 %
Test CRC CD8D7A90
Copy CRC CD8D7A90
Accurately ripped (confidence 2) [D4E05239] (AR v2)
Copy OK

Track 18

Filename F:\torrent\Diva_Vladimir Cosma\score\18 Le Chien de M. Michel.wav

Pre-gap length 0:00:06.23

Peak level 63.0 %
Extraction speed 8.6 X
Track quality 100.0 %
Test CRC B770296A
Copy CRC B770296A
Accurately ripped (confidence 2) [F03AEAC0] (AR v2)
Copy OK


All tracks accurately ripped

No errors occurred

End of status report

==== Log checksum 0EF0E8D366314967FF02DC59752A030F21E21FC8E1D507A69D0F2DB8E62AE737 ====

foobar2000 1.2 / Dynamic Range Meter 1.1.1
log date: 2013-11-04 20:27:35

––––––––––––––––––––––––––––––––––––––––
Analyzed: J.S. Bach / Diva (1)
Vladimir Cosma - by Wilhelmenia Wiggins Fernandez / Diva (2-3)
Vladimir Cosma / Diva (4-18)
––––––––––––––––––––––––––––––––––––––––

DR Peak RMS Duration Track
––––––––––––––––––––––––––––––––––––––––
DR12 -7.02 dB -22.57 dB 1:12 14-Prelude de la Suite en Re mineur BWV 1005 (violoncelle solo: H. Varron)
DR10 -1.27 dB -16.02 dB 3:36 01-La Wally
DR7 -7.18 dB -20.40 dB 1:29 13-Tuileries sous la Pluie (piano: V. Cosma)
DR13 -6.19 dB -23.55 dB 2:39 02-Promenade Sentimentale (piano solo: V. Cosma)
DR13 0.00 dB -15.26 dB 3:08 03-Voie Sans Issue
DR12 -2.75 dB -20.33 dB 3:04 04-Gorodish
DR10 -3.16 dB -18.96 dB 2:07 05-Le zen dans l'art de la tartine
DR9 -2.12 dB -16.45 dB 1:40 06-Ave Maria
DR12 -5.26 dB -22.55 dB 3:08 07-La Wally (version instrumentale)
DR14 -2.68 dB -21.21 dB 3:36 08-Promenade Sentimentale 2 (piano solo: V. Cosma)
DR12 -7.06 dB -22.10 dB 4:24 09-Lame de Fond
DR13 -5.25 dB -22.18 dB 2:37 10-Metro Police
DR10 -6.81 dB -21.94 dB 3:12 11-L'Usine Desaffectee
DR11 -9.28 dB -24.28 dB 1:32 12-Le Cure et l'antillais
DR14 -7.24 dB -25.81 dB 2:22 15-La Baignoire et la Mer
DR15 -6.39 dB -24.23 dB 2:30 16-J'aime pas les Ascenseurs
DR15 -0.22 dB -20.74 dB 3:03 17-La Wally (Piano solo: R. Allessandrini)
DR16 -4.00 dB -23.62 dB 2:50 18-Le Chien de M. Michel
––––––––––––––––––––––––––––––––––––––––

Number of tracks: 18
Official DR value: DR12

Samplerate: 44100 Hz
Channels: 2
Bits per sample: 16
Bitrate: 688 kbps
Codec: FLAC
================================================================================

Vladimir Cosma - Diva: Bande Originale Du Film (Original Soundtrack) (1981) Complete Edition 1993

Vladimir Cosma - Diva: Bande Originale Du Film (Original Soundtrack) (1981) Complete Edition 1993

All thanks to original uploader - Sarant

More Movies & Soundtracks in Efgrapha Blog