Subcategories

Vladimir Godar - Mater (2006) {ECM 1985} [Proper Repost]

Posted By: tiburon
Vladimir Godar - Mater (2006) {ECM 1985} [Proper Repost]

Vladimir Godar - Mater (2006) {ECM 1985}
EAC 0.99pb4 | FLAC tracks level 8 | Cue+Log+M3U | Full Scans 300dpi | 312MB + 5% Recovery
Genre: Classical, Cantata, Baroque
Vladimir Godar - Mater (2006) {ECM 1985} [Proper Repost]

Vladimir Godar's Mater is a moving cantata comprised of seven compositions for female voice, mixed choir and Baroque string orchestra playing on historic instruments. The work is a meditation on the circle of human life united under the archetypes of "woman" and "mother": protecting, consoling, mourning, but also as objects of praise and adoration. The texts come from Slovak lullabies, sacred Christian texts, Yiddish songs and a poem by James Joyce. The music is highly atmospheric and melodic, and fans of Arvo Part, Henryk Gorecki, John Tavener and early music will be drawn to this music.
Track List
1. Maykomashmalon 3:44
2. Magnificat 9:35
3. Uspavanky 8:09
4. Ecce Puer 6:12
5. Stala Matka 19:24
6. Regina Coeli 5:01
7. Maykomashmalon 3:40

musicians
Iva Bittova - voice
Milos Valent - violin, viola
Bratislava Conservatory Choir
Dusan Bill - choirmaster
Solamente Naturali:
Maria Trevor Duhova - harp
Premysl Vacek - chitarrone
Peter Gulas - harpsichord
Marek Stryncl - conductor

Produced by Pavian Records


Exact Audio Copy V0.99 prebeta 4 from 23. January 2008

EAC extraction logfile from 6. April 2008, 7:43

Vladimir Godar / Mater

Used drive : PLEXTOR CD-R PREMIUM2 Adapter: 1 ID: 1

Read mode : Secure
Utilize accurate stream : Yes
Defeat audio cache : Yes
Make use of C2 pointers : No

Read offset correction : 30
Overread into Lead-In and Lead-Out : No
Fill up missing offset samples with silence : Yes
Delete leading and trailing silent blocks : No
Null samples used in CRC calculations : Yes
Used interface : Installed external ASPI interface
Gap handling : Appended to previous track

Used output format : User Defined Encoder
Selected bitrate : 32 kBit/s
Quality : High
Add ID3 tag : No
Command line compressor : C:\Programmi\FLAC\flac.exe
Additional command line options : -8 -V -T "ARTIST=%a" -T "TITLE=%t" -T "ALBUM=%g" -T "DATE=%y" -T "TRACKNUMBER=%n" -T "GENRE=%m" -T "COMMENT=EAC FLAC -8" %s


TOC of the extracted CD

Track | Start | Length | Start sector | End sector
––––––––––––––––––––––––––––-
1 | 0:00.00 | 3:51.31 | 0 | 17355
2 | 3:51.31 | 9:42.19 | 17356 | 61024
3 | 13:33.50 | 8:16.42 | 61025 | 98266
4 | 21:50.17 | 6:19.25 | 98267 | 126716
5 | 28:09.42 | 19:31.57 | 126717 | 214598
6 | 47:41.24 | 5:32.16 | 214599 | 239514
7 | 53:13.40 | 3:36.51 | 239515 | 255765


Track 1

Filename C:\My Rip\01 - Maykomashmalon.wav

Pre-gap length 0:00:02.00

Peak level 47.8 %
Track quality 99.9 %
Test CRC 1C548659
Copy CRC 1C548659
Accurately ripped (confidence 2) [962CF9AF]
Copy OK

Track 2

Filename C:\My Rip\02 - Magnificat.wav

Pre-gap length 0:00:07.00

Peak level 98.8 %
Track quality 100.0 %
Test CRC FC413817
Copy CRC FC413817
Accurately ripped (confidence 2) [C785870C]
Copy OK

Track 3

Filename C:\My Rip\03 - Uspavanky.wav

Pre-gap length 0:00:07.00

Peak level 75.4 %
Track quality 100.0 %
Test CRC 6BEFD2D2
Copy CRC 6BEFD2D2
Accurately ripped (confidence 2) [0B0B19EF]
Copy OK

Track 4

Filename C:\My Rip\04 - Ecce Puer.wav

Pre-gap length 0:00:07.00

Peak level 50.8 %
Track quality 100.0 %
Test CRC FCD2E290
Copy CRC FCD2E290
Accurately ripped (confidence 2) [D2C2D7FB]
Copy OK

Track 5

Filename C:\My Rip\05 - Stala Matka.wav

Pre-gap length 0:00:07.00

Peak level 98.9 %
Track quality 100.0 %
Test CRC 0D64E3A9
Copy CRC 0D64E3A9
Accurately ripped (confidence 2) [86306551]
Copy OK

Track 6

Filename C:\My Rip\06 - Regina Coeli.wav

Pre-gap length 0:00:07.00

Peak level 98.8 %
Track quality 100.0 %
Test CRC 8E22ADBD
Copy CRC 8E22ADBD
Accurately ripped (confidence 2) [7CC7F630]
Copy OK

Track 7

Filename C:\My Rip\07 - Maykomashmalon.wav

Pre-gap length 0:00:30.00

Peak level 31.6 %
Track quality 100.0 %
Test CRC F58C0AA8
Copy CRC F58C0AA8
Accurately ripped (confidence 2) [2CF78E56]
Copy OK


All tracks accurately ripped

No errors occurred

End of status report


––––––––––––––––––––––––––––––––––––––––
Analyzed: Vladimir Godar / Mater
––––––––––––––––––––––––––––––––––––––––

DR Peak RMS Duration Track
––––––––––––––––––––––––––––––––––––––––
DR13 -6.40 dB -25.04 dB 3:51 01-Maykomashmalon
DR12 -0.10 dB -17.57 dB 9:42 02-Magnificat
DR14 -2.45 dB -23.51 dB 8:17 03-Uspavanky
DR12 -5.88 dB -22.20 dB 6:19 04-Ecce Puer
DR9 -0.10 dB -14.93 dB 19:32 05-Stala Matka
DR12 -0.10 dB -16.50 dB 5:32 06-Regina Coeli
DR14 -10.00 dB -30.06 dB 3:37 07-Maykomashmalon
––––––––––––––––––––––––––––––––––––––––

Number of tracks: 7
Official DR value: DR12

Samplerate: 44100 Hz
Channels: 2
Bits per sample: 16
Bitrate: 518 kbps
Codec: FLAC
================================================================================

Vladimir Godar - Mater (2006) {ECM 1985} [Proper Repost]
Vladimir Godar - Mater (2006) {ECM 1985} [Proper Repost]
Vladimir Godar - Mater (2006) {ECM 1985} [Proper Repost]


Rip by Sarchiapone