Subcategories

VokalEnsemble Koln, Musica Antiqua Koln, Reinhard Goebel - Carpentier - Musique sacree (2003)

Posted By: tirexiss
VokalEnsemble Koln, Musica Antiqua Koln, Reinhard Goebel - Carpentier - Musique sacree (2003)

VokalEnsemble Koln, Musica Antiqua Koln, Reinhard Goebel - Carpentier: Musique sacree (2003)
EAC | FLAC (image+.cue, log) | Covers Included | 02:20:06 | 814 MB
Genre: Baroque, Sacred | Label: ARCHIV Produktion | Catalog: B0001413-02

Very little is known about Charpentier's life (1643-1704). The main source of information is an obscure rival composer named de Brossard. According to de Brossard, Charpentier was originally from Paris but studied music in Rome under the composer Carissimi. In 1696 he beat out de Brossard for the post of choirmaster at the Sainte Chapelle Cathedral in Paris, where he remained until his death in 1704. As Goebels writes in the album liner notes, there are several reasons for Charpentier's neglect as a composer. First, he has traditionally been relegated to that band of other composers who were "Lully's imitators". Secondly, his music is "not easy listening, being neither instantly memorable nor readily digestible. Rather it is highly demanding and not always accessible to every listener from the outset." However, it is related that even de Brossard paid tribute to him, praising him as the "most profound and learned of modern composers."

Even if you love baroque music, gaining an appreciation of this music will take some time. But once you have put forth the effort, and assuming you do enjoy period baroque, you will not want to remove this disc from your changer, it is so amazingly good, no small thanks to Goebel and the Musica Antiqua Koln. And if that's not recommendation enough, included in this album is a bonus disc which celebrates 25 years of Musica Antiqua Koln on the Archiv Produktion label. Here's what's included on that disc: Heinichen's Concerto in F major, J.S. Bach's Suite in B minor, J.C. Bach's Andante de Molto, Handel's Haec est Regina virginum, J.S. Bach's Sinfonia from the Concerto in D after BVW 249, Telemann's Concerto for three oboes, three violins and basso continuo in B-flat major, G.C. Bach's Cantata `Siehe, wie fein und lieblich' (This is an astonishingly beautiful piece!), Vivaldi's "La Follia", and lastly Bach's Third Brandenburg Concerto.

VokalEnsemble Koln, Musica Antiqua Koln, Reinhard Goebel - Carpentier - Musique sacree (2003)

Track List:

CD 1:
1. Marche de Triomphe et Second Air de Trompette in D major
2-5. Messe pour plusieurs instruments au lieu des orgues, H. 513
6. Fanfare à deux trompettes, H. deest
7. Offerte pour l'orgue et pour les violons, flûtes et hautbois, H. 514
8-12. Suite pour un reposoir, H. 508
13. Ouverture pour l'église, H. 524
14-17. Symphonies pour un reposoir, H. 515
18. Offerte non encore exécutée, H.522
19-24. Concert [Suite] pour quatre parties de violes, H. 545
25. Pour un reposoir: Ouverture dès que la procession parâit, H.523
26. Marche de Triomphe et Second Air de Trompette in D major

Exact Audio Copy V1.2 from 12. August 2016

EAC extraction logfile from 30. March 2017, 18:52

Reinhard Goebel / Musique Sacrée

Used drive : MATSHITADVD-RAM UJ8G6 Adapter: 1 ID: 0

Read mode : Secure
Utilize accurate stream : Yes
Defeat audio cache : Yes
Make use of C2 pointers : No

Read offset correction : 103
Overread into Lead-In and Lead-Out : No
Fill up missing offset samples with silence : Yes
Delete leading and trailing silent blocks : No
Null samples used in CRC calculations : Yes
Used interface : Native Win32 interface for Win NT & 2000

Used output format : User Defined Encoder
Selected bitrate : 768 kBit/s
Quality : High
Add ID3 tag : No
Command line compressor : C:\Program Files (x86)\Exact Audio Copy\Flac\flac.exe
Additional command line options : -6 -V -T "ARTIST=%artist%" -T "TITLE=%title%" -T "ALBUM=%albumtitle%" -T "DATE=%year%" -T "TRACKNUMBER=%tracknr%" -T "GENRE=%genre%" -T "COMMENT=%comment%" -T "BAND=%albuminterpret%" -T "ALBUMARTIST=%albuminterpret%" -T "COMPOSER=%composer%" %haslyrics%–tag-from-file=LYRICS="%lyricsfile%"%haslyrics% -T "DISCNUMBER=%cdnumber%" -T "TOTALDISCS=%totalcds%" -T "TOTALTRACKS=%numtracks%" %hascover%–picture="%coverfile%"%hascover% %source% -o %dest%


TOC of the extracted CD

Track | Start | Length | Start sector | End sector
––––––––––––––––––––––––––––-
1 | 0:00.00 | 2:30.37 | 0 | 11286
2 | 2:30.37 | 7:29.13 | 11287 | 44974
3 | 9:59.50 | 9:28.45 | 44975 | 87619
4 | 19:28.20 | 3:22.67 | 87620 | 102836
5 | 22:51.12 | 1:01.38 | 102837 | 107449
6 | 23:52.50 | 0:30.00 | 107450 | 109699
7 | 24:22.50 | 3:07.25 | 109700 | 123749
8 | 27:30.00 | 2:41.00 | 123750 | 135824
9 | 30:11.00 | 1:26.63 | 135825 | 142337
10 | 31:37.63 | 1:29.04 | 142338 | 149016
11 | 33:06.67 | 0:42.71 | 149017 | 152237
12 | 33:49.63 | 3:58.12 | 152238 | 170099
13 | 37:48.00 | 2:32.45 | 170100 | 181544
14 | 40:20.45 | 2:25.30 | 181545 | 192449
15 | 42:46.00 | 2:32.00 | 192450 | 203849
16 | 45:18.00 | 1:56.63 | 203850 | 212612
17 | 47:14.63 | 2:56.24 | 212613 | 225836
18 | 50:11.12 | 3:21.00 | 225837 | 240911
19 | 53:32.12 | 1:49.00 | 240912 | 249086
20 | 55:21.12 | 1:57.63 | 249087 | 257924
21 | 57:19.00 | 3:03.00 | 257925 | 271649
22 | 60:22.00 | 0:56.00 | 271650 | 275849
23 | 61:18.00 | 0:57.25 | 275850 | 280149
24 | 62:15.25 | 2:04.00 | 280150 | 289449
25 | 64:19.25 | 3:27.70 | 289450 | 305044
26 | 67:47.20 | 3:19.55 | 305045 | 320024


Range status and errors

Selected range

Filename C:\Users\Roy\Music\CHARPENTIER - Muique Sacrée\CD (FLAC + CUE)\CD\Marc-Antoine Charpentier - Musique Sacrée.wav

Peak level 99.9 %
Extraction speed 4.4 X
Range quality 100.0 %
Test CRC E628BBF1
Copy CRC E628BBF1
Copy OK

No errors occurred


AccurateRip summary

Track 1 accurately ripped (confidence 23) [B5CDC49A] (AR v2)
Track 2 accurately ripped (confidence 23) [73B6F5AD] (AR v2)
Track 3 accurately ripped (confidence 23) [7209E821] (AR v2)
Track 4 accurately ripped (confidence 23) [3CBB2330] (AR v2)
Track 5 accurately ripped (confidence 23) [ABCE3C38] (AR v2)
Track 6 accurately ripped (confidence 23) [9817053F] (AR v2)
Track 7 accurately ripped (confidence 23) [F3008AFB] (AR v2)
Track 8 accurately ripped (confidence 23) [04E4B2D3] (AR v2)
Track 9 accurately ripped (confidence 23) [7DE0EF8E] (AR v2)
Track 10 accurately ripped (confidence 23) [595D02D4] (AR v2)
Track 11 accurately ripped (confidence 23) [53A5B541] (AR v2)
Track 12 accurately ripped (confidence 23) [BDFC3252] (AR v2)
Track 13 accurately ripped (confidence 23) [006E1C28] (AR v2)
Track 14 accurately ripped (confidence 23) [DADA2377] (AR v2)
Track 15 accurately ripped (confidence 23) [05A1CB39] (AR v2)
Track 16 accurately ripped (confidence 23) [74E45BB7] (AR v2)
Track 17 accurately ripped (confidence 23) [98C15817] (AR v2)
Track 18 accurately ripped (confidence 23) [A2A0CC72] (AR v2)
Track 19 accurately ripped (confidence 23) [E4355D66] (AR v2)
Track 20 accurately ripped (confidence 23) [96C7B415] (AR v2)
Track 21 accurately ripped (confidence 23) [5E4CEABC] (AR v2)
Track 22 accurately ripped (confidence 23) [352C1A39] (AR v2)
Track 23 accurately ripped (confidence 23) [2C2A21AB] (AR v2)
Track 24 accurately ripped (confidence 23) [8E70C25B] (AR v2)
Track 25 accurately ripped (confidence 22) [30C9FBC7] (AR v2)
Track 26 accurately ripped (confidence 22) [1435067C] (AR v2)

All tracks accurately ripped

End of status report

–– CUETools DB Plugin V2.1.6

[CTDB TOCID: XcLrNvuHTLEsMi4n.r6iD2goNWs-] database access error: The remote name could not be resolved: 'db.cuetools.net'


==== Log checksum E2D1D8CB4EDE6C852DCA71B1929460038528B877A185E80E43B05FE624BE679F ====

[CUETools log; Date: 03.04.2017 18:01:24; Version: 2.1.5]
[CTDB TOCID: XcLrNvuHTLEsMi4n.r6iD2goNWs-] found.
Track | CTDB Status
1 | (24/25) Accurately ripped
2 | (24/25) Accurately ripped
3 | (24/25) Accurately ripped
4 | (24/25) Accurately ripped
5 | (24/25) Accurately ripped
6 | (24/25) Accurately ripped
7 | (24/25) Accurately ripped
8 | (24/25) Accurately ripped
9 | (24/25) Accurately ripped
10 | (24/25) Accurately ripped
11 | (24/25) Accurately ripped
12 | (24/25) Accurately ripped
13 | (24/25) Accurately ripped
14 | (24/25) Accurately ripped
15 | (24/25) Accurately ripped
16 | (24/25) Accurately ripped
17 | (23/25) Accurately ripped
18 | (22/25) Accurately ripped
19 | (23/25) Accurately ripped
20 | (24/25) Accurately ripped
21 | (23/25) Accurately ripped
22 | (24/25) Accurately ripped
23 | (24/25) Accurately ripped
24 | (24/25) Accurately ripped
25 | (23/25) Accurately ripped
26 | (23/25) Accurately ripped
[AccurateRip ID: 0049e806-051f6c4a-6310ab1a] found.
Track [ CRC | V2 ] Status
01 [748eddb3|b5cdc49a] (19+23/42) Accurately ripped
02 [b4468cee|73b6f5ad] (19+23/42) Accurately ripped
03 [6b99b4a2|7209e821] (17+23/40) Accurately ripped
04 [9510e322|3cbb2330] (18+23/41) Accurately ripped
05 [702504ef|abce3c38] (18+23/41) Accurately ripped
06 [e78d3dc2|9817053f] (18+23/41) Accurately ripped
07 [1cc7078c|f3008afb] (18+23/41) Accurately ripped
08 [113a3da8|04e4b2d3] (18+23/41) Accurately ripped
09 [a875a7c9|7de0ef8e] (18+23/41) Accurately ripped
10 [eec423d8|595d02d4] (18+23/41) Accurately ripped
11 [e02ed039|53a5b541] (18+23/41) Accurately ripped
12 [bc7eab1e|bdfc3252] (18+23/41) Accurately ripped
13 [343edc8c|006e1c28] (18+23/41) Accurately ripped
14 [36838e8c|dada2377] (18+23/41) Accurately ripped
15 [99f8bf5d|05a1cb39] (18+23/41) Accurately ripped
16 [534b656b|74e45bb7] (18+23/41) Accurately ripped
17 [31bb0cd1|98c15817] (17+23/40) Accurately ripped
18 [a5314bdc|a2a0cc72] (18+23/41) Accurately ripped
19 [c60b4596|e4355d66] (18+23/41) Accurately ripped
20 [686ad261|96c7b415] (17+23/40) Accurately ripped
21 [76a2e3c7|5e4ceabc] (18+23/41) Accurately ripped
22 [e5bb9e29|352c1a39] (18+23/41) Accurately ripped
23 [e7caf0a4|2c2a21ab] (18+23/41) Accurately ripped
24 [6b40a019|8e70c25b] (18+23/41) Accurately ripped
25 [0bb68095|30c9fbc7] (18+22/40) Accurately ripped
26 [3a1193d6|1435067c] (18+22/40) Accurately ripped

Track Peak [ CRC32 ] [W/O NULL] [ LOG ]
– 99,9 [E628BBF1] [F755008C] CRC32
01 99,9 [E2960AF7] [512DD739]
02 86,2 [DDF25F62] [94E68314]
03 96,7 [E0D665BE] [2A6AD7BA]
04 99,9 [2875EF3A] [EFB93487]
05 92,2 [0D47019B] [4460DCC0]
06 79,0 [7337FE2F] [DEDAB60C]
07 99,6 [EB78A988] [E7AD02CA]
08 84,9 [E2DF0B80] [96C982C6]
09 65,4 [27110A9D] [BA844013]
10 48,9 [718BF433] [2AE2176A]
11 61,1 [0C8C53E5] [6FB38645]
12 79,6 [5380ED9C] [696904F3]
13 92,7 [FAA95094] [74C934A6]
14 79,1 [80CB0696] [0190A5D1]
15 44,5 [C77C4EE5] [7638A2B9]
16 43,2 [F6A6C726] [06AE642B]
17 76,2 [E9FAF477] [7CA3441C]
18 84,7 [1EFE8EDF] [0FE2D498]
19 72,2 [717CCAF0] [BFA8C649]
20 66,9 [12279F9B] [F4CBB53B]
21 69,1 [40E327F6] [1E244EEF]
22 79,7 [4B4DF329] [29F48786]
23 94,1 [20E5DE54] [00E96256]
24 75,5 [0A6DD1E0] [F3101D86]
25 86,3 [36DE2448] [23701B2D]
26 99,9 [FB68512F] [EBC7B4B6]

CD 2:
1-4. Concerto for 2 horns, violin, 3 oboes, 2 flutes & strings in F major, Seibel 234: [Part 1]
5. Orchestral Suite No. 2 in B minor, BWV 1067: Ouvertüre
6. Symphonie Concertante for piano, oboe, violin, cello & orchestra in B flat major, CW C48 (T. 289/7): Andante di molto
7. Haec est Regina virginum, antiphon for soprano, strings & continuo, HWV 235
8. Easter Oratorio (Oster-Oratorium: 'Kommt, eilet und laufet'), BWV 249 (BC D8): Sinfonia
9-12. Septet (Concerto), for 3 oboes, 3 violins & continuo in B flat major, TWV 44:43
12. Siehe, wie fein und lieblich ist es, vocal concerto, for 2 tenors, bass & instruments
13. Trio Sonata for 2 violins & continuo in D minor ('La follia'), Op. 1/12, RV 63
14. Brandenburg Concerto No. 3 in G major, BWV 1048: Allegro
15. Brandenburg Concerto No. 3 in G major, BWV 1048: Allegro assai

Exact Audio Copy V1.2 from 12. August 2016

EAC extraction logfile from 30. March 2017, 20:01

Musica Antiqua Köln / Bonus Disc

Used drive : MATSHITADVD-RAM UJ8G6 Adapter: 1 ID: 0

Read mode : Secure
Utilize accurate stream : Yes
Defeat audio cache : Yes
Make use of C2 pointers : No

Read offset correction : 103
Overread into Lead-In and Lead-Out : No
Fill up missing offset samples with silence : Yes
Delete leading and trailing silent blocks : No
Null samples used in CRC calculations : Yes
Used interface : Native Win32 interface for Win NT & 2000

Used output format : User Defined Encoder
Selected bitrate : 768 kBit/s
Quality : High
Add ID3 tag : No
Command line compressor : C:\Program Files (x86)\Exact Audio Copy\Flac\flac.exe
Additional command line options : -6 -V -T "ARTIST=%artist%" -T "TITLE=%title%" -T "ALBUM=%albumtitle%" -T "DATE=%year%" -T "TRACKNUMBER=%tracknr%" -T "GENRE=%genre%" -T "COMMENT=%comment%" -T "BAND=%albuminterpret%" -T "ALBUMARTIST=%albuminterpret%" -T "COMPOSER=%composer%" %haslyrics%–tag-from-file=LYRICS="%lyricsfile%"%haslyrics% -T "DISCNUMBER=%cdnumber%" -T "TOTALDISCS=%totalcds%" -T "TOTALTRACKS=%numtracks%" %hascover%–picture="%coverfile%"%hascover% %source% -o %dest%


TOC of the extracted CD

Track | Start | Length | Start sector | End sector
––––––––––––––––––––––––––––-
1 | 0:00.00 | 2:30.52 | 0 | 11301
2 | 2:30.52 | 0:44.26 | 11302 | 14627
3 | 3:15.03 | 2:23.03 | 14628 | 25355
4 | 5:38.06 | 2:56.23 | 25356 | 38578
5 | 8:34.29 | 10:15.10 | 38579 | 84713
6 | 18:49.39 | 8:04.05 | 84714 | 121018
7 | 26:53.44 | 4:48.03 | 121019 | 142621
8 | 31:41.47 | 3:54.15 | 142622 | 160186
9 | 35:35.62 | 2:25.14 | 160187 | 171075
10 | 38:01.01 | 2:34.42 | 171076 | 182667
11 | 40:35.43 | 4:04.07 | 182668 | 200974
12 | 44:39.50 | 6:30.10 | 200975 | 230234
13 | 51:09.60 | 8:49.55 | 230235 | 269964
14 | 59:59.40 | 5:06.63 | 269965 | 292977
15 | 65:06.28 | 3:51.07 | 292978 | 310309


Range status and errors

Selected range

Filename C:\Users\Roy\Music\CHARPENTIER - Muique Sacrée\CD (FLAC + CUE)\Bonus Disc\Musica Antiqua Köln - Bonus Disc.wav

Peak level 100.0 %
Extraction speed 4.5 X
Range quality 100.0 %
Test CRC 7C3399C2
Copy CRC 7C3399C2
Copy OK

No errors occurred


AccurateRip summary

Track 1 accurately ripped (confidence 6) [FDF67028] (AR v2)
Track 2 accurately ripped (confidence 6) [153FF29C] (AR v2)
Track 3 accurately ripped (confidence 6) [EB9EA8DE] (AR v2)
Track 4 accurately ripped (confidence 6) [316B8266] (AR v2)
Track 5 accurately ripped (confidence 6) [12BB96DD] (AR v2)
Track 6 accurately ripped (confidence 6) [3EEA0EBA] (AR v2)
Track 7 accurately ripped (confidence 6) [2F55DE07] (AR v2)
Track 8 accurately ripped (confidence 6) [758A7874] (AR v2)
Track 9 accurately ripped (confidence 6) [AC840D2B] (AR v2)
Track 10 accurately ripped (confidence 6) [20957A60] (AR v2)
Track 11 accurately ripped (confidence 6) [AC4628F3] (AR v2)
Track 12 accurately ripped (confidence 6) [D94A0DF8] (AR v2)
Track 13 accurately ripped (confidence 6) [50B2D074] (AR v2)
Track 14 accurately ripped (confidence 6) [5D39FE9E] (AR v2)
Track 15 accurately ripped (confidence 6) [A6F5B861] (AR v2)

All tracks accurately ripped

End of status report

–– CUETools DB Plugin V2.1.6

[CTDB TOCID: C_POC5la4KgUmJGqulQXdrwZamo-] found
Submit result: already submitted
Track | CTDB Status
1 | (12/13) Accurately ripped
2 | (12/13) Accurately ripped
3 | (12/13) Accurately ripped
4 | (12/13) Accurately ripped
5 | (13/13) Accurately ripped
6 | (13/13) Accurately ripped
7 | (13/13) Accurately ripped
8 | (12/13) Accurately ripped
9 | (12/13) Accurately ripped
10 | (12/13) Accurately ripped
11 | (12/13) Accurately ripped
12 | (12/13) Accurately ripped
13 | (12/13) Accurately ripped
14 | (12/13) Accurately ripped
15 | (12/13) Accurately ripped


==== Log checksum BDFD8BBECFAC3A135279E2900D3B7B4B61599BBBD687FC78332082DE70F7AE59 ====

[CUETools log; Date: 03.04.2017 18:01:46; Version: 2.1.5]
[CTDB TOCID: C_POC5la4KgUmJGqulQXdrwZamo-] found.
Track | CTDB Status
1 | (12/13) Accurately ripped
2 | (12/13) Accurately ripped
3 | (12/13) Accurately ripped
4 | (12/13) Accurately ripped
5 | (13/13) Accurately ripped
6 | (13/13) Accurately ripped
7 | (13/13) Accurately ripped
8 | (12/13) Accurately ripped
9 | (12/13) Accurately ripped
10 | (12/13) Accurately ripped
11 | (12/13) Accurately ripped
12 | (12/13) Accurately ripped
13 | (12/13) Accurately ripped
14 | (12/13) Accurately ripped
15 | (12/13) Accurately ripped
[AccurateRip ID: 00226ee6-01955147-b410290f] found.
Track [ CRC | V2 ] Status
01 [8234a6c1|fdf67028] (06+06/12) Accurately ripped
02 [d67d688a|153ff29c] (06+06/12) Accurately ripped
03 [a1d51c5d|eb9ea8de] (06+06/12) Accurately ripped
04 [d047acf9|316b8266] (06+06/12) Accurately ripped
05 [68b877c6|12bb96dd] (06+06/12) Accurately ripped
06 [9ac3cb1f|3eea0eba] (06+06/12) Accurately ripped
07 [e6694a06|2f55de07] (06+06/12) Accurately ripped
08 [7ec5fb7f|758a7874] (06+06/12) Accurately ripped
09 [b2c1f283|ac840d2b] (06+06/12) Accurately ripped
10 [bfe94132|20957a60] (06+06/12) Accurately ripped
11 [6f481ae9|ac4628f3] (06+06/12) Accurately ripped
12 [62aaf94f|d94a0df8] (06+06/12) Accurately ripped
13 [36272285|50b2d074] (06+06/12) Accurately ripped
14 [5a3c54ba|5d39fe9e] (06+06/12) Accurately ripped
15 [1010f20e|a6f5b861] (06+06/12) Accurately ripped

Track Peak [ CRC32 ] [W/O NULL] [ LOG ]
– 100,0 [7C3399C2] [F507CD2B] CRC32
01 77,6 [461CFA9B] [C7105E75]
02 50,9 [1C7611BB] [EC670841]
03 21,6 [B7B8CA55] [462B9D79]
04 100,0 [524D7719] [585EA15A]
05 69,9 [480F3E5D] [6B432843]
06 82,1 [EAAA649F] [965FCD30]
07 92,8 [F67F8987] [55A3937B]
08 94,4 [B1D84FE6] [3EABD54E]
09 76,8 [C3C64E0A] [EFB6BEF5]
10 49,6 [123C52D5] [C64858FC]
11 65,3 [BCB18697] [C8FBBD04]
12 66,0 [26916251] [96D10D1A]
13 62,1 [4377F2D4] [12BEA8F2]
14 69,3 [17C621E6] [A8A6E3E0]
15 66,5 [344FF1F8] [C6D771F4]

Performers:
VokalEnsemble Köln
Musica Antiqua Köln
Reinhard Goebel conductor

Thanks to the Original ripper (unknown)!

Download: