Subcategories

Voodoo Hill - Wild Seed Of Mother Earth (2004) [Japanese Edition]

Posted By: v3122
Voodoo Hill - Wild Seed Of Mother Earth (2004) [Japanese Edition]

Voodoo Hill - Wild Seed Of Mother Earth (2004)
EAC | Flac(Image) + Cue + Log & MP3 CBR 320Kbps
Nippon Crown, CRCL-4588 | ~ 415 or 127 Mb | Scans(png) -> 104 Mb
Hard Rock

СТWild Seed Of Mother EarthТТ is VOODOO HILLТs second offering after the self named debut some four years ago. That record received some excellent reviews what with the scintillating guitar work of respected and busy! Italian guitarist/ producer Dario Mollo and more than ably supported by none other than the СТvoice of RockТТ Glenn Hughes.

This new album features some the heaviest material Hughes has sung on since his rather botched attempt with BLACK SABBATH in the 1980Тs. Opening track СТMake BelieveТТ has a bone crushing riff that pans into a quite delightful Hard Rock song. HughesТs vocals and the overall delivery are exceptional. СТStill EvergreenТТ is a good stab at early DIO and sounds like an Americanised SABBATH. MolloТs guitar playing through riff and solo is quite exhilarating. He nails down riffs with graceful aplomb and the solo on СТStill EvergreenТТ is shredding to the max. With songs such as СТDying To LiveТТ and СТCanТt Stop FallingТТ reaching almost into Power Metal territory and the QUEENSRYCHE/ RED HOT CHILLI PEPPERS sounding title track to the driving Rock of СТMy DonТt See ItТТ, СТWild Seed Of Mother EarthТТ is something special traversing punchy, hard driving Metal with classy Melodic Rock blessed with the supreme voice of Hughes and the musicianship of Mollo.


Marrying classy Melodic Rock with dark, brooding riffs and sealing it with catchy, anthem like choruses is perhaps not to every ones liking but VOODOO HILL have a potential monster release in the waiting here.

~ metal-observer.com

Voodoo Hill - Wild Seed Of Mother Earth (2004):

Voodoo Hill - Wild Seed Of Mother Earth (2004) [Japanese Edition]

Tracklist:

01. Make Believe (4:58)
02. Dying To Live (4:37)
03. Still Evergreen (4:53)
04. Atmosphere (4:07)
05. Wild Seed Of Mother Earth (5:06)
06. My Eyes Don't See It (4:46)
07. Can't Stop Falling (5:22)
08. Nothing Stays The Same (5:08)
09. Soul Protector (4:39)
10. She Cast No Shadow (3:51)
11. Stormy Sea (Instrumental - Bonus Track) (3:19)
12. 16 Guns (5:28)

Musicians:

Dario Mollo: Guitar
Glenn Hughes: Vocals
Roberto Gualdi: Drums
Dario Patti: Keys
Fulvio Gaslini: Bass
Fabiano Rizzi: Drums in Atmosphere
Glenn Hughes: Bass in Wild Seed Of Mother Earth and 16 Guns


Exact Audio Copy V1.1 from 23. June 2015

EAC extraction logfile from 8. January 2016, 17:11

Voodoo Hill / Wild Seed Of Mother Earth (CRCL-4588)

Used drive : Optiarc DVD RW AD-7930H Adapter: 1 ID: 0

Read mode : Secure
Utilize accurate stream : Yes
Defeat audio cache : Yes
Make use of C2 pointers : No

Read offset correction : 48
Overread into Lead-In and Lead-Out : No
Fill up missing offset samples with silence : Yes
Delete leading and trailing silent blocks : No
Null samples used in CRC calculations : Yes
Used interface : Native Win32 interface for Win NT & 2000

Used output format : User Defined Encoder
Selected bitrate : 1024 kBit/s
Quality : High
Add ID3 tag : No
Command line compressor : C:\Program Files (x86)\FLAC\flac.exe
Additional command line options : -V -8 -T "Date=%year%" -T "Genre=%genre%" %source%


TOC of the extracted CD

Track | Start | Length | Start sector | End sector
––––––––––––––––––––––––––––-
1 | 0:00.00 | 4:57.50 | 0 | 22324
2 | 4:57.50 | 4:37.37 | 22325 | 43136
3 | 9:35.12 | 4:52.60 | 43137 | 65096
4 | 14:27.72 | 4:06.40 | 65097 | 83586
5 | 18:34.37 | 5:06.07 | 83587 | 106543
6 | 23:40.44 | 4:46.03 | 106544 | 127996
7 | 28:26.47 | 5:22.23 | 127997 | 152169
8 | 33:48.70 | 5:07.62 | 152170 | 175256
9 | 38:56.57 | 4:38.71 | 175257 | 196177
10 | 43:35.53 | 3:51.16 | 196178 | 213518
11 | 47:26.69 | 3:19.02 | 213519 | 228445
12 | 50:45.71 | 5:27.72 | 228446 | 253042


Range status and errors

Selected range

Filename D:\Ripped By liveevil\Voodoo Hill - Wild Seed Of Mother Earth (CRCL-4588).wav

Peak level 99.0 %
Extraction speed 4.7 X
Range quality 100.0 %
Test CRC CE0BA6B4
Copy CRC CE0BA6B4
Copy OK

No errors occurred


AccurateRip summary

Track 1 accurately ripped (confidence 1) [799C17E7] (AR v2)
Track 2 accurately ripped (confidence 1) [619070D9] (AR v2)
Track 3 accurately ripped (confidence 1) [EBA676A2] (AR v2)
Track 4 accurately ripped (confidence 1) [A9101169] (AR v2)
Track 5 accurately ripped (confidence 1) [67FF442C] (AR v2)
Track 6 accurately ripped (confidence 1) [5C09FDBC] (AR v2)
Track 7 accurately ripped (confidence 1) [2BFD4495] (AR v2)
Track 8 accurately ripped (confidence 1) [F5FADE65] (AR v2)
Track 9 accurately ripped (confidence 1) [E0494B3C] (AR v2)
Track 10 accurately ripped (confidence 1) [E3EF6C96] (AR v2)
Track 11 accurately ripped (confidence 1) [0FBBA6DE] (AR v2)
Track 12 accurately ripped (confidence 1) [ADD39CB3] (AR v2)

All tracks accurately ripped

End of status report

==== Log checksum 9CB5A2CA192F77B91A4FD5ABDE559006F971985D7782F8612365E444BCE9C98C ====

foobar2000 1.2.9 / Dynamic Range Meter 1.1.1
log date: 2016-01-25 11:02:59

––––––––––––––––––––––––––––––––––––––––
Analyzed: Voodoo Hill / Wild Seed Of Mother Earth (Nippon Crown, CRCL-4588, Japan)
––––––––––––––––––––––––––––––––––––––––

DR Peak RMS Duration Track
––––––––––––––––––––––––––––––––––––––––
DR6 -0.08 dB -6.93 dB 4:58 01-Make Believe
DR6 -0.19 dB -8.21 dB 4:37 02-Dying To Live
DR7 -0.20 dB -7.77 dB 4:53 03-Still Evergreen
DR8 -0.20 dB -8.69 dB 4:07 04-Atmosphere
DR8 -0.20 dB -10.56 dB 5:06 05-Wild Seed Of Mother Earth
DR7 -0.20 dB -8.06 dB 4:46 06-My Eyes Don't See It
DR6 -0.20 dB -7.33 dB 5:22 07-Can't Stop Falling
DR6 -0.12 dB -7.15 dB 5:08 08-Nothing Stays The Same
DR6 -0.19 dB -7.78 dB 4:39 09-Soul Protector
DR7 -0.20 dB -7.90 dB 3:51 10-She Cast No Shadow
DR10 -0.20 dB -14.13 dB 3:19 11-Stormy Sea (Instrumental - Bonus Track)
DR8 -0.20 dB -9.39 dB 5:28 12-16 Guns
––––––––––––––––––––––––––––––––––––––––

Number of tracks: 12
Official DR value: DR7

Samplerate: 44100 Hz
Channels: 2
Bits per sample: 16
Bitrate: 1001 kbps
Codec: FLAC

[CUETools log; Date: 23.01.2016 22:14:08; Version: 2.1.4]
[CTDB TOCID: kmP7q0hb1IVrcWXGew0zAdMkUzE-] disk not present in database.
[AccurateRip ID: 001970e4-00ecdf75-ab0d2d0c] found.
Track [ CRC | V2 ] Status
01 [3af6dc0b|799c17e7] (0+1/1) Accurately ripped
02 [3d1abc12|619070d9] (0+1/1) Accurately ripped
03 [7475308c|eba676a2] (0+1/1) Accurately ripped
04 [57beef21|a9101169] (0+1/1) Accurately ripped
05 [ee9bb9a2|67ff442c] (0+1/1) Accurately ripped
06 [bfe657ab|5c09fdbc] (0+1/1) Accurately ripped
07 [34d7fd72|2bfd4495] (0+1/1) Accurately ripped
08 [b946fc8a|f5fade65] (0+1/1) Accurately ripped
09 [575f6d65|e0494b3c] (0+1/1) Accurately ripped
10 [e7367bd2|e3ef6c96] (0+1/1) Accurately ripped
11 [8247c376|0fbba6de] (0+1/1) Accurately ripped
12 [e59a6f54|add39cb3] (0+1/1) Accurately ripped

Track Peak [ CRC32 ] [W/O NULL] [ LOG ]
– 99,0 [CE0BA6B4] [551EC136] CRC32
01 99,0 [6CC3E4C6] [B3AE5921]
02 97,7 [C7107117] [4F6940DD]
03 97,7 [1760A000] [D8FC0474]
04 97,7 [BF7EE633] [961B4D21]
05 97,7 [81354E29] [5D78412D]
06 97,7 [077ED4D3] [4C61DA03]
07 97,7 [7321E31B] [698357F8]
08 98,6 [A1496DB9] [FAE1B1B6]
09 97,7 [FD29D74C] [20F9A5D7]
10 97,7 [B3835E05] [09BB87FD]
11 97,7 [7BD7A0F0] [36A87D87]
12 97,7 [3A68D244] [E22CC7A6]

Voodoo Hill - Wild Seed Of Mother Earth (2004) [Japanese Edition]

All thanks go to liveevil

Voodoo Hill in my Blog

Download Voodoo Hill - Wild Seed Of Mother Earth (2004):