Subcategories

VA - Who's That Compilation? (1989) {Who's That Beat}

Posted By: TestTickles
VA - Who's That Compilation? (1989) {Who's That Beat}

VA - Who's That Compilation? (1989) {Who's That Beat?}
EAC Rip | FLAC with CUE and log | scans | 407 mb
MP3 CBR 320 kbps | RAR | 159 mb
Genre: electronic, dance, EBM, new beat

Who's That Compilation? is a 1989 compilation CD released by the Who's That Beat? label. It features some of the most powerful electronic, dance, EBM and new beat that?

VA - Who's That Compilation? (1989) {Who's That Beat}

01. Tragic Error - Tanzen (3:06)
02. Low Job - Animal Farm (4:30)
03. Tecnorockers - Tecno-Rock (3:09)
04. Sissi - I've Got A Crush On You (3:57)
05. Twice Of Love - 24 Hours From Culture (3:50)
06. T.99 - Invisible Sensuality (4:09)
07. Tragic Error - Klatsche In Die Hände (3:16)
08. T.99 - Too Nice To Be Real (3:13)
09. G-Force - Spicy (3:02)
10. Zinno - Russian Roulette (House Mix) (4:44)
11. WestBam - Monkey Say Monkey Do (3:18)
12. Virginity - Daddy (3:20)
13. Black Kiss - The Orgasm (3:56)
14. Jimmy Beat Orchestra - Main Theme (6:00)
15. Go ! - 5 Oz. Plain Flour (6:33)
16. Trash It! - Trash It! (4:32)

Exact Audio Copy V1.0 beta 3 from 29. August 2011

EAC extraction logfile from 14. February 2014e, 12:19

Various / Who's That Compilation

Used drive : PIONEER DVD-RW DVR-112D Adapter: 0 ID: 0

Read mode : Secure
Utilize accurate stream : Yes
Defeat audio cache : Yes
Make use of C2 pointers : No

Read offset correction : 48
Overread into Lead-In and Lead-Out : No
Fill up missing offset samples with silence : Yes
Delete leading and trailing silent blocks : No
Null samples used in CRC calculations : Yes
Used interface : Native Win32 interface for Win NT & 2000
Gap handling : Appended to previous track

Used output format : Internal WAV Routines
Sample format : 44.100 Hz; 16 Bit; Stereo

TOC of the extracted CD

Track | Start | Length | Start sector | End sector
––––––––––––––––––––––––––––-
1 | 0:00.00 | 3:09.10 | 0 | 14184
2 | 3:09.10 | 4:33.35 | 14185 | 34694
3 | 7:42.45 | 3:12.72 | 34695 | 49166
4 | 10:55.42 | 3:59.38 | 49167 | 67129
5 | 14:55.05 | 3:51.60 | 67130 | 84514
6 | 18:46.65 | 4:09.00 | 84515 | 103189
7 | 22:55.65 | 3:19.50 | 103190 | 118164
8 | 26:15.40 | 3:16.20 | 118165 | 132884
9 | 29:31.60 | 3:03.00 | 132885 | 146609
10 | 32:34.60 | 4:44.05 | 146610 | 167914
11 | 37:18.65 | 3:24.12 | 167915 | 183226
12 | 40:43.02 | 3:47.73 | 183227 | 200324
13 | 44:31.00 | 3:57.52 | 200325 | 218151
14 | 48:28.52 | 5:39.25 | 218152 | 243601
15 | 54:08.02 | 6:35.05 | 243602 | 273231
16 | 60:43.07 | 4:33.55 | 273232 | 293761

Track 1

Filename C:\cuntfist\FLAC\VA - Who's That Compilation (1989) [FLAC] {Who's That Beat}\01 - Tragic Error - Tanzen.wav

Pre-gap length 0:00:02.00

Peak level 82.1 %
Extraction speed 4.5 X
Track quality 100.0 %
Test CRC 9B214811
Copy CRC 9B214811
Track not present in AccurateRip database
Copy OK

Track 2

Filename C:\cuntfist\FLAC\VA - Who's That Compilation (1989) [FLAC] {Who's That Beat}\02 - Low Job - Animal Farm.wav

Pre-gap length 0:00:01.43

Peak level 66.1 %
Extraction speed 5.2 X
Track quality 100.0 %
Test CRC EBE3417A
Copy CRC EBE3417A
Track not present in AccurateRip database
Copy OK

Track 3

Filename C:\cuntfist\FLAC\VA - Who's That Compilation (1989) [FLAC] {Who's That Beat}\03 - Tecnorockers - Tecno-Rock.wav

Pre-gap length 0:00:01.68

Peak level 68.5 %
Extraction speed 5.3 X
Track quality 100.0 %
Test CRC 6F1CE990
Copy CRC 6F1CE990
Track not present in AccurateRip database
Copy OK

Track 4

Filename C:\cuntfist\FLAC\VA - Who's That Compilation (1989) [FLAC] {Who's That Beat}\04 - Sissi - I've Got A Crush On You.wav

Pre-gap length 0:00:02.22

Peak level 51.2 %
Extraction speed 5.8 X
Track quality 100.0 %
Test CRC 7CEB0C77
Copy CRC 7CEB0C77
Track not present in AccurateRip database
Copy OK

Track 5

Filename C:\cuntfist\FLAC\VA - Who's That Compilation (1989) [FLAC] {Who's That Beat}\05 - Twice Of Love - 24 Hours From Culture.wav

Pre-gap length 0:00:01.50

Peak level 79.2 %
Extraction speed 6.2 X
Track quality 100.0 %
Test CRC CFDA4675
Copy CRC CFDA4675
Track not present in AccurateRip database
Copy OK

Track 6

Filename C:\cuntfist\FLAC\VA - Who's That Compilation (1989) [FLAC] {Who's That Beat}\06 - T.99 - Invisible Sensuality.wav

Pre-gap length 0:00:01.13

Peak level 75.6 %
Extraction speed 5.8 X
Track quality 99.9 %
Test CRC 885C3D26
Copy CRC 885C3D26
Track not present in AccurateRip database
Copy OK

Track 7

Filename C:\cuntfist\FLAC\VA - Who's That Compilation (1989) [FLAC] {Who's That Beat}\07 - Tragic Error - Klatsch In Die Hande.wav

Pre-gap length 0:00:01.53

Peak level 72.7 %
Extraction speed 6.6 X
Track quality 100.0 %
Test CRC 905744E3
Copy CRC 905744E3
Track not present in AccurateRip database
Copy OK

Track 8

Filename C:\cuntfist\FLAC\VA - Who's That Compilation (1989) [FLAC] {Who's That Beat}\08 - T.99 - Too Nice To Be Real.wav

Pre-gap length 0:00:01.60

Peak level 74.9 %
Extraction speed 6.7 X
Track quality 100.0 %
Test CRC 66E0118E
Copy CRC 66E0118E
Track not present in AccurateRip database
Copy OK

Track 9

Filename C:\cuntfist\FLAC\VA - Who's That Compilation (1989) [FLAC] {Who's That Beat}\09 - G-Force - Spicy.wav

Pre-gap length 0:00:02.30

Peak level 60.9 %
Extraction speed 6.9 X
Track quality 100.0 %
Test CRC 1B8F4804
Copy CRC 1B8F4804
Track not present in AccurateRip database
Copy OK

Track 10

Filename C:\cuntfist\FLAC\VA - Who's That Compilation (1989) [FLAC] {Who's That Beat}\10 - Zinno - Russian Roulette.wav

Pre-gap length 0:00:00.53

Peak level 88.1 %
Extraction speed 7.6 X
Track quality 100.0 %
Test CRC 8D50DC85
Copy CRC 8D50DC85
Track not present in AccurateRip database
Copy OK

Track 11

Filename C:\cuntfist\FLAC\VA - Who's That Compilation (1989) [FLAC] {Who's That Beat}\11 - Westbam - Monkey Say Monkey Do.wav

Pre-gap length 0:00:01.30

Peak level 92.7 %
Extraction speed 6.6 X
Track quality 99.9 %
Test CRC 916FF969
Copy CRC 916FF969
Track not present in AccurateRip database
Copy OK

Track 12

Filename C:\cuntfist\FLAC\VA - Who's That Compilation (1989) [FLAC] {Who's That Beat}\12 - Virginity - Daddy.wav

Pre-gap length 0:00:00.70

Peak level 86.2 %
Extraction speed 7.9 X
Track quality 100.0 %
Test CRC 0FF1C501
Copy CRC 0FF1C501
Track not present in AccurateRip database
Copy OK

Track 13

Filename C:\cuntfist\FLAC\VA - Who's That Compilation (1989) [FLAC] {Who's That Beat}\13 - Black Kiss - The Orgasm.wav

Pre-gap length 0:00:01.10

Peak level 59.6 %
Extraction speed 7.2 X
Track quality 99.9 %
Test CRC 1CA0213C
Copy CRC 1CA0213C
Track not present in AccurateRip database
Copy OK

Track 14

Filename C:\cuntfist\FLAC\VA - Who's That Compilation (1989) [FLAC] {Who's That Beat}\14 - Jimmy Beat Orchestra - Main Theme.wav

Pre-gap length 0:00:01.02

Peak level 83.8 %
Extraction speed 8.8 X
Track quality 100.0 %
Test CRC 7E73D121
Copy CRC 7E73D121
Track not present in AccurateRip database
Copy OK

Track 15

Filename C:\cuntfist\FLAC\VA - Who's That Compilation (1989) [FLAC] {Who's That Beat}\15 - Go! - 5 Oz - Plain Flour.wav

Pre-gap length 0:00:01.35

Peak level 67.1 %
Extraction speed 8.6 X
Track quality 99.9 %
Test CRC 6878E5B6
Copy CRC 6878E5B6
Track not present in AccurateRip database
Copy OK

Track 16

Filename C:\cuntfist\FLAC\VA - Who's That Compilation (1989) [FLAC] {Who's That Beat}\16 - Trash It ! - Trash It !.wav

Pre-gap length 0:00:01.07

Peak level 64.1 %
Extraction speed 9.2 X
Track quality 100.0 %
Test CRC 3A559A8B
Copy CRC 3A559A8B
Track not present in AccurateRip database
Copy OK

None of the tracks are present in the AccurateRip database

No errors occurred

End of status report

==== Log checksum 44BC61BE944A55EE59E95CD1F8AA3F5E08F50CBB998A5A45378415ED72769CD1 ====


VA - Who's That Compilation? (1989) {Who's That Beat}


Thank you to the original uploader.