Subcategories

Wagner - Tristan und Isolde (Jiri Belohlavek) (2009) [Blu-Ray]

Posted By: Vilboa
Wagner - Tristan und Isolde (Jiri Belohlavek) (2009) [Blu-Ray]

Wagner - Tristan und Isolde (Jiří Bělohlávek) (2009) [Blu-Ray]
2xBluRay | BDMV | MPEG-4 AVC Video / 30675 kbps / 1080i / 29,970 fps | 240 min | 39,8+38,6 Gb
Audio1: German / Dolby TrueHD Audio / 2.0 / 24-bit | Audio2: Dolby TrueHD Audio / 5.0 / 48 kHz / 3190 kbps / 24-bit

BluRay-rip | AVC | MKV 1920x1080 / 6215 kbps / 29,97 fps | 240 min | 11,5 Gb
Audio: German / AC3 / 5ch / 48.0 KHz / 640 kbps
Classical | Opus Arte | Sub: English, French, German, Spanish, Italian

Glyndebourne's celebrated production of Nikolaus Lehnhoff's Tristan und Isolde is a supremely intelligent achievement; gravely beautiful, haunting and meditative, it is deeply reflective rather than visceral, fortified by Roland Aeschlimann's stunningly effective set, a womb-like space through which the protagonists move like gods. Conductor Jiří Bělohlávek mirrors Lehnhoff's approach in his sophisticated plumbing of the score's depths, with every shift in texture carefully laid bare by an inspired London Philharmonic Orchestra. Nina Stemme's Isolde and Robert Gambill's Tristan, both gloriously lyrical, are matched by superb performances from René Pape as the betrayed and vulnerable King Marke and Bo Skovhus as Kurwenal, deeply touching in his helpless devotion to Tristan. This High Definition recording of a production of uncommon intimacy reveals the opera's music and drama in a new light.

Cast:
Isolde - Nina Stemme
Tristan - Robert Gambill
Brangäne - Katarina Karnéus
Kurwenal - Bo Skovhus
King Marke - Rene Pape
Melot - Stephen Gadd
Young Sailor/Shepherd - Timothy Robinson
Steersman - Richard Mosley-Evans
The Glyndebourne Chorus
London Philharmonic Orchestra
Conductor - Jiří Bělohlávek


Disc Title: TRISTAN UND ISOLDE
Disc Size: 42 835 223 172 bytes
Protection: AACS
BD-Java: No
Playlist: 00002.MPLS
Size: 41 617 225 728 bytes
Length: 2:39:15.579
Total Bitrate: 34,84 Mbps
Video: MPEG-4 AVC Video / 26263 kbps / 1080i / 29,970 fps / 16:9 / High Profile 4.1
Audio: German / Dolby TrueHD Audio / 5.0 / 48 kHz / 3190 kbps / 24-bit (AC3 Embedded: 5.0 / 48 kHz / 640 kbps)
Audio: German / Dolby TrueHD Audio / 2.0 / 48 kHz / 1417 kbps / 24-bit (AC3 Embedded: 2.0 / 48 kHz / 224 kbps)
Subtitle: English / 21,322 kbps
Subtitle: French / 22,488 kbps
Subtitle: German / 20,421 kbps
Subtitle: Spanish / 21,319 kbps
Subtitle: Italian / 22,055 kbps


General
Unique ID : 215318362658675058732857102917786969625 (0xA1FCCEE7A45DCBAFB85AE04D6BD4A619)
Complete name : C:\Tristan_und_Isolde_01.mkv
Format : Matroska
Format version : Version 2
File size : 7.68 GiB
Duration : 2h 39mn
Overall bit rate : 6 906 Kbps
Movie name : Tristan_und_Isolde_01
Encoded date : UTC 2017-05-31 11:39:38
Writing application : DVDFab 9.1.6.8
Writing library : libebml v0.7.8 + libmatroska v0.8.1

Video
ID : 1
Format : AVC
Format/Info : Advanced Video Codec
Format profile : High@L4.1
Format settings, CABAC : Yes
Format settings, ReFrames : 2 frames
Codec ID : V_MPEG4/ISO/AVC
Duration : 2h 39mn
Bit rate : 6 215 Kbps
Width : 1 920 pixels
Height : 1 080 pixels
Display aspect ratio : 16:9
Frame rate mode : Constant
Frame rate : 29.970 fps
Color space : YUV
Chroma subsampling : 4:2:0
Bit depth : 8 bits
Scan type : Progressive
Bits/(Pixel*Frame) : 0.100
Stream size : 6.82 GiB (89%)
Writing library : x264 core 142
Encoding settings : cabac=1 / ref=1 / deblock=1:-1:-1 / analyse=0x3:0 / me=hex / subme=5 / psy=0 / mixed_ref=0 / me_range=16 / chroma_me=1 / trellis=0 / 8x8dct=1 / cqm=0 / deadzone=21,11 / fast_pskip=1 / chroma_qp_offset=0 / threads=8 / lookahead_threads=2 / sliced_threads=0 / nr=0 / decimate=1 / interlaced=0 / bluray_compat=0 / constrained_intra=0 / bframes=2 / b_pyramid=0 / b_adapt=1 / b_bias=0 / direct=1 / weightb=1 / open_gop=0 / weightp=0 / keyint=24 / keyint_min=13 / scenecut=40 / intra_refresh=0 / rc=abr / mbtree=0 / bitrate=6215 / ratetol=1.0 / qcomp=0.60 / qpmin=0 / qpmax=69 / qpstep=4 / ip_ratio=1.40 / pb_ratio=1.30 / aq=1:1.00
Default : Yes
Forced : No
Color primaries : BT.709
Transfer characteristics : BT.709
Matrix coefficients : BT.709
Color range : Limited

Audio
ID : 2
Format : AC-3
Format/Info : Audio Coding 3
Mode extension : CM (complete main)
Format settings, Endianness : Big
Codec ID : A_AC3
Duration : 2h 39mn
Bit rate mode : Constant
Bit rate : 640 Kbps
Channel(s) : 5 channels
Channel positions : Front: L C R, Side: L R
Sampling rate : 48.0 KHz
Bit depth : 16 bits
Compression mode : Lossy
Stream size : 729 MiB (9%)
Language : German
Default : Yes
Forced : No

Text #1
ID : 3
Format : VobSub
Codec ID : S_VOBSUB
Codec ID/Info : The same subtitle format used on DVDs
Language : English
Default : Yes
Forced : No

Text #2
ID : 4
Format : VobSub
Codec ID : S_VOBSUB
Codec ID/Info : The same subtitle format used on DVDs
Language : French
Default : No
Forced : No

Text #3
ID : 5
Format : VobSub
Codec ID : S_VOBSUB
Codec ID/Info : The same subtitle format used on DVDs
Language : German
Default : No
Forced : No

Text #4
ID : 6
Format : VobSub
Codec ID : S_VOBSUB
Codec ID/Info : The same subtitle format used on DVDs
Language : Spanish
Default : No
Forced : No

Text #5
ID : 7
Format : VobSub
Codec ID : S_VOBSUB
Codec ID/Info : The same subtitle format used on DVDs
Language : Italian
Default : No
Forced : No

Menu
00:00:00.000 : en:Chapter 01
00:01:20.747 : en:Chapter 02
00:12:20.740 : en:Chapter 03
00:19:15.154 : en:Chapter 04
00:30:03.802 : en:Chapter 05
00:51:36.393 : en:Chapter 06
00:59:55.525 : en:Chapter 07
01:21:16.872 : en:Chapter 08
01:27:47.262 : en:Chapter 09
01:29:48.983 : en:Chapter 10
01:44:44.144 : en:Chapter 11
01:52:20.433 : en:Chapter 12
01:57:11.257 : en:Chapter 13
01:59:47.580 : en:Chapter 14
02:04:32.298 : en:Chapter 15
02:06:52.438 : en:Chapter 16
02:14:58.423 : en:Chapter 17
02:16:48.967 : en:Chapter 18
02:30:11.769 : en:Chapter 19


All screenshots taken from Blu-ray

Wagner - Tristan und Isolde (Jiri Belohlavek) (2009) [Blu-Ray]
Wagner - Tristan und Isolde (Jiri Belohlavek) (2009) [Blu-Ray]
Wagner - Tristan und Isolde (Jiri Belohlavek) (2009) [Blu-Ray]
Wagner - Tristan und Isolde (Jiri Belohlavek) (2009) [Blu-Ray]