Subcategories

Wagner - Tristan und Isolde - Jiri Kout (2013/1993) [Blu-Ray]

Posted By: Vilboa
Wagner - Tristan und Isolde - Jiri Kout (2013/1993) [Blu-Ray]

Wagner - Tristan und Isolde (Jiří Kout) (2013/1993) [Blu-Ray]
BluRay | BDMV | MPEG-4 AVC Video / 20478 kbps / 1080i / 29,970 fps | 233 min | 43,1 Gb
Audio1: German / LPCM Audio / 2.0 / 24-bit | Audio2: DTS-HD MA / 5.1 / 48 kHz / 2161 kbps / 16-bit

BluRay-rip | AVC | MKV 1920x1080 / 6215 kbps / 29,97 fps | 233 min | 12,5 Gb
Audio: German / DTS / 6ch / 48.0 KHz / 16-bit
Classical | Arthaus Musik | Sub: German, English, French, Spanish, Italian, Korean

This production of Richard Wagner’s “Tristan und Isolde” was recorded during the Deutsche Oper Berlin’s great tour to Japan in 1993. Directed by Götz Friedrich and conducted by Jiří Kout, this interpretation of the adulterous love between the Cornish knight Tristan and the Irish princess Isolde was a great success. Wagner’s composition of “Tristan und Isolde” was inspired by his love affair with Mathilde Wesendonck and the philosophy of Arthur Schopenhauer. Widely acknowledged as one of the peaks of the operatic repertoire, this music drama was notable for Wagner’s advanced use of chromaticism, tonality, orchestral colour and harmonic suspension. The score of “Tristan und Isolde” has often been cited as a landmark in the development of Western music. René Kollo and Gwyneth Jones give brilliant performances and prove once again, why they belong to the world’s best Wagner singers.

Cast:
Tristan - René Kollo
King Marke - Robert Lloyd
Isolde - Gwyneth Jones
Kurwenal - Gerd Feldhoff
Melot - Peter Edelmann
Brangäne - Hanna Schwarz
Voice of young sailor - Clemens Bieber
Herdsman - Uwe Peper
Helmsman - Ivan Sardi
Chorus and Orchestra of the Deutsche Oper Berlin
Conductor - Jiří Kout


Disc Title: TRISTAN UND ISOLDE
Disc Size: 46 374 080 840 bytes
Protection: AACS
BD-Java: No
Playlist: 00000.MPLS
Size: 46 301 687 808 bytes
Length: 3:52:59.465
Total Bitrate: 26,50 Mbps
Video: MPEG-4 AVC Video / 20478 kbps / 1080i / 29,970 fps / 16:9 / High Profile 4.1
Audio: German / LPCM Audio / 2.0 / 48 kHz / 2304 kbps / 24-bit
Audio: German / DTS-HD Master Audio / 5.1 / 48 kHz / 2161 kbps / 16-bit (DTS Core: 5.1 / 48 kHz / 1509 kbps / 16-bit)
Subtitle: German / 14,096 kbps
Subtitle: English / 15,083 kbps
Subtitle: French / 15,754 kbps
Subtitle: Spanish / 15,045 kbps
Subtitle: Italian / 14,416 kbps
Subtitle: Korean / 16,427 kbps


General
Unique ID : 251412072953276953287134995827072355705 (0xBD243437412E1C9CA9ED0896F58ACD79)
Complete name : C:\Tristan_und_Isolde.mkv
Format : Matroska
Format version : Version 2
File size : 12.6 GiB
Duration : 3h 52mn
Overall bit rate : 7 746 Kbps
Movie name : Tristan_und_Isolde
Encoded date : UTC 2017-06-22 07:25:33
Writing application : DVDFab 9.1.6.8
Writing library : libebml v0.7.8 + libmatroska v0.8.1

Video
ID : 1
Format : AVC
Format/Info : Advanced Video Codec
Format profile : High@L4.1
Format settings, CABAC : Yes
Format settings, ReFrames : 2 frames
Format settings, GOP : M=1, N=24
Codec ID : V_MPEG4/ISO/AVC
Duration : 3h 52mn
Bit rate : 6 215 Kbps
Width : 1 920 pixels
Height : 1 080 pixels
Display aspect ratio : 16:9
Frame rate mode : Constant
Frame rate : 29.970 fps
Color space : YUV
Chroma subsampling : 4:2:0
Bit depth : 8 bits
Scan type : Progressive
Bits/(Pixel*Frame) : 0.100
Stream size : 9.89 GiB (79%)
Writing library : x264 core 142
Encoding settings : cabac=1 / ref=1 / deblock=1:-1:-1 / analyse=0x3:0 / me=hex / subme=5 / psy=0 / mixed_ref=0 / me_range=16 / chroma_me=1 / trellis=0 / 8x8dct=1 / cqm=0 / deadzone=21,11 / fast_pskip=1 / chroma_qp_offset=0 / threads=8 / lookahead_threads=2 / sliced_threads=0 / nr=0 / decimate=1 / interlaced=0 / bluray_compat=0 / constrained_intra=0 / bframes=2 / b_pyramid=0 / b_adapt=1 / b_bias=0 / direct=1 / weightb=1 / open_gop=0 / weightp=0 / keyint=24 / keyint_min=13 / scenecut=40 / intra_refresh=0 / rc=abr / mbtree=0 / bitrate=6215 / ratetol=1.0 / qcomp=0.60 / qpmin=0 / qpmax=69 / qpstep=4 / ip_ratio=1.40 / pb_ratio=1.30 / aq=1:1.00
Default : Yes
Forced : No
Color primaries : BT.709
Transfer characteristics : BT.709
Matrix coefficients : BT.709
Color range : Limited

Audio
ID : 2
Format : DTS
Format/Info : Digital Theater Systems
Mode : 16
Format settings, Endianness : Big
Codec ID : A_DTS
Duration : 3h 52mn
Bit rate mode : Constant
Bit rate : 1 509 Kbps
Channel(s) : 6 channels
Channel positions : Front: L C R, Side: L R, LFE
Sampling rate : 48.0 KHz
Bit depth : 16 bits
Compression mode : Lossy
Stream size : 2.45 GiB (19%)
Language : German
Default : Yes
Forced : No

Text #1
ID : 3
Format : VobSub
Codec ID : S_VOBSUB
Codec ID/Info : The same subtitle format used on DVDs
Language : German
Default : Yes
Forced : No

Text #2
ID : 4
Format : VobSub
Codec ID : S_VOBSUB
Codec ID/Info : The same subtitle format used on DVDs
Language : English
Default : No
Forced : No

Text #3
ID : 5
Format : VobSub
Codec ID : S_VOBSUB
Codec ID/Info : The same subtitle format used on DVDs
Language : French
Default : No
Forced : No

Text #4
ID : 6
Format : VobSub
Codec ID : S_VOBSUB
Codec ID/Info : The same subtitle format used on DVDs
Language : Spanish
Default : No
Forced : No

Text #5
ID : 7
Format : VobSub
Codec ID : S_VOBSUB
Codec ID/Info : The same subtitle format used on DVDs
Language : Italian
Default : No
Forced : No

Text #6
ID : 8
Format : VobSub
Codec ID : S_VOBSUB
Codec ID/Info : The same subtitle format used on DVDs
Language : Korean
Default : No
Forced : No

Menu
00:00:00.000 : en:Chapter 01
00:11:44.703 : en:Chapter 02
00:17:37.456 : en:Chapter 03
00:27:18.870 : en:Chapter 04
00:47:12.529 : en:Chapter 05
00:56:43.299 : en:Chapter 06
01:15:13.375 : en:Chapter 07
01:24:34.069 : en:Chapter 08
01:26:35.056 : en:Chapter 09
01:39:49.283 : en:Chapter 10
01:47:07.320 : en:Chapter 11
01:51:43.596 : en:Chapter 12
01:53:50.924 : en:Chapter 13
01:58:02.375 : en:Chapter 14
02:00:05.698 : en:Chapter 15
02:07:48.560 : en:Chapter 16
02:09:33.465 : en:Chapter 17
02:21:16.968 : en:Chapter 18
02:32:52.930 : en:Chapter 19
02:39:58.989 : en:Chapter 20
02:48:09.846 : en:Chapter 21
02:57:30.539 : en:Chapter 22
03:02:43.052 : en:Chapter 23
03:14:23.385 : en:Chapter 24
03:23:17.785 : en:Chapter 25
03:26:32.646 : en:Chapter 26
03:32:41.415 : en:Chapter 27
03:40:51.605 : en:Chapter 28
03:51:01.514 : en:Chapter 29


All screenshots taken from Blu-ray

Wagner - Tristan und Isolde - Jiri Kout (2013/1993) [Blu-Ray]
Wagner - Tristan und Isolde - Jiri Kout (2013/1993) [Blu-Ray]
Wagner - Tristan und Isolde - Jiri Kout (2013/1993) [Blu-Ray]
Wagner - Tristan und Isolde - Jiri Kout (2013/1993) [Blu-Ray]