Subcategories

VA - Mixed with Love: The Walter Gibbons Salsoul Anthology (2004)

Posted By: mook45
VA - Mixed with Love: The Walter Gibbons Salsoul Anthology (2004)

VA - Mixed with Love: The Walter Gibbons Salsoul Anthology (2004)
EAC | FLAC IMG,CUE+LOG = 1.33GB | MP3@320 = 507MB | 400 dpi Scans
Disco | Label: Suss'd - Salsa CD 015 | FSo/FSe


3CD set dedicated to Walter Gibbon's pioneering mid-to-late-seventies extended 12" remixes for the Salsoul label.

Track listing
Disc: 1
1. Ten Percent - Double Exposure
2. Block Party - White, Anthony
3. Catch Me On The Rebound - Loleatta Holloway
4. Just As Long As I Got You - Love Committee
5. It's Good For The Soul - Salsoul Orchestra
6. Let No Man Put Asunder - First Choice
7. Love Is Finally Coming My Way - True Example
8. We're Getting Stronger - Loleatta Holloway
9. Cheaters Never Win - Love Committee
10. I Wish That I Could Make Love To You - Double Exposure
Disc: 2
1. Nice 'n' Nasty - Salsoul Orchestra
2. Hit And Run - Loleatta Holloway
3. My Love Is Free - Double Exposure
4. As Long As You Love Me - True Example
5. Catch Me On The Rebound - Salsoul Orchestra
6. I Can't Turn You Loose - Anthony White
7. Ten Percent - Double Exposure
8. Law And Order - Love Committee
9. Ice Cold Love - Double Exposure
10. Where Will It End - Love Committee
Disc: 3
1. Salsoul 3001 - Salsoul Orchestra
2. Moon Maiden - Luv You Madly Orchestra
3. Dance With Me Let's Believe - Cellophane
4. Catch Me On The Rebound - Salsoul Orchestra
5. Rocket Rock - Luv You Madly Orchestra
6. Magic Bird Of Fire - Salsoul Orchestra
7. Super Queen - Cellophane
8. Stand By Your Man - Robin Band Hooker
9. Your Cheatin' Heart - Robin Band Hooker

Exact Audio Copy V0.99 prebeta 5 from 4. May 2009

EAC extraction logfile from 26. December 2009, 19:32

Various / Mixed With Love - The Walter Gibbons Salsoul Anthology (CD1 - The Madness Begins…)

Used drive : HP DVD Writer 1040r Adapter: 1 ID: 0

Read mode : Secure
Utilize accurate stream : Yes
Defeat audio cache : Yes
Make use of C2 pointers : No

Read offset correction : 6
Overread into Lead-In and Lead-Out : No
Fill up missing offset samples with silence : Yes
Delete leading and trailing silent blocks : No
Null samples used in CRC calculations : Yes
Used interface : Native Win32 interface for Win NT & 2000

Used output format : User Defined Encoder
Selected bitrate : 1024 kBit/s
Quality : High
Add ID3 tag : No
Command line compressor : C:\Program Files\Exact Audio Copy\FLAC\FLAC.EXE
Additional command line options : -5 -V -T "ARTIST=%a" -T "TITLE=%t" -T "ALBUM=%g" -T "DATE=%y" -T "TRACKNUMBER=%n" -T "GENRE=%m" -T "COMMENT=EAC Flac 1.1.2 -5" %s


TOC of the extracted CD

Track | Start | Length | Start sector | End sector
––––––––––––––––––––––––––––-
1 | 0:00.00 | 9:43.45 | 0 | 43769
2 | 9:43.45 | 5:50.60 | 43770 | 70079
3 | 15:34.30 | 10:49.37 | 70080 | 118791
4 | 26:23.67 | 8:37.10 | 118792 | 157576
5 | 35:01.02 | 7:08.33 | 157577 | 189709
6 | 42:09.35 | 4:39.02 | 189710 | 210636
7 | 46:48.37 | 6:20.13 | 210637 | 239149
8 | 53:08.50 | 7:23.02 | 239150 | 272376
9 | 60:31.52 | 7:52.63 | 272377 | 307839
10 | 68:24.40 | 6:00.60 | 307840 | 334899


Range status and errors

Selected range

Filename C:\Users\Mike3\Desktop\Mixed with Love - The Walter Gibbons Salsoul Anthology (Flac)\CD1 - The Madness Begins\Various - Mixed With Love - The Walter Gibbons Salsoul Anthology (CD1 - The Madness Begins…).wav

Peak level 95.5 %
Range quality 100.0 %
Copy CRC D9472AF2
Copy OK

No errors occurred


AccurateRip summary

Track 1 accurately ripped (confidence 2) [42DD55EC]
Track 2 accurately ripped (confidence 2) [84B037A1]
Track 3 accurately ripped (confidence 2) [923629FD]
Track 4 accurately ripped (confidence 2) [AED01746]
Track 5 accurately ripped (confidence 2) [5B182552]
Track 6 accurately ripped (confidence 2) [B1E1570D]
Track 7 accurately ripped (confidence 2) [378A5953]
Track 8 accurately ripped (confidence 2) [B14393EA]
Track 9 accurately ripped (confidence 2) [CC56671C]
Track 10 accurately ripped (confidence 2) [58B2FC70]

All tracks accurately ripped

End of status report


Exact Audio Copy V0.99 prebeta 5 from 4. May 2009

EAC extraction logfile from 26. December 2009, 20:00

Various / Mixed With Love - The Walter Gibbons Salsoul Anthology (CD2 - The Madness Continues)

Used drive : HP DVD Writer 1040r Adapter: 1 ID: 0

Read mode : Secure
Utilize accurate stream : Yes
Defeat audio cache : Yes
Make use of C2 pointers : No

Read offset correction : 6
Overread into Lead-In and Lead-Out : No
Fill up missing offset samples with silence : Yes
Delete leading and trailing silent blocks : No
Null samples used in CRC calculations : Yes
Used interface : Native Win32 interface for Win NT & 2000

Used output format : User Defined Encoder
Selected bitrate : 1024 kBit/s
Quality : High
Add ID3 tag : No
Command line compressor : C:\Program Files\Exact Audio Copy\FLAC\FLAC.EXE
Additional command line options : -5 -V -T "ARTIST=%a" -T "TITLE=%t" -T "ALBUM=%g" -T "DATE=%y" -T "TRACKNUMBER=%n" -T "GENRE=%m" -T "COMMENT=EAC Flac 1.1.2 -5" %s


TOC of the extracted CD

Track | Start | Length | Start sector | End sector
––––––––––––––––––––––––––––-
1 | 0:00.00 | 5:22.52 | 0 | 24201
2 | 5:22.52 | 11:00.40 | 24202 | 73741
3 | 16:23.17 | 4:56.63 | 73742 | 96004
4 | 21:20.05 | 5:35.65 | 96005 | 121194
5 | 26:55.70 | 7:22.30 | 121195 | 154374
6 | 34:18.25 | 5:38.50 | 154375 | 179774
7 | 39:57.00 | 7:05.62 | 179775 | 211711
8 | 47:02.62 | 9:31.70 | 211712 | 254606
9 | 56:34.57 | 6:07.60 | 254607 | 282191
10 | 62:42.42 | 7:37.65 | 282192 | 316531


Range status and errors

Selected range

Filename C:\Users\Mike3\Desktop\Mixed with Love - The Walter Gibbons Salsoul Anthology (Flac)\CD2 - The Madness Continues\Various - Mixed With Love - The Walter Gibbons Salsoul Anthology (CD2 - The Madness Continues).wav

Peak level 94.4 %
Range quality 100.0 %
Copy CRC C523ADEF
Copy OK

No errors occurred


AccurateRip summary

Track 1 accurately ripped (confidence 2) [3D23D0E5]
Track 2 accurately ripped (confidence 2) [AF0353AD]
Track 3 accurately ripped (confidence 2) [B6481877]
Track 4 accurately ripped (confidence 2) [C196BD74]
Track 5 accurately ripped (confidence 2) [18413321]
Track 6 accurately ripped (confidence 2) [936DA3CC]
Track 7 accurately ripped (confidence 2) [C0135F3F]
Track 8 accurately ripped (confidence 2) [7F857DF7]
Track 9 accurately ripped (confidence 2) [B805EAA6]
Track 10 accurately ripped (confidence 2) [27B3B80B]

All tracks accurately ripped

End of status report


Exact Audio Copy V0.99 prebeta 5 from 4. May 2009

EAC extraction logfile from 26. December 2009, 20:27

Various / Mixed With Love - The Walter Gibbons Salsoul Anthology (CD3 - Total Insanity)

Used drive : HP DVD Writer 1040r Adapter: 1 ID: 0

Read mode : Secure
Utilize accurate stream : Yes
Defeat audio cache : Yes
Make use of C2 pointers : No

Read offset correction : 6
Overread into Lead-In and Lead-Out : No
Fill up missing offset samples with silence : Yes
Delete leading and trailing silent blocks : No
Null samples used in CRC calculations : Yes
Used interface : Native Win32 interface for Win NT & 2000

Used output format : User Defined Encoder
Selected bitrate : 1024 kBit/s
Quality : High
Add ID3 tag : No
Command line compressor : C:\Program Files\Exact Audio Copy\FLAC\FLAC.EXE
Additional command line options : -5 -V -T "ARTIST=%a" -T "TITLE=%t" -T "ALBUM=%g" -T "DATE=%y" -T "TRACKNUMBER=%n" -T "GENRE=%m" -T "COMMENT=EAC Flac 1.1.2 -5" %s


TOC of the extracted CD

Track | Start | Length | Start sector | End sector
––––––––––––––––––––––––––––-
1 | 0:00.00 | 6:36.60 | 0 | 29759
2 | 6:36.60 | 8:49.70 | 29760 | 69504
3 | 15:26.55 | 8:50.47 | 69505 | 109301
4 | 24:17.27 | 7:37.35 | 109302 | 143611
5 | 31:54.62 | 4:21.53 | 143612 | 163239
6 | 36:16.40 | 8:05.60 | 163240 | 199674
7 | 44:22.25 | 9:34.50 | 199675 | 242774
8 | 53:57.00 | 7:50.02 | 242775 | 278026
9 | 61:47.02 | 9:30.05 | 278027 | 320781


Range status and errors

Selected range

Filename C:\Users\Mike3\Desktop\Mixed with Love - The Walter Gibbons Salsoul Anthology (Flac)\CD3 - Total Insanity\Various - Mixed With Love - The Walter Gibbons Salsoul Anthology (CD3 - Total Insanity).wav

Peak level 94.4 %
Range quality 100.0 %
Copy CRC CBEF8F0A
Copy OK

No errors occurred


AccurateRip summary

Track 1 accurately ripped (confidence 2) [77CF874C]
Track 2 accurately ripped (confidence 2) [7C112388]
Track 3 accurately ripped (confidence 3) [5BF9CB67]
Track 4 accurately ripped (confidence 2) [39D4C1FB]
Track 5 accurately ripped (confidence 2) [B1736AE4]
Track 6 accurately ripped (confidence 2) [82893511]
Track 7 accurately ripped (confidence 3) [28336304]
Track 8 accurately ripped (confidence 2) [C6B56330]
Track 9 accurately ripped (confidence 2) [35A78D22]

All tracks accurately ripped

End of status report

Files
Lame 320 Kbps = 507MB
Flac 880 Kbps ABR = 1.33GB
300 DPI PDF Booklet = 103MB

Booklet

http://www.filesonic.com/file/26747033/WalGibBooklet.rar

320

http://www.filesonic.com/file/26747223/WalGib_3_.part1.rar
http://www.filesonic.com/file/26747257/WalGib_3_.part2.rar
http://www.filesonic.com/file/26747153/WalGib_3_.part3.rar

Flac

http://www.filesonic.com/file/26747165/WalGib_F_.part1.rar
http://www.filesonic.com/file/26747215/WalGib_F_.part2.rar
http://www.filesonic.com/file/26747029/WalGib_F_.part3.rar
http://www.filesonic.com/file/26747071/WalGib_F_.part4.rar
http://www.filesonic.com/file/26747079/WalGib_F_.part5.rar
http://www.filesonic.com/file/26746965/WalGib_F_.part6.rar
http://www.filesonic.com/file/26746915/WalGib_F_.part7.rar

Booklet

http://www.fileserve.com/file/7NSkfxm/WalGibBooklet.rar

320

http://www.fileserve.com/file/xkwbrka/WalGib_3_.part1.rar
http://www.fileserve.com/file/Kdn2ZVZ/WalGib_3_.part2.rar
http://www.fileserve.com/file/2Kx85SQ/WalGib_3_.part3.rar

Flac

http://www.fileserve.com/file/RFG9FB7/WalGib_F_.part1.rar
http://www.fileserve.com/file/c8GrAfM/WalGib_F_.part2.rar
http://www.fileserve.com/file/rjhNjrw/WalGib_F_.part3.rar
http://www.fileserve.com/file/Evm4Bqq/WalGib_F_.part4.rar
http://www.fileserve.com/file/KERkf2x/WalGib_F_.part5.rar
http://www.fileserve.com/file/hAAgQGW/WalGib_F_.part6.rar
http://www.fileserve.com/file/JMXg9Ez/WalGib_F_.part7.rar

No mirrors