Subcategories

West Coast Natural Gas ‎– Two´s A Pair (1968) [Reissue 2012]

Posted By: hill0
West Coast Natural Gas ‎– Two´s A Pair (1968) [Reissue 2012]

West Coast Natural Gas ‎– Two´s A Pair (1968) [Reissue 2012]
EAC Rip | FLAC (tracks & cue & log) | 220 MB | MP3 CBR 320 kbps | 88 MB | Artwork (JPEG) | 29 MB | 38:28
Genre: Psychedelic Rock | Country: USA | Label: RD Records | RD CD 8

An album full of VINTAGE 1966-1968 Music by the band that brought you the incredible "HASHISH" on the legendary San Franciso Sampler "Fifth Pipe Dream". First ever release of this killer Westcoast psychedelic monster that took many years to complete!!! West Coast Natural Gas started in 1965 in Seattle. In early 1967 they went to San Francisco to work for a local music manager named Matthew Katz. Katz was the original manager for Jefferson Airplane, Moby Grape and later also It's a Beautiful Day. He talked West Coast Natural Gas into signing a contract with him but being young and stupid, they didn't realize at the time that they had basically signed everything over to him.
West Coast Natural Gas ‎– Two´s A Pair (1968) [Reissue 2012]




Tracklist:

01. Go Run And Play (2:34)
02. A Favor (3:41)
03. A Favor Version 2 (3:45)
04. The Jumping Frog (3:34)
05. Two's A Pair (4:16)
06. Beyond This Place (2:33)
07. Hashish (3:03)
08. Water Or Wine (3:40)
09. The West Coast Natural Gas White Levis Commercial 'Never Break' (0:46)
10. Radio Promo from the Galaxy Club ca. 1968 (0:38)
11. Mr. You're A Better Man Than I [Yardbirds Cover] (2:56)
12. Younger Girl [ Lovin' Spoonful Cover] (2:12)
13. You Make Me Feel So Good [Zombies Cover] (2:13)
14. He Was A Friend Of Mine [Byrds Cover] (2:39)

Exact Audio Copy V1.0 beta 3 from 29. August 2011

EAC extraction logfile from 27. March 2013, 21:02

West Coast Natural Gas / Two's A Pair

Used drive : Optiarc BD RW BD-5740H Adapter: 2 ID: 0

Read mode : Secure
Utilize accurate stream : Yes
Defeat audio cache : Yes
Make use of C2 pointers : No

Read offset correction : 48
Overread into Lead-In and Lead-Out : No
Fill up missing offset samples with silence : Yes
Delete leading and trailing silent blocks : No
Null samples used in CRC calculations : Yes
Used interface : Native Win32 interface for Win NT & 2000
Gap handling : Appended to previous track

Used output format : User Defined Encoder
Selected bitrate : 1024 kBit/s
Quality : High
Add ID3 tag : No
Command line compressor : C:\Program Files (x86)\FLAC\flac.exe
Additional command line options : -8 -V -T "ARTIST=%artist%" -T "TITLE=%title%" -T "ALBUM=%albumtitle%" -T "DATE=%year%" -T "TRACKNUMBER=%tracknr%" -T "GENRE=%genre%" -T "PERFORMER=%albuminterpret%" -T "COMPOSER=%composer%" %haslyrics%–tag-from-file=LYRICS="%lyricsfile%"%haslyrics% -T "ALBUMARTIST=%albumartist%" -T "DISCNUMBER=%cdnumber%" -T "TOTALDISCS=%totalcds%" -T "TOTALTRACKS=%numtracks%" -T "COMMENT=%comment%" %source% -o %dest%


TOC of the extracted CD

Track | Start | Length | Start sector | End sector
––––––––––––––––––––––––––––-
1 | 0:00.00 | 2:33.52 | 0 | 11526
2 | 2:33.52 | 3:41.02 | 11527 | 28103
3 | 6:14.54 | 3:44.56 | 28104 | 44959
4 | 9:59.35 | 3:33.50 | 44960 | 60984
5 | 13:33.10 | 4:15.59 | 60985 | 80168
6 | 17:48.69 | 2:32.57 | 80169 | 91625
7 | 20:21.51 | 3:03.11 | 91626 | 105361
8 | 23:24.62 | 3:40.20 | 105362 | 121881
9 | 27:05.07 | 0:46.07 | 121882 | 125338
10 | 27:51.14 | 0:37.67 | 125339 | 128180
11 | 28:29.06 | 2:56.14 | 128181 | 141394
12 | 31:25.20 | 2:11.51 | 141395 | 151270
13 | 33:36.71 | 2:12.69 | 151271 | 161239
14 | 35:49.65 | 2:38.57 | 161240 | 173146
15 | 41:00.47 | 1:41.16 | 184547 | 192137


Track 1

Filename C:\Users\mits\Desktop\EAC\01 - Go Run And Play.wav

Pre-gap length 0:00:02.00

Peak level 78.5 %
Extraction speed 4.1 X
Track quality 99.9 %
Test CRC 6E762A6B
Copy CRC 6E762A6B
Track not present in AccurateRip database
Copy OK

Track 2

Filename C:\Users\mits\Desktop\EAC\02 - A Favor.wav

Peak level 90.3 %
Extraction speed 4.6 X
Track quality 100.0 %
Test CRC 2F565848
Copy CRC 2F565848
Track not present in AccurateRip database
Copy OK

Track 3

Filename C:\Users\mits\Desktop\EAC\03 - A Favor Version 2.wav

Peak level 82.0 %
Extraction speed 5.0 X
Track quality 99.9 %
Test CRC FE5E76A1
Copy CRC FE5E76A1
Track not present in AccurateRip database
Copy OK

Track 4

Filename C:\Users\mits\Desktop\EAC\04 - The Jumping Frog.wav

Peak level 63.8 %
Extraction speed 5.4 X
Track quality 100.0 %
Test CRC 90236AFD
Copy CRC 90236AFD
Track not present in AccurateRip database
Copy OK

Track 5

Filename C:\Users\mits\Desktop\EAC\05 - Two's A Pair.wav

Peak level 98.4 %
Extraction speed 5.8 X
Track quality 100.0 %
Test CRC 01031BB8
Copy CRC 01031BB8
Track not present in AccurateRip database
Copy OK

Track 6

Filename C:\Users\mits\Desktop\EAC\06 - Beyond This Place.wav

Peak level 100.0 %
Extraction speed 6.0 X
Track quality 100.0 %
Test CRC CDA61F13
Copy CRC CDA61F13
Track not present in AccurateRip database
Copy OK

Track 7

Filename C:\Users\mits\Desktop\EAC\07 - Hashish.wav

Peak level 99.1 %
Extraction speed 6.3 X
Track quality 100.0 %
Test CRC 42AB843C
Copy CRC 42AB843C
Track not present in AccurateRip database
Copy OK

Track 8

Filename C:\Users\mits\Desktop\EAC\08 - Water Or Wine.wav

Peak level 98.4 %
Extraction speed 6.6 X
Track quality 100.0 %
Test CRC 6F0300C3
Copy CRC 6F0300C3
Track not present in AccurateRip database
Copy OK

Track 9

Filename C:\Users\mits\Desktop\EAC\09 - The West Coast Natural Gas White Levis Commercial ''Never Break''.wav

Peak level 96.6 %
Extraction speed 5.7 X
Track quality 100.0 %
Test CRC E7FCE257
Copy CRC E7FCE257
Track not present in AccurateRip database
Copy OK

Track 10

Filename C:\Users\mits\Desktop\EAC\10 - Radio Promo from the Galaxy Club ca. 1968.wav

Peak level 96.6 %
Extraction speed 5.4 X
Track quality 100.0 %
Test CRC 7035729C
Copy CRC 7035729C
Track not present in AccurateRip database
Copy OK

Track 11

Filename C:\Users\mits\Desktop\EAC\11 - Mr. You're A Better Man Than I [Yardbirds Cover].wav

Peak level 96.6 %
Extraction speed 6.9 X
Track quality 100.0 %
Test CRC 73B795E4
Copy CRC 73B795E4
Track not present in AccurateRip database
Copy OK

Track 12

Filename C:\Users\mits\Desktop\EAC\12 - Younger Girl [ Lovin' Spoonful Cover].wav

Peak level 88.4 %
Extraction speed 6.9 X
Track quality 100.0 %
Test CRC 08C073C6
Copy CRC 08C073C6
Track not present in AccurateRip database
Copy OK

Track 13

Filename C:\Users\mits\Desktop\EAC\13 - You Make Me Feel So Good [Zombies Cover].wav

Peak level 96.0 %
Extraction speed 7.0 X
Track quality 100.0 %
Test CRC 5FAAE74A
Copy CRC 5FAAE74A
Track not present in AccurateRip database
Copy OK

Track 14

Filename C:\Users\mits\Desktop\EAC\14 - He Was A Friend Of Mine [Byrds Cover].wav

Peak level 94.1 %
Extraction speed 7.5 X
Track quality 100.0 %
Test CRC F192B27F
Copy CRC F192B27F
Track not present in AccurateRip database
Copy OK


None of the tracks are present in the AccurateRip database

No errors occurred

End of status report

==== Log checksum 93D9CDB5F148B19E88F9E47011C9F39D0F2E59C673EB9E43F7B373A1E2C6D3EB ====


Personnel

Pat Craig - Vocals, Piano, Organ, Autoharp, Guitar
Kris Larsen - Vocals, Guitar
Steve Mack - Vocals, Lead Guitar
Dave Burke - Bass
Jeff Labrache - Drums, Vocals

All thanks go to the original releaser

West Coast Natural Gas ‎– Two´s A Pair (1968) [Reissue 2012]


=====