Tags
Language
Tags

Wilbur Harden & John Coltrane - Tanganyika Strut (1958) {1991, Japanese Reissue, Remastered}

Posted By: popsakov
Wilbur Harden & John Coltrane - Tanganyika Strut (1958) {1991, Japanese Reissue, Remastered}

Wilbur Harden & John Coltrane - Tanganyika Strut (1958) {1991, Japanese Reissue, Remastered}
EAC Rip | FLAC (Tracks) + Cue + m3u + Log ~ 200 Mb | MP3 CBR320 ~ 85 Mb
Full Scans | 00:28:54 | RAR 5% Recovery
Jazz | Savoy Jazz / Nippon Columbia #SV-0125

Tanganyika Strut is the last of the three 1958 Savoy recordings made by jazz musicians John Coltrane and Wilbur Harden. The album would be Harden's last as a leader. The sessions also produced a couple of alternate takes which can be found on some compilations, most notably the ones featuring the complete Savoy recordings made by Harden and Coltrane together, The Complete Mainstream 1958 Sessions (2009) and The Complete Savoy Sessions (1999).

***************

Wilbur Harden & John Coltrane - Tanganyika Strut (1958) {1991, Japanese Reissue, Remastered}

Wilbur Harden & John Coltrane - Tanganyika Strut (1958) {1991, Japanese Reissue, Remastered}

Track List:

01. Tanganyika Strut [9:54]
02. B.J. [4:28]
03. Anedac [5:09]
04. Once in a While [9:22]

Personnel:
Wilbur Harden - trumpet, flugelhorn
John Coltrane - tenor saxophone
Curtis Fuller - trombone
Tommy Flanagan (#1), Howard Williams (#2-4) - piano
Ali Jackson - bass
Art Taylor - drums

Exact Audio Copy V1.3 from 2. September 2016

EAC extraction logfile from 1. December 2018, 20:26

Wilbur Harden, John Coltrane / Tanganyika Strut

Used drive : TSSTcorpCDDVDW SH-224BB Adapter: 1 ID: 0

Read mode : Secure
Utilize accurate stream : Yes
Defeat audio cache : Yes
Make use of C2 pointers : No

Read offset correction : 6
Overread into Lead-In and Lead-Out : No
Fill up missing offset samples with silence : Yes
Delete leading and trailing silent blocks : No
Null samples used in CRC calculations : Yes
Used interface : Native Win32 interface for Win NT & 2000
Gap handling : Appended to previous track

Used output format : User Defined Encoder
Selected bitrate : 1024 kBit/s
Quality : High
Add ID3 tag : No
Command line compressor : C:\Program Files (x86)\Exact Audio Copy\Flac\flac.exe
Additional command line options : -8 -V -T "ARTIST=%artist%" -T "TITLE=%title%" -T "ALBUM=%albumtitle%" -T "DATE=%year%" -T "TRACKNUMBER=%tracknr%" -T "GENRE=%genre%" -T "PERFORMER=%albuminterpret%" -T "COMPOSER=%composer%" %haslyrics%–tag-from-file=LYRICS="%lyricsfile%"%haslyrics% -T "ALBUMARTIST=%albumartist%" -T "DISCNUMBER=%cdnumber%" -T "TOTALDISCS=%totalcds%" -T "TOTALTRACKS=%numtracks%" -T "COMMENT=%comment%" %source% -o %dest%


TOC of the extracted CD

Track | Start | Length | Start sector | End sector
––––––––––––––––––––––––––––-
1 | 0:00.00 | 9:57.20 | 0 | 44794
2 | 9:57.20 | 4:33.07 | 44795 | 65276
3 | 14:30.27 | 5:12.08 | 65277 | 88684
4 | 19:42.35 | 9:22.22 | 88685 | 130856


Track 1

Filename Z:\rips\Wilbur Harden, John Coltrane - Tanganyika Strut (1991) [FLAC] {SV-0125}\01 - Tanganyika Strut.wav

Pre-gap length 0:00:02.00

Peak level 100.0 %
Extraction speed 2.1 X
Track quality 99.9 %
Test CRC CA6E5F76
Copy CRC CA6E5F76
Accurately ripped (confidence 7) [ACB38648] (AR v2)
Copy OK

Track 2

Filename Z:\rips\Wilbur Harden, John Coltrane - Tanganyika Strut (1991) [FLAC] {SV-0125}\02 - B.J..wav

Pre-gap length 0:00:03.36

Peak level 100.0 %
Extraction speed 2.4 X
Track quality 100.0 %
Test CRC BEBB9159
Copy CRC BEBB9159
Accurately ripped (confidence 7) [CAE9EE01] (AR v2)
Copy OK

Track 3

Filename Z:\rips\Wilbur Harden, John Coltrane - Tanganyika Strut (1991) [FLAC] {SV-0125}\03 - Anedac.wav

Pre-gap length 0:00:04.80

Peak level 100.0 %
Extraction speed 2.7 X
Track quality 100.0 %
Test CRC BE58A281
Copy CRC BE58A281
Accurately ripped (confidence 7) [075D39C1] (AR v2)
Copy OK

Track 4

Filename Z:\rips\Wilbur Harden, John Coltrane - Tanganyika Strut (1991) [FLAC] {SV-0125}\04 - Once in a While.wav

Pre-gap length 0:00:03.09

Peak level 99.0 %
Extraction speed 3.1 X
Track quality 100.0 %
Test CRC 930F64DA
Copy CRC 930F64DA
Accurately ripped (confidence 7) [910C3AF0] (AR v2)
Copy OK


All tracks accurately ripped

No errors occurred

End of status report

==== Log checksum 7E5F1F82008CD638757D2C32FF9E1D08D45C0339B8C944DDF78073C7EBFADB4B ====

[CUETools log; Date: 01.12.2018 23:33:21; Version: 2.1.5]
[CTDB TOCID: lCzc9vnlxdSZfFVofm92vo_ohlY-] found.
Track | CTDB Status
1 | (8/8) Accurately ripped
2 | (8/8) Accurately ripped
3 | (8/8) Accurately ripped
4 | (8/8) Accurately ripped
[AccurateRip ID: 0005078e-0013c06f-3806d004] found.
Track [ CRC | V2 ] Status
01 [7f8ad0bf|acb38648] (2+7/9) Accurately ripped
02 [c356290f|cae9ee01] (2+7/9) Accurately ripped
03 [7f8dcd52|075d39c1] (2+7/9) Accurately ripped
04 [01d6eb0d|910c3af0] (2+7/9) Accurately ripped

Track Peak [ CRC32 ] [W/O NULL] [ LOG ]
– 100,0 [C52A65E4] [ACC805D0]
01 100,0 [CA6E5F76] [F321EC23] CRC32
02 100,0 [BEBB9159] [3DE60A50] CRC32
03 100,0 [BE58A281] [9318086B] CRC32
04 99,0 [930F64DA] [D9993C26] CRC32

Wilbur Harden & John Coltrane - Tanganyika Strut (1958) {1991, Japanese Reissue, Remastered}


All thanks go to the original ripper(s) …

>>> My Blog <<<

DOWNLOAD: