Subcategories

Willie May - Shaken Tree Blues (2014)

Posted By: popsakov
Willie May - Shaken Tree Blues (2014)

Willie May - Shaken Tree Blues (2014)
EAC Rip | FLAC (Img) + Cue + Log ~ 319 Mb | MP3 CBR320 ~ 134 Mb
Scans Included | RAR 5% Recovery
Blues, Roots, Country | Booman Music #BMCD 4024

One of the more diverse and eclectic albums on the blues and roots scene. Featuring multi-Grammy nominee and harmonica wizard Mark Hummel. His new release, “Shaken Tree Blues”, opens with “Dos Teresa” a Latin tinged instrumental. The guitar and haunting muted horn interplay over a funky back beat setting the mood for things to come. “Talk is Cheap” is a straight up blues rocker that sounds like something from a bye-gone era and is sure to get your feet moving.

Multi-Grammy nominee Mark Hummel makes a guest appearance in “Everybody but Me”, raising the roof with his ultra hip harmonica style. May weighs in on vocals, guitar, bass, kalimba and ocarina in “Don’t Quit Me” showing this music veteran’s ability to fuse a world music vibe with traditional blues. “She’s Leaving” is a haunting minor groove; its eerie edge is reminiscent of the late Skip James.

The accordion and dobro in “Greta” bring a little flavor of the bayou to this country blues tale of a callous two timing woman in a hurry to move on. “My Story” offers an insight into how a serial-song writer turns life’s chaos into music. In “Shaken Tree”, May’s playful ukulele serves as a distraction from his woeful warning of mankind’s impending doom.

Finding the body of a murdered woman near his rural home was the catalyst for “Heart Break” a song about a love lost to a serial killer. The story and the instrumentals evoke strong emotions of sorrow and regret. “Going Home”, is a bitter sweet song about facing the end of life’s tumultuous journey with courage and enduring faith. After taking the listener on a roller coaster ride through some of darker parts of life May once again changes up, leaving the listener in a better place.
Willie May - Shaken Tree Blues (2014)

Track List:

01. Dos Teresa [03:34]
02. Talk Is Cheap [03:06]
03. Everybody But Me [03:36]
04. Dont Quit Me [03:58]
05. She's Leaving [04:24]
06. Greta [03:45]
07. My Story [04:50]
08. Shaken Tree [02:55]
09. Heartbreak [05:25]
10. I'm Goin' Home [03:34]

Exact Audio Copy V1.0 beta 3 from 29. August 2011

Отчёт EAC об извлечении, выполненном 5. декабря 2014, 19:30

Willie May / Shaken Tree Blues

Дисковод: PLEXTOR DVDR PX-880SA Adapter: 1 ID: 0

Режим чтения : Достоверность
Использование точного потока : Да
Отключение кэша аудио : Да
Использование указателей C2 : Нет

Коррекция смещения при чтении : 6
Способность читать области Lead-in и Lead-out : Нет
Заполнение пропущенных сэмплов тишиной : Да
Удаление блоков с тишиной в начале и конце : Нет
При вычислениях CRC использовались нулевые сэмплы : Да
Интерфейс : Установленный внешний ASPI-интерфейс

Выходной формат : Пользовательский кодировщик
Выбранный битрейт : 1024 kBit/s
Качество : Высокий
Добавление ID3-тега : Нет
Утилита сжатия : C:\Program Files\Exact Audio Copy\FLAC\FLAC.EXE
Дополнительные параметры : -10 -V -T "ARTIST=%artist%" -T "ALBUM=%albumtitle%" -T "DATE=%year%" -T "GENRE=%genre%" -T "COMMENT=ripped by izia1956" %source%


TOC извлечённого CD

Трек | Старт | Длительность | Начальный сектор | Конечный сектор
––––––––––––––––––––––––––––––––––-
1 | 0:00.00 | 3:33.37 | 0 | 16011
2 | 3:33.37 | 3:05.52 | 16012 | 29938
3 | 6:39.14 | 3:35.21 | 29939 | 46084
4 | 10:14.35 | 3:57.12 | 46085 | 63871
5 | 14:11.47 | 4:23.47 | 63872 | 83643
6 | 18:35.19 | 3:44.55 | 83644 | 100498
7 | 22:19.74 | 4:49.04 | 100499 | 122177
8 | 27:09.03 | 2:54.68 | 122178 | 135295
9 | 30:03.71 | 5:24.22 | 135296 | 159617
10 | 35:28.18 | 3:33.70 | 159618 | 175662


Характеристики диапазона извлечения и сообщения об ошибках

Выбранный диапазон

Имя файла D:\BitComet\Willie May(flac)\2014 - Shaken Tree Blues\Willie May - Shaken Tree Blues.wav

Пиковый уровень 98.8 %
Скорость извлечения 7.8 X
Качество диапазона 100.0 %
CRC теста 70BB8FC7
CRC копии 70BB8FC7
Копирование… OK

Ошибок не произошло


AccurateRip: сводка

Трек 1 отсутствует в базе данных
Трек 2 отсутствует в базе данных
Трек 3 отсутствует в базе данных
Трек 4 отсутствует в базе данных
Трек 5 отсутствует в базе данных
Трек 6 отсутствует в базе данных
Трек 7 отсутствует в базе данных
Трек 8 отсутствует в базе данных
Трек 9 отсутствует в базе данных
Трек 10 отсутствует в базе данных

Ни одного трека нет в базе AccurateRip

Конец отчёта

==== Контрольная сумма отчёта 72DB1A4D876A6EB50EEC92136606478A4321B63FB1418B1A3F987A4A688D2AEB ====

Willie May - Shaken Tree Blues (2014)

All thanks go to izia1956

>>> Willie May in my Blog <<<

Download from icerbox.com: