Subcategories
Tags
Language
Tags

Willie Nile - New York At Night (2020)

Posted By: popsakov
Willie Nile - New York At Night (2020)

Willie Nile - New York At Night (2020)
EAC Rip | FLAC (Img) + Cue + Log ~ 345 Mb | MP3 CBR320 ~ 144 Mb
Full Scans | 00:45:09 | RAR 5% Recovery
Heartland Rock / Roots Rock / Rock & Roll / Singer-Songwriter
River House Records #RHR9918-2

New York at Night is the 13th studio album from veteran rock 'n' roll troubadour Willie Nile, and the strongest manifestation to date of his deep affinity for the city. The album's 12 new originals exemplify the artist's trademark mix of romance, idealism, humor, emotional urgency and a true believer's passionate embrace of all things rock 'n' roll. New Yorker Magazine has described Willie as "One of the most brilliant singer-songwriters of the past 30 years", and Uncut Magazine dubbed him the unofficial poet laureate of New York City. Nile's abiding passion for his town animates such tunes as "New York Is Rockin'" and the album's title track. "New York City has always inspired me," states Willie. "I've lived in Greenwich Village for many years now, and I still love being there. The energy, the grit, and the mystery of it all fills my heart with wonder. Most of these songs were written in New York or were inspired by it in one way or another." Nile recorded New York at Night just across the river, at Weehawken, N.J.'s Hobo Sound, co-producing with longtime collaborator Stewart Lerman (Elvis Costello, Neko Case, Patti Smith) and backed by his longtime live band - along with renowned guitarist/multi-instrumentalist Steuart Smith (Eagles, Rosanne Cash, Rodney Crowell), pianist Brian Mitchell (Bob Dylan, Levon Helm, B.B. King), and an assortment of backing vocalists including singer-songwriters Frankie Lee and James Maddock, and veteran singers Tawatha Agee and Vaneese Thomas.

Willie Nile is an underappreciated rock & roll hero who has been living in New York City's Greenwich Village since the early 1970s, so if anyone would be a good choice to write an album about life in the city, it would be him. Of course, he's not the first New Yorker to try that, and it's not even Nile's first shot at this, having released Streets of New York in 2006. But while Lou Reed's 1989 masterpiece New York was a warts-and-all appreciation of the best and worst the city had to offer, Nile's 2020 release New York at Night is the work of a guy who has nothing but love for his hometown, to the point that plenty of these songs could be used to lure visitors to the Big Apple. Nile's album is divided between celebrations of the possibilities of life in New York and character sketches informed by his many years there. The songs are just gritty enough to suggest this was informed by the pre-gentrification era of the city, but laced with enough romance that he wasn't going to badmouth his favorite place in the world, even if it was in decline. New York at Night might suggest a certain nostalgia for past glories rather than a cold, clear look at the city in the 21st century (it's actually kind of sweet that he thinks they're still listening to New Jack Swing in Bed-Stuy), but the songs about after-dark adventures are plenty of fun, the love songs are full of heart and wonder, and the live-wire passion that has always informed Nile's best work is still strong and plentiful here, no small thing considering this was released less than a month before the guy turned 72. Nile's band (featuring Jimi K. Bones and Matt Hogan on guitars, Johnny Pisano on bass, and Jon Webe on drums) brings snap and fire to the performances, and producer Stewart Lerman keeps the audio full-bodied but clear and clean. New York at Night may not be the best album ever made about the Greatest City in the World, but it's smart, exciting, and hot-wired rock & roll from a guy who clearly knows plenty about his city and his music, and it's a reminder that he's one of the best rockers New York has left.

~ Mark Deming, All Music

***************

Track List:

01. New York Is Rockin' [3:40]
02. The Backstreet Slide [3:51]
03. Doors Of Paradise [4:06]
04. Lost And Lonely World [4:05]
05. The Fool Who Drank The Ocean [3:35]
06. A Little Bit Of Love [3:57]
07. New York At Night [3:22]
08. The Last Time We Made Love [4:19]
09. Surrender The Moon [3:22]
10. Under This Roof [3:26]
11. Downtown Girl [3:03]
12. Run Free [4:22]

Exact Audio Copy V1.3 from 2. September 2016

EAC extraction logfile from 27. August 2020, 9:03

Willie Nile / New York At Night

Used drive : ATAPI iHAS122 C Adapter: 1 ID: 0

Read mode : Secure
Utilize accurate stream : Yes
Defeat audio cache : Yes
Make use of C2 pointers : No

Read offset correction : 6
Overread into Lead-In and Lead-Out : No
Fill up missing offset samples with silence : Yes
Delete leading and trailing silent blocks : No
Null samples used in CRC calculations : Yes
Used interface : Native Win32 interface for Win NT & 2000

Used output format : Internal WAV Routines
Sample format : 44.100 Hz; 16 Bit; Stereo


TOC of the extracted CD

Track | Start | Length | Start sector | End sector
––––––––––––––––––––––––––––-
1 | 0:00.00 | 3:39.58 | 0 | 16482
2 | 3:39.58 | 3:50.69 | 16483 | 33801
3 | 7:30.52 | 4:06.37 | 33802 | 52288
4 | 11:37.14 | 4:05.22 | 52289 | 70685
5 | 15:42.36 | 3:35.12 | 70686 | 86822
6 | 19:17.48 | 3:57.33 | 86823 | 104630
7 | 23:15.06 | 3:21.71 | 104631 | 119776
8 | 26:37.02 | 4:18.47 | 119777 | 139173
9 | 30:55.49 | 3:22.23 | 139174 | 154346
10 | 34:17.72 | 3:25.51 | 154347 | 169772
11 | 37:43.48 | 3:03.25 | 169773 | 183522
12 | 40:46.73 | 4:22.36 | 183523 | 203208


Range status and errors

Selected range

Filename C:\Users\LondonW1\Desktop\Willie Nile - New York At Night.wav

Peak level 99.5 %
Extraction speed 3.0 X
Range quality 99.9 %
Test CRC D662B790
Copy CRC D662B790
Copy OK

No errors occurred


AccurateRip summary

Track 1 accurately ripped (confidence 3) [9DBE1A24] (AR v2)
Track 2 accurately ripped (confidence 3) [EEC09883] (AR v2)
Track 3 accurately ripped (confidence 3) [5009A8D5] (AR v2)
Track 4 accurately ripped (confidence 3) [22FC078D] (AR v2)
Track 5 accurately ripped (confidence 3) [02B0AB90] (AR v2)
Track 6 accurately ripped (confidence 3) [6202910F] (AR v2)
Track 7 accurately ripped (confidence 3) [23CC86C2] (AR v2)
Track 8 accurately ripped (confidence 3) [B4CFB095] (AR v2)
Track 9 accurately ripped (confidence 3) [B707AD1D] (AR v2)
Track 10 accurately ripped (confidence 3) [D6E2CD14] (AR v2)
Track 11 accurately ripped (confidence 3) [8F851E1B] (AR v2)
Track 12 accurately ripped (confidence 3) [F92D3007] (AR v2)

All tracks accurately ripped

End of status report

–– CUETools DB Plugin V2.1.6

[CTDB TOCID: SdWjVtn7gPOhdeJQn9TQ3XUgYyo-] found
Submit result: SdWjVtn7gPOhdeJQn9TQ3XUgYyo- has been confirmed
Track | CTDB Status
1 | (6/6) Accurately ripped
2 | (6/6) Accurately ripped
3 | (6/6) Accurately ripped
4 | (6/6) Accurately ripped
5 | (6/6) Accurately ripped
6 | (6/6) Accurately ripped
7 | (6/6) Accurately ripped
8 | (6/6) Accurately ripped
9 | (6/6) Accurately ripped
10 | (6/6) Accurately ripped
11 | (6/6) Accurately ripped
12 | (6/6) Accurately ripped


==== Log checksum 10DC79F22D13D1256965F11F74B55EC7F8A128EB9531B46C2CBC5C6D18554E00 ====

[CUETools log; Date: 28.08.2020 14:19:34; Version: 2.1.6]
[CTDB TOCID: SdWjVtn7gPOhdeJQn9TQ3XUgYyo-] found.
Track | CTDB Status
1 | (7/7) Accurately ripped
2 | (7/7) Accurately ripped
3 | (7/7) Accurately ripped
4 | (7/7) Accurately ripped
5 | (7/7) Accurately ripped
6 | (7/7) Accurately ripped
7 | (7/7) Accurately ripped
8 | (7/7) Accurately ripped
9 | (7/7) Accurately ripped
10 | (7/7) Accurately ripped
11 | (7/7) Accurately ripped
12 | (7/7) Accurately ripped
[AccurateRip ID: 00145cf5-00bd743e-bd0a950c] found.
Track [ CRC | V2 ] Status
01 [02a31062|9dbe1a24] (0+3/3) Accurately ripped
02 [86a55a6d|eec09883] (0+3/3) Accurately ripped
03 [0eec5493|5009a8d5] (0+3/3) Accurately ripped
04 [96f1d155|22fc078d] (0+3/3) Accurately ripped
05 [275b844d|02b0ab90] (0+3/3) Accurately ripped
06 [97c20589|6202910f] (0+3/3) Accurately ripped
07 [c6d08f50|23cc86c2] (0+3/3) Accurately ripped
08 [0847d7c1|b4cfb095] (0+3/3) Accurately ripped
09 [03497223|b707ad1d] (0+3/3) Accurately ripped
10 [da356a0f|d6e2cd14] (0+3/3) Accurately ripped
11 [acb4ebc8|8f851e1b] (0+3/3) Accurately ripped
12 [92fe6c4f|f92d3007] (0+3/3) Accurately ripped

Track Peak [ CRC32 ] [W/O NULL] [ LOG ]
– 99,5 [D662B790] [98BF079C] CRC32
01 99,4 [FF883355] [D19D9B66]
02 99,5 [A93D42D8] [93851C60]
03 99,5 [E4848926] [47DF119B]
04 99,5 [5BACDA91] [0E540A78]
05 99,4 [427CC129] [CDCAC6B4]
06 99,5 [05753AF9] [585FFEFA]
07 99,5 [648CA8E1] [2173D614]
08 99,0 [339CBB4E] [1A807046]
09 99,5 [57F94C29] [3A7C5FD0]
10 99,3 [0A3CFF9D] [CF0009A9]
11 99,5 [F41E4765] [194BCF92]
12 98,7 [EEB497C5] [9714F0B7]

All thanks go to London

>>> Willie Nile in my Blog <<<

DOWNLOAD: