Subcategories

Winger - In The Heart Of The Young (1990) [Japan SHM-CD, 2009]

Posted By: Andi_Deris
Winger - In The Heart Of The Young (1990) [Japan SHM-CD, 2009]

Winger - In The Heart Of The Young (1990) [Japan SHM-CD, 2009]
EAC Rip | FLAC: Image+Cue+Log | 420 Mb | MP3 CBR 320 kbps | 141 Mb | Scans | Time: 54:00
Hard Rock, Hair Metal | Warner Music | WPCR-13580

’’In the Heart of the Young’’ is the second album by American glam metal band Winger. It was released by Atlantic Records in 1990. Musically, In the Heart of the Young followed closely in the footsteps of the band's debut album. Once again produced by Beau Hill, the album features hook driven, progressive-tinged, radio friendly pop metal. There are, however, also some notable changes from the debut.

Winger - In The Heart Of The Young (1990) [Japan SHM-CD, 2009]




Winger - In The Heart Of The Young (1990) [Japan SHM-CD, 2009]


Track Listing

01. Can't Get Enuff (4:18)
02. Loosen Up (3:29)
03. Miles Away (4:10)
04. Easy Come Easy Go (4:03)
05. Rainbow In The Rose (5:33)
06. In The Day Weґll Never See (4:50)
07. Under One Condition (4:27)
08. Little Dirty Blonde (3:31)
09. Baptized By Fire (4:11)
10. You Are The Saint, I Am The Sinner (3:34)
11. In The Heart Of The Young (4:41)
12. All I Ever Wanted (Bonus track) (3:37)
13. Headed For A Heartbreak ('91 Remix) (Bonus track) (3:36)

Produced by Beau Hill

The Band

• Kip Winger - vocals, bass guitar, keyboards
• Reb Beach - guitars, vocals
• Rod Morgenstein - drums and percussion
• Paul Taylor - guitars, keyboards, vocals

• Paul Winger - backing vocals
• Nate Winger - backing vocals
• Chris Botti - trumpet on "Rainbow in the Rose"
• Micheal Davis - trombone on "Rainbow in the Rose"

Winger - In The Heart Of The Young (1990) [Japan SHM-CD, 2009]


Exact Audio Copy V0.99 prebeta 5 from 4. May 2009

Отчёт EAC об извлечении, выполненном 12. декабря 2010, 19:48

Winger / In The Heart Of The Young

Дисковод: HL-DT-STDVD-RAM GSA-H55L Adapter: 0 ID: 0

Режим чтения : Достоверность
Использование точного потока : Да
Отключение кэша аудио : Да
Использование указателей C2 : Нет

Коррекция смещения при чтении : 102
Способность читать области Lead-in и Lead-out : Нет
Заполнение пропущенных сэмплов тишиной : Да
Удаление блоков с тишиной в начале и конце : Нет
При вычислениях CRC использовались нулевые сэмплы : Да
Интерфейс : Встроенный Win32-интерфейс для Win NT/2000

Выходной формат : Пользовательский кодировщик
Выбранный битрейт : 1024 kBit/s
Качество : Высокий
Добавление ID3-тэга : Нет
Утилита сжатия : C:\Program Files\Exact Audio Copy\FLAC\FLAC.EXE
Дополнительные параметры : -8 -V %s


TOC извлечённого CD

Трек | Старт | Длительность | Начальный сектор | Конечный сектор
––––––––––––––––––––––––––––––––––-
1 | 0:00.00 | 4:18.43 | 0 | 19392
2 | 4:18.43 | 3:29.06 | 19393 | 35073
3 | 7:47.49 | 4:10.55 | 35074 | 53878
4 | 11:58.29 | 4:03.26 | 53879 | 72129
5 | 16:01.55 | 5:33.43 | 72130 | 97147
6 | 21:35.23 | 4:50.24 | 97148 | 118921
7 | 26:25.47 | 4:27.53 | 118922 | 138999
8 | 30:53.25 | 3:31.63 | 139000 | 154887
9 | 34:25.13 | 4:11.09 | 154888 | 173721
10 | 38:36.22 | 3:34.21 | 173722 | 189792
11 | 42:10.43 | 4:41.71 | 189793 | 210938
12 | 46:52.39 | 3:37.14 | 210939 | 227227
13 | 50:29.53 | 3:36.69 | 227228 | 243496


Характеристики диапазона извлечения и сообщения об ошибках

Выбранный диапазон

Имя файла F:\flac\winger- in the heart of the younng\Winger - In The Heart Of The Young.wav

Пиковый уровень 100.0 %
Качество диапазона 100.0 %
CRC теста DC2C0C45
CRC копии DC2C0C45
Копирование… OK

Ошибок не произошло


AccurateRip: сводка

Трек 1 нет в базе данных
Трек 2 нет в базе данных
Трек 3 нет в базе данных
Трек 4 нет в базе данных
Трек 5 нет в базе данных
Трек 6 нет в базе данных
Трек 7 нет в базе данных
Трек 8 нет в базе данных
Трек 9 нет в базе данных
Трек 10 нет в базе данных
Трек 11 нет в базе данных
Трек 12 нет в базе данных
Трек 13 нет в базе данных

Ни одного трека нет в базе AccurateRip

Конец отчёта


Many thanks to the original uploader: afayurij

––––––––––
Nitroflare