Wishbone Ash - New England (1976) {2001, Remastered, Japan}

Posted By: popsakov
Wishbone Ash - New England (1976) {2001, Remastered, Japan}

Wishbone Ash - New England (1976) {2001, Remastered, Japan}
EAC Rip | WV (Img) + Cue + Log ~ 267 Mb | MP3 CBR320 ~ 97 Mb
Scans Included (JPG, 300 dpi) | RAR 5% Recovery
MCA Records / Victor Entertainment / Universal International #UICY-9086
Classic Rock / Hard Rock / Blues Rock

New England is the seventh studio album by rock band Wishbone Ash. It was a success compared to the band's Locked In album, but still did not chart as high as most of their previous albums. This album would mark the "Americanization" of Wishbone Ash, as the band would relocate from England to the Northeastern United States (New England) for tax purposes. New England contained an even balance of hard rock songs and breezy, soft rock ballads, the latter of which would see further exploration from Wishbone Ash on their next studio album, Front Page News.
~ Wiki

***************

Wishbone Ash - New England (1976) {2001, Remastered, Japan}

Wishbone Ash - New England (1976) {2001, Remastered, Japan}

Track List:

01. Mother Of Pearl [0:04:33.60]
02. (In All Of My Dreams) You Rescue Me [0:06:13.05]
03. Runaway [0:03:18.60]
04. Lorelie [0:05:28.37]
05. Outward Bound [0:04:55.00]
06. Prelude [0:01:13.55]
07. When You Know Love [0:05:50.48]
08. Lonely Island [0:04:31.20]
09. Candle-Light [0:01:50.50]

Personnel:
Martin Turner - bass, lead vocals
Andy Powell - electric and acoustic guitars, backing vocals, mandolin
Laurie Wisefield - electric and slide guitars, backing vocals
Steve Upton - drums

Additional personnel:
Nelson «Flaco» Padron - percussion

Exact Audio Copy V1.2 from 12. August 2016

EAC extraction logfile from 8. September 2017, 12:11

Wishbone Ash / New England [UICY-9086]

Used drive : HL-DT-STBD-RE BH10LS38 Adapter: 1 ID: 1

Read mode : Secure
Utilize accurate stream : Yes
Defeat audio cache : Yes
Make use of C2 pointers : No

Read offset correction : 667
Overread into Lead-In and Lead-Out : No
Fill up missing offset samples with silence : Yes
Delete leading and trailing silent blocks : No
Null samples used in CRC calculations : Yes
Used interface : Installed external ASPI interface

Used output format : User Defined Encoder
Selected bitrate : 128 kBit/s
Quality : High
Add ID3 tag : No
Command line compressor : C:\Program Files (x86)\Exact Audio Copy\wavpack-4.60.1\wavpack.exe
Additional command line options : -hm -w "Year=%year%" -w "Genre=%genre%" %source% %dest%


TOC of the extracted CD

Track | Start | Length | Start sector | End sector
––––––––––––––––––––––––––––-
1 | 0:00.00 | 4:33.60 | 0 | 20534
2 | 4:33.60 | 6:13.05 | 20535 | 48514
3 | 10:46.65 | 3:18.60 | 48515 | 63424
4 | 14:05.50 | 5:28.37 | 63425 | 88061
5 | 19:34.12 | 4:55.00 | 88062 | 110186
6 | 24:29.12 | 1:13.55 | 110187 | 115716
7 | 25:42.67 | 5:50.48 | 115717 | 142014
8 | 31:33.40 | 4:31.20 | 142015 | 162359
9 | 36:04.60 | 1:50.50 | 162360 | 170659


Range status and errors

Selected range

Filename G:\Rips by Alder\Wishbone Ash - New England [UICY-9086].wav

Peak level 99.9 %
Extraction speed 6.9 X
Range quality 100.0 %
Test CRC 100F450B
Copy CRC 100F450B
Copy OK

No errors occurred


AccurateRip summary

Track 1 accurately ripped (confidence 4) [AFBABDDD] (AR v2)
Track 2 accurately ripped (confidence 4) [1D84EA1E] (AR v2)
Track 3 accurately ripped (confidence 4) [A477329E] (AR v2)
Track 4 accurately ripped (confidence 4) [D053A53D] (AR v2)
Track 5 accurately ripped (confidence 4) [11D3F633] (AR v2)
Track 6 accurately ripped (confidence 4) [497551C7] (AR v2)
Track 7 accurately ripped (confidence 4) [8829D7D4] (AR v2)
Track 8 accurately ripped (confidence 4) [89654E94] (AR v2)
Track 9 accurately ripped (confidence 4) [3B2CB6AC] (AR v2)

All tracks accurately ripped

End of status report

–– CUETools DB Plugin V2.1.6

[CTDB TOCID: 305iDY4r5l7YbYWEhvRkfXMeD4M-] found
Submit result: 305iDY4r5l7YbYWEhvRkfXMeD4M- has been confirmed
Track | CTDB Status
1 | (7/7) Accurately ripped
2 | (7/7) Accurately ripped
3 | (7/7) Accurately ripped
4 | (7/7) Accurately ripped
5 | (7/7) Accurately ripped
6 | (7/7) Accurately ripped
7 | (7/7) Accurately ripped
8 | (7/7) Accurately ripped
9 | (7/7) Accurately ripped


==== Log checksum B086E3E5E6363A7F0DA65DB98706C89570AF69740292FD8C53415CFE2317C1B9 ====

foobar2000 1.2.6 / Dynamic Range Meter 1.1.1
log date: 2017-09-22 12:49:47

––––––––––––––––––––––––––––––––––––––––
Analyzed: Wishbone Ash / New England [UICY-9086]
––––––––––––––––––––––––––––––––––––––––

DR Peak RMS Duration Track
––––––––––––––––––––––––––––––––––––––––
DR9 -0.02 dB -11.21 dB 4:34 01-Mother Of Pearl
DR11 -0.20 dB -14.95 dB 6:13 02-(In All Of My Dreams) You Rescue Me
DR8 0.00 dB -10.60 dB 3:19 03-Runaway
DR9 -0.12 dB -11.53 dB 5:28 04-Lorelie
DR9 -0.05 dB -10.43 dB 4:55 05-Outward Bound
DR10 -0.16 dB -13.42 dB 1:14 06-Prelude
DR10 -0.24 dB -12.42 dB 5:51 07-When You Know Love
DR11 -1.34 dB -15.72 dB 4:31 08-Lonely Island
DR11 -3.34 dB -18.67 dB 1:51 09-Candle-Light
––––––––––––––––––––––––––––––––––––––––

Number of tracks: 9
Official DR value: DR10

Samplerate: 44100 Hz
Channels: 2
Bits per sample: 16
Bitrate: 916 kbps
Codec: WavPack
================================================================================

[CUETools log; Date: 22.09.2017 12:50:02; Version: 2.1.5]
[CTDB TOCID: 305iDY4r5l7YbYWEhvRkfXMeD4M-] found.
Track | CTDB Status
1 | (8/8) Accurately ripped
2 | (8/8) Accurately ripped
3 | (8/8) Accurately ripped
4 | (8/8) Accurately ripped
5 | (8/8) Accurately ripped
6 | (8/8) Accurately ripped
7 | (8/8) Accurately ripped
8 | (8/8) Accurately ripped
9 | (8/8) Accurately ripped
[AccurateRip ID: 000e0f84-00658eef-8508e309] found.
Track [ CRC | V2 ] Status
01 [7e8d030c|afbabddd] (0+4/6) Accurately ripped
02 [baab6ff1|1d84ea1e] (0+4/6) Accurately ripped
03 [1e16a4d6|a477329e] (0+4/6) Accurately ripped
04 [4a34cda9|d053a53d] (0+4/6) Accurately ripped
05 [ca5da2c3|11d3f633] (0+4/6) Accurately ripped
06 [782d6893|497551c7] (0+4/6) Accurately ripped
07 [c90bdda7|8829d7d4] (0+4/6) Accurately ripped
08 [f1aa0db1|89654e94] (0+4/6) Accurately ripped
09 [83c7fad4|3b2cb6ac] (0+4/6) Accurately ripped
Offsetted by -1140:
01 [4543956a] (0/6) No match (V2 was not tested)
02 [eeaeeb17] (0/6) No match (V2 was not tested)
03 [afd39120] (0/6) No match (V2 was not tested)
04 [f748f6b3] (0/6) No match (V2 was not tested)
05 [7d16972f] (0/6) No match (V2 was not tested)
06 [71124ddd] (0/6) No match (V2 was not tested)
07 [53692ee9] (0/6) No match (V2 was not tested)
08 [de4046f7] (0/6) No match (V2 was not tested)
09 [f87fc8aa] (0/6) No match (V2 was not tested)

Track Peak [ CRC32 ] [W/O NULL] [ LOG ]
– 99,9 [100F450B] [924C3DF8] CRC32
01 99,7 [A6E9A347] [8278179E]
02 97,7 [0F171495] [A6A25A91]
03 99,9 [4E8B462E] [5990718F]
04 98,6 [96443F11] [B4C0C2CA]
05 99,4 [FD8B1AA5] [922DCB1B]
06 98,1 [D27EA1D6] [BF98013F]
07 97,3 [CBE5CF69] [C365F507]
08 85,6 [4FB36D78] [3BF98EAF]
09 68,1 [8F539F38] [CB0C6953]

Wishbone Ash - New England (1976) {2001, Remastered, Japan}

All thanks go to Alder

>>> Wishbone Ash in my Blog <<<

Download from icerbox.com: