Subcategories

Wishbone Ash - Strange Affair (1991)

Posted By: popsakov
Wishbone Ash - Strange Affair (1991)

Wishbone Ash - Strange Affair (1991)
EAC Rip | FLAC (Img) + Cue + Log ~ 303 Mb | MP3 CBR320 ~ 119 Mb
Scans Included (JPG, 600 dpi) | RAR 5% Recovery
Classic Rock, Progressive Rock, Hard Rock | I.R.S. Records #7130732

Strange Affair is the 16th album by rock band Wishbone Ash. It is the first album in the band's 21-year history without drummer Steve Upton, who quit the band during the album's recording sessions. He was replaced by Robbie France and later by Ray Weston, who would stay with the band until 1994 before rejoining for a much longer period in 1997. Strange Affair is also the final studio album to feature founding members Martin Turner and Ted Turner, who departed in 1991 and 1994 respectively.
~ Wiki

***************

Wishbone Ash - Strange Affair (1991)

Wishbone Ash - Strange Affair (1991)

Track List:

01. Strange Affair [4:22]
02. Wings Of Desire [3:52]
03. Renegade [3:55]
04. Dream Train [5:01]
05. Some Conversation [4:19]
06. Say You Will [4:08]
07. Rollin' [3:56]
08. You [3:52]
09. Hard Times [3:04]
10. Standing In The Rain [5:39]

Personnel:
Andy Powell - guitars, lead and backing vocals
Ted Turner - lap steel guitar, backing vocals
Martin Turner - bass, keyboards
Ray Weston - drums
Robbie France - drums
Rod Lynton - keyboards
Nick Pentelow - baritone saxophone
Lise Porter - backing vocals

Exact Audio Copy V1.1 from 23. June 2015

EAC extraction logfile from 17. January 2018, 22:01

Wishbone Ash / Strange Affair

Used drive : Optiarc DVD RW AD-7283S Adapter: 1 ID: 0

Read mode : Secure
Utilize accurate stream : Yes
Defeat audio cache : Yes
Make use of C2 pointers : No

Read offset correction : 48
Overread into Lead-In and Lead-Out : No
Fill up missing offset samples with silence : Yes
Delete leading and trailing silent blocks : No
Null samples used in CRC calculations : Yes
Used interface : Native Win32 interface for Win NT & 2000

Used output format : User Defined Encoder
Selected bitrate : 128 kBit/s
Quality : High
Add ID3 tag : No
Command line compressor : C:\Program Files (x86)\Exact Audio Copy\Flac\flac.exe
Additional command line options : -V -8 -T "Genre=%genre%" -T "Artist=%artist%" -T "Title=%title%" -T "Album=%albumtitle%" -T "Date=%year%" -T "Tracknumber=%tracknr%" -T "Comment=%comment%" %source%


TOC of the extracted CD

Track | Start | Length | Start sector | End sector
––––––––––––––––––––––––––––-
1 | 0:00.32 | 4:22.08 | 32 | 19689
2 | 4:22.40 | 3:51.65 | 19690 | 37079
3 | 8:14.30 | 3:55.20 | 37080 | 54724
4 | 12:09.50 | 5:01.20 | 54725 | 77319
5 | 17:10.70 | 4:18.47 | 77320 | 96716
6 | 21:29.42 | 4:08.20 | 96717 | 115336
7 | 25:37.62 | 3:55.68 | 115337 | 133029
8 | 29:33.55 | 3:52.02 | 133030 | 150431
9 | 33:25.57 | 3:03.73 | 150432 | 164229
10 | 36:29.55 | 5:39.32 | 164230 | 189686


Range status and errors

Selected range

Filename F:\alexbras\1991 Wishbone Ash - Strange Affair (1991 Netherlands I.R.S. 7130732)\Wishbone Ash - Strange Affair.wav

Peak level 100.0 %
Extraction speed 3.7 X
Range quality 99.9 %
Test CRC 22DF47BE
Copy CRC 22DF47BE
Copy OK

No errors occurred


AccurateRip summary

Track 1 accurately ripped (confidence 11) [912B27AD] (AR v2)
Track 2 accurately ripped (confidence 11) [C320EA02] (AR v2)
Track 3 accurately ripped (confidence 11) [70F013C6] (AR v2)
Track 4 accurately ripped (confidence 10) [BB08EAC8] (AR v2)
Track 5 accurately ripped (confidence 11) [90DEC100] (AR v2)
Track 6 accurately ripped (confidence 11) [06B77C09] (AR v2)
Track 7 accurately ripped (confidence 10) [65AB7278] (AR v2)
Track 8 accurately ripped (confidence 11) [387E42D5] (AR v2)
Track 9 accurately ripped (confidence 11) [4F32DA66] (AR v2)
Track 10 accurately ripped (confidence 10) [565EC94C] (AR v2)

All tracks accurately ripped

End of status report

==== Log checksum 5AE85A5665310C6F35A99EEBA4B12DEEBF8180D6C42141950ECC5FDC1F228562 ====

foobar2000 1.3.16 / Dynamic Range Meter 1.1.1
log date: 2018-01-21 14:41:25

––––––––––––––––––––––––––––––––––––––––
Analyzed: Wishbone Ash / Strange Affair
––––––––––––––––––––––––––––––––––––––––

DR Peak RMS Duration Track
––––––––––––––––––––––––––––––––––––––––
DR14 -0.90 dB -16.37 dB 4:22 01-Strange Affair
DR12 -1.73 dB -16.04 dB 3:52 02-Wings Of Desire
DR13 -1.47 dB -17.10 dB 3:55 03-Renegade
DR12 -2.01 dB -15.64 dB 5:01 04-Dream Train
DR12 -2.00 dB -17.36 dB 4:19 05-Some Conversation
DR15 0.00 dB -17.73 dB 4:08 06-Say You Will
DR15 0.00 dB -16.42 dB 3:56 07-Rollin'
DR11 -1.95 dB -15.39 dB 3:52 08-You
DR12 -3.20 dB -16.11 dB 3:04 09-Hard Times
DR12 -1.23 dB -14.80 dB 5:39 10-Standing In The Rain
––––––––––––––––––––––––––––––––––––––––

Number of tracks: 10
Official DR value: DR13

Samplerate: 44100 Hz
Channels: 2
Bits per sample: 16
Bitrate: 900 kbps
Codec: FLAC
================================================================================

[CUETools log; Date: 21.01.2018 14:40:59; Version: 2.1.5]
Pregap length 00:00:32.
[CTDB TOCID: mojQoTIqOcmsAMpmB.dEJrseoN4-] found.
Track | CTDB Status
1 | (18/18) Accurately ripped
2 | (18/18) Accurately ripped
3 | (18/18) Accurately ripped
4 | (18/18) Accurately ripped
5 | (17/18) Accurately ripped
6 | (17/18) Accurately ripped
7 | (17/18) Accurately ripped
8 | (17/18) Accurately ripped
9 | (17/18) Accurately ripped
10 | (16/18) Accurately ripped
[AccurateRip ID: 000fd7c8-007e81ee-7b09e10a] found.
Track [ CRC | V2 ] Status
01 [9fe51c08|912b27ad] (04+11/21) Accurately ripped
02 [5a9c8743|c320ea02] (04+11/21) Accurately ripped
03 [85abf464|70f013c6] (04+11/21) Accurately ripped
04 [46d9836d|bb08eac8] (04+10/20) Accurately ripped
05 [ab6a8f16|90dec100] (04+11/21) Accurately ripped
06 [302fba6b|06b77c09] (04+11/21) Accurately ripped
07 [d0cba21f|65ab7278] (04+10/20) Accurately ripped
08 [4d05a1e3|387e42d5] (04+11/21) Accurately ripped
09 [72e62af3|4f32da66] (04+11/21) Accurately ripped
10 [19c9e6f5|565ec94c] (04+10/20) Accurately ripped
Offsetted by -44:
01 [a2fe88bc] (00/21) No match (V2 was not tested)
02 [69bba7ad] (00/21) No match (V2 was not tested)
03 [ac4d0956] (00/21) No match (V2 was not tested)
04 [01696eb1] (00/20) No match (V2 was not tested)
05 [152c482c] (00/21) No match (V2 was not tested)
06 [5e63ee38] (00/21) No match (V2 was not tested)
07 [f272891d] (00/20) No match (V2 was not tested)
08 [aee8e05d] (00/21) No match (V2 was not tested)
09 [3b738ee3] (00/21) No match (V2 was not tested)
10 [9a9f8e93] (00/20) No match (V2 was not tested)

Track Peak [ CRC32 ] [W/O NULL] [ LOG ]
– 100,0 [22DF47BE] [1183EBC5] CRC32
01 90,1 [D9B0D330] [F48CCA91]
02 81,9 [B56A6ABC] [F780B758]
03 84,4 [6297BEBB] [22BD075A]
04 79,3 [E6FF0BF4] [A05C7404]
05 79,4 [5631BF22] [97779D2B]
06 100,0 [9946EB21] [BA8A7C8E]
07 100,0 [730AA3D0] [FF119B4B]
08 79,8 [B219382B] [B40A337C]
09 69,1 [4303208E] [0808E979]
10 86,7 [1E946C1D] [417CAD1F]

Wishbone Ash - Strange Affair (1991)

All thanks go to alex1248

>>> Wishbone Ash in my Blog <<<

Download from icerbox.com: