Tags
Language
Tags
December 2022
Su Mo Tu We Th Fr Sa
27 28 29 30 1 2 3
4 5 6 7 8 9 10
11 12 13 14 15 16 17
18 19 20 21 22 23 24
25 26 27 28 29 30 31

Wishbone Ash - The Essential Collection (2013)

Posted By: popsakov
Wishbone Ash - The Essential Collection (2013)

Wishbone Ash - The Essential Collection (2013)
EAC Rip | FLAC (Img) + Cue + Log ~ 937 Mb | MP3 CBR320 ~ 371 Mb
Full Scans | 01:14:18 + 01:11:29 | RAR 5% Recovery
Classic Rock / Blues Rock / Hard Rock / Progressive Rock
Spectrum Music / Universal UMC #SRECXX2099

One track longer than 2006's Sometime World: An MCA Travelogue and four deeper than 1993's Time Was: The Wishbone Ash Collection, 2013's Essential Collection makes up for what it lacks ("Phoenix," "Time Was") with affordability. Priced to move, it covers a lot of ground, offering up a slew of Wishbone Ash classics like "Blind Eye," Warrior," "Ballad of the Beacon," and "Persephone," and while it may lack a handful of notable tracks, there's enough here to satisfy both veterans and newbies alike.

~ James Christopher Monger, All Music

***************

Track List CD1:

01. Blind Eye [3:42]
02. Jail Bait [4:41]
03. The King Will Come [7:00]
04. Blowin' Free [5:18]
05. Ballad Of The Beacon [5:01]
06. Warrior (Live) [5:41]
07. Silver Shoes [6:37]
08. Say Goodbye [4:56]
09. When You Know Love [5:43]
10. Front Page News [5:08]
11. You See Red [5:58]
12. Master Of Disguise [4:26]
13. Living Proof (Live) [5:59]
14. Loaded [4:15]

Exact Audio Copy V1.5 from 20. February 2020

EAC extraction logfile from 15. March 2022, 19:11

Wishbone Ash / The Essential Collection CD 1

Used drive : MATSHITADVD-RAM UJ8C2 Adapter: 1 ID: 0

Read mode : Secure
Utilize accurate stream : Yes
Defeat audio cache : Yes
Make use of C2 pointers : No

Read offset correction : 103
Overread into Lead-In and Lead-Out : No
Fill up missing offset samples with silence : Yes
Delete leading and trailing silent blocks : No
Null samples used in CRC calculations : Yes
Used interface : Native Win32 interface for Win NT & 2000

Used output format : Internal WAV Routines
Sample format : 44.100 Hz; 16 Bit; Stereo


TOC of the extracted CD

Track | Start | Length | Start sector | End sector
––––––––––––––––––––––––––––-
1 | 0:00.00 | 3:41.48 | 0 | 16622
2 | 3:41.48 | 4:40.28 | 16623 | 37650
3 | 8:22.01 | 6:59.65 | 37651 | 69140
4 | 15:21.66 | 5:17.64 | 69141 | 92979
5 | 20:39.55 | 5:00.11 | 92980 | 115490
6 | 25:39.66 | 5:40.19 | 115491 | 141009
7 | 31:20.10 | 6:36.51 | 141010 | 170760
8 | 37:56.61 | 4:55.46 | 170761 | 192931
9 | 42:52.32 | 5:42.30 | 192932 | 218611
10 | 48:34.62 | 5:07.53 | 218612 | 241689
11 | 53:42.40 | 5:57.22 | 241690 | 268486
12 | 59:39.62 | 4:25.24 | 268487 | 288385
13 | 64:05.11 | 5:58.32 | 288386 | 315267
14 | 70:03.43 | 4:14.24 | 315268 | 334341


Range status and errors

Selected range

Filename C:\MUSIC\CD Rips_J\Wishbone Ash EC\CD 1\Wishbone Ash - The Essential Collection CD 1.wav

Peak level 100.0 %
Extraction speed 4.5 X
Range quality 100.0 %
Test CRC E44EAF82
Copy CRC E44EAF82
Copy OK

No errors occurred


AccurateRip summary

Track 1 accurately ripped (confidence 16) [A2064EC2] (AR v2)
Track 2 accurately ripped (confidence 16) [E2714409] (AR v2)
Track 3 accurately ripped (confidence 16) [4FDAAC6F] (AR v2)
Track 4 accurately ripped (confidence 16) [2F1D5DDF] (AR v2)
Track 5 accurately ripped (confidence 16) [0EFBA08E] (AR v2)
Track 6 accurately ripped (confidence 16) [5CB88643] (AR v2)
Track 7 accurately ripped (confidence 16) [373EB37F] (AR v2)
Track 8 accurately ripped (confidence 16) [09DE66F5] (AR v2)
Track 9 accurately ripped (confidence 16) [8A0033CC] (AR v2)
Track 10 accurately ripped (confidence 16) [2283082A] (AR v2)
Track 11 accurately ripped (confidence 16) [45D62516] (AR v2)
Track 12 accurately ripped (confidence 16) [788C9A0B] (AR v2)
Track 13 accurately ripped (confidence 16) [72186D23] (AR v2)
Track 14 accurately ripped (confidence 16) [56AE7AF7] (AR v2)

All tracks accurately ripped

End of status report

–– CUETools DB Plugin V2.1.6

[CTDB TOCID: qhvPhTyH5bI1GffU8CS0G8PkPzE-] found
Submit result: qhvPhTyH5bI1GffU8CS0G8PkPzE- has been confirmed
Track | CTDB Status
1 | (42/42) Accurately ripped
2 | (42/42) Accurately ripped
3 | (42/42) Accurately ripped
4 | (42/42) Accurately ripped
5 | (42/42) Accurately ripped
6 | (42/42) Accurately ripped
7 | (42/42) Accurately ripped
8 | (42/42) Accurately ripped
9 | (42/42) Accurately ripped
10 | (42/42) Accurately ripped
11 | (42/42) Accurately ripped
12 | (42/42) Accurately ripped
13 | (42/42) Accurately ripped
14 | (42/42) Accurately ripped


==== Log checksum 7F88EE3D5FB0A23AC34C9A34D883850BB3D2B66367745A7280E154FE2562782D ====

Track List CD2:

01. Lady Whiskey [6:13]
02. Valediction [6:15]
03. Throw Down The Sword [5:55]
04. Everybody Needs A Friend [8:14]
05. No Easy Road [3:33]
06. Rock 'N' Roll Widow (Live) [6:10]
07. Lady Jay [5:50]
08. Runaway [3:19]
09. Right Or Wrong [2:53]
10. Stand And Deliver [7:18]
11. Haunting Me [4:34]
12. Persephone [7:01]
13. Underground [4:20]

Exact Audio Copy V1.5 from 20. February 2020

EAC extraction logfile from 15. March 2022, 19:49

Wishbone Ash / The Essential Collection CD 2

Used drive : MATSHITADVD-RAM UJ8C2 Adapter: 1 ID: 0

Read mode : Secure
Utilize accurate stream : Yes
Defeat audio cache : Yes
Make use of C2 pointers : No

Read offset correction : 103
Overread into Lead-In and Lead-Out : No
Fill up missing offset samples with silence : Yes
Delete leading and trailing silent blocks : No
Null samples used in CRC calculations : Yes
Used interface : Native Win32 interface for Win NT & 2000

Used output format : Internal WAV Routines
Sample format : 44.100 Hz; 16 Bit; Stereo


TOC of the extracted CD

Track | Start | Length | Start sector | End sector
––––––––––––––––––––––––––––-
1 | 0:00.00 | 6:12.71 | 0 | 27970
2 | 6:12.71 | 6:14.06 | 27971 | 56026
3 | 12:27.02 | 5:54.30 | 56027 | 82606
4 | 18:21.32 | 8:13.32 | 82607 | 119613
5 | 26:34.64 | 3:32.62 | 119614 | 135575
6 | 30:07.51 | 6:09.52 | 135576 | 163302
7 | 36:17.28 | 5:49.31 | 163303 | 189508
8 | 42:06.59 | 3:18.73 | 189509 | 204431
9 | 45:25.57 | 2:52.23 | 204432 | 217354
10 | 48:18.05 | 7:17.32 | 217355 | 250161
11 | 55:35.37 | 4:33.30 | 250162 | 270666
12 | 60:08.67 | 7:00.18 | 270667 | 302184
13 | 67:09.10 | 4:19.48 | 302185 | 321657


Range status and errors

Selected range

Filename C:\MUSIC\CD Rips_J\Wishbone Ash EC\CD 2\Wishbone Ash - The Essential Collection CD 2.wav

Peak level 100.0 %
Extraction speed 4.4 X
Range quality 99.9 %
Test CRC C38DF34D
Copy CRC C38DF34D
Copy OK

No errors occurred


AccurateRip summary

Track 1 accurately ripped (confidence 16) [D069E54B] (AR v2)
Track 2 accurately ripped (confidence 17) [3FC6C983] (AR v2)
Track 3 accurately ripped (confidence 17) [AEB474BE] (AR v2)
Track 4 accurately ripped (confidence 17) [7FB53614] (AR v2)
Track 5 accurately ripped (confidence 16) [37309D53] (AR v2)
Track 6 accurately ripped (confidence 16) [79ED43CA] (AR v2)
Track 7 accurately ripped (confidence 16) [9DA38DC9] (AR v2)
Track 8 accurately ripped (confidence 16) [70B9A015] (AR v2)
Track 9 accurately ripped (confidence 16) [92CDEF61] (AR v2)
Track 10 accurately ripped (confidence 15) [D15861BB] (AR v2)
Track 11 accurately ripped (confidence 16) [DFAF591D] (AR v2)
Track 12 accurately ripped (confidence 16) [01B3E6D8] (AR v2)
Track 13 accurately ripped (confidence 16) [C17D4BB4] (AR v2)

All tracks accurately ripped

End of status report

–– CUETools DB Plugin V2.1.6

[CTDB TOCID: _EfcsIpbf62QdW.dPwwiSJrARK8-] found
Submit result: _EfcsIpbf62QdW.dPwwiSJrARK8- has been confirmed
Track | CTDB Status
1 | (44/44) Accurately ripped
2 | (44/44) Accurately ripped
3 | (44/44) Accurately ripped
4 | (44/44) Accurately ripped
5 | (44/44) Accurately ripped
6 | (44/44) Accurately ripped
7 | (44/44) Accurately ripped
8 | (44/44) Accurately ripped
9 | (44/44) Accurately ripped
10 | (44/44) Accurately ripped
11 | (43/44) Accurately ripped, or (1/44) differs in 35 samples @02:00:04
12 | (44/44) Accurately ripped
13 | (44/44) Accurately ripped


==== Log checksum 91C941CC107506F937EC42648EEFB48581201002A0B37D995842A51707C19D39 ====

Wishbone Ash - The Essential Collection (2013)


All thanks go to Juergen

>>> Wishbone Ash in my Blog <<<

DOWNLOAD: