Subcategories

Wishbone Ash - Illuminations (1996)

Posted By: Designol
Wishbone Ash - Illuminations (1996)

Wishbone Ash - Illuminations (1996)
EAC | FLAC | Image (Cue&Log) ~ 503 Mb (incl 5%) | Mp3 (CBR320/Stereo) ~ 184 Mb (incl 5%) | Scans included
Genre: Hard Rock, Prog Rock | Label: Renaissance Records | # RMED00181 | Time: 01:05:18

Illuminations is the seventeenth studio album from rock band Wishbone Ash recorded during 1995. It features a brand new version of the band with founding member Andy Powell along with new members Tony Kishman, Roger Filgate, and Mike Sturgis. It is the first Wishbone Ash studio album since Strange Affair five years earlier.
Despite the fact that Illuminations is their first studio album in nearly a decade, Wishbone Ash continues its stride of pleasant album rock without sounding terribly dated. While their sound is nothing new, it will please most fans of the band and the genre, but won't necessarily recruit new listeners.

Review by Gina Boldman, Allmusic.com
Wishbone Ash - Illuminations (1996)

Biography
Website
Wiki


Tracklist:

01. Mountainside (06:01)
02. On Your Own (05:32)
03. Top of the World (06:39)
04. No Joke (06:48)
05. Tales of the Wise (10:04)
06. Another Time (05:25)
07. A Thousand Years (04:07)
08. The Ring (04:38)
09. Comfort Zone (04:27)
10. Mystery Man (04:30)
11. Wait Out the Storm (03:46)
12. The Crack of Dawn (03:17)


Exact Audio Copy V1.0 beta 3 from 29. August 2011

Отчёт EAC об извлечении, выполненном 2. ноября 2012, 19:24

Wishbone Ash / Illuminations

Дисковод: TSSTcorpCDDVDW TS-L633J Adapter: 0 ID: 1

Режим чтения : Достоверность
Использование точного потока : Да
Отключение кэша аудио : Да
Использование указателей C2 : Нет

Коррекция смещения при чтении : 6
Способность читать области Lead-in и Lead-out : Нет
Заполнение пропущенных сэмплов тишиной : Да
Удаление блоков с тишиной в начале и конце : Нет
При вычислениях CRC использовались нулевые сэмплы : Да
Интерфейс : Установленный внешний ASPI-интерфейс

Выходной формат : Пользовательский кодировщик
Выбранный битрейт : 128 kBit/s
Качество : Высокий
Добавление ID3-тега : Нет
Утилита сжатия : C:\Program Files\Exact Audio Copy\FLAC\FLAC.EXE
Дополнительные параметры : -6 -V -T "ARTIST=%artist%" -T "TITLE=%title%" -T "ALBUM=%albumtitle%" -T "DATE=%year%" -T "TRACKNUMBER=%tracknr%" -T "GENRE=%genre%" -T "COMMENT=%comment%" -T "BAND=%albuminterpret%" -T "ALBUMARTIST=%albuminterpret%" -T "COMPOSER=%composer%" %haslyrics%–tag-from-file=LYRICS="%lyricsfile%"%haslyrics% -T "DISCNUMBER=%cdnumber%" -T "TOTALDISCS=%totalcds%" -T "TOTALTRACKS=%numtracks%" %hascover%–picture="%coverfile%"%hascover% %source% -o %dest%


TOC извлечённого CD

Трек | Старт | Длительность | Начальный сектор | Конечный сектор
––––––––––––––––––––––––––––––––––-
1 | 0:00.00 | 6:01.50 | 0 | 27124
2 | 6:01.50 | 5:32.47 | 27125 | 52071
3 | 11:34.22 | 6:39.00 | 52072 | 81996
4 | 18:13.22 | 6:48.25 | 81997 | 112621
5 | 25:01.47 | 10:04.03 | 112622 | 157924
6 | 35:05.50 | 5:25.37 | 157925 | 182336
7 | 40:31.12 | 4:07.13 | 182337 | 200874
8 | 44:38.25 | 4:38.37 | 200875 | 221761
9 | 49:16.62 | 4:27.50 | 221762 | 241836
10 | 53:44.37 | 4:30.30 | 241837 | 262116
11 | 58:14.67 | 3:46.30 | 262117 | 279096
12 | 62:01.22 | 3:17.25 | 279097 | 293896


Характеристики диапазона извлечения и сообщения об ошибках

Выбранный диапазон

Имя файла D:\РИПЫ\WISHBONE ASH 96\Wishbone Ash - Illuminations.wav

Пиковый уровень 99.9 %
Скорость извлечения 3.2 X
Качество диапазона 100.0 %
CRC теста 8FA4C9A6
CRC копии 8FA4C9A6
Копирование… OK

Ошибок не произошло


AccurateRip: сводка

Трек 1 : извлечено точно (доверие 3) [34AD6491] (AR v1)
Трек 2 : извлечено точно (доверие 3) [A5316455] (AR v1)
Трек 3 : извлечено точно (доверие 3) [8016F728] (AR v1)
Трек 4 : извлечено точно (доверие 3) [33D5F8D1] (AR v1)
Трек 5 : извлечено точно (доверие 3) [8E2E84C8] (AR v1)
Трек 6 : извлечено точно (доверие 3) [87D2E546] (AR v1)
Трек 7 : извлечено точно (доверие 3) [7464BD31] (AR v1)
Трек 8 : извлечено точно (доверие 3) [33264F58] (AR v1)
Трек 9 : извлечено точно (доверие 3) [01CF50C0] (AR v1)
Трек 10 : извлечено точно (доверие 3) [C943335B] (AR v1)
Трек 11 : извлечено точно (доверие 3) [C23C991B] (AR v1)
Трек 12 : извлечено точно (доверие 3) [FF9D9D7E] (AR v1)

Все треки извлечены точно

Конец отчёта

–– CUETools DB Plugin V2.1.3

[CTDB TOCID: AUBC05bdY4hk17Z0kQE34AGzzQc-] disk not present in database, Submit result: AUBC05bdY4hk17Z0kQE34AGzzQc- has been uploaded


==== Контрольная сумма отчёта 30D028483AC4C5AAA97043A66F9BAA39B6D3AB95D13FCF0F40E411E3BD8E5ADD ====

foobar2000 1.2.1 / Dynamic Range Meter 1.1.1
log date: 2013-02-23 03:11:42

––––––––––––––––––––––––––––––––––––––––
Analyzed: Wishbone Ash / Illuminations
––––––––––––––––––––––––––––––––––––––––

DR Peak RMS Duration Track
––––––––––––––––––––––––––––––––––––––––
DR10 -0.01 dB -11.35 dB 6:02 01-Mountainside
DR9 -0.53 dB -11.44 dB 5:33 02-On Your Own
DR10 -0.32 dB -12.63 dB 6:39 03-Top of the World
DR9 -0.27 dB -11.10 dB 6:48 04-No Joke
DR9 -0.17 dB -11.56 dB 10:04 05-Tales of the Wise
DR10 -0.49 dB -12.81 dB 5:25 06-Another Time
DR9 -0.34 dB -11.07 dB 4:07 07-A Thousand Years
DR10 -0.42 dB -12.77 dB 4:38 08-The Ring
DR9 -0.53 dB -12.03 dB 4:28 09-Comfort Zone
DR10 -0.27 dB -12.73 dB 4:30 10-Mystery Man
DR10 -0.46 dB -11.79 dB 3:46 11-Wait Out the Storm
DR9 -0.49 dB -12.17 dB 3:17 12-The Crack of Dawn
––––––––––––––––––––––––––––––––––––––––

Number of tracks: 12
Official DR value: DR9

Samplerate: 44100 Hz
Channels: 2
Bits per sample: 16
Bitrate: 961 kbps
Codec: FLAC
================================================================================

Wishbone Ash - Illuminations (1996)

Wishbone Ash - Illuminations (1996)

All thanks to original releaser - reverse77777

More interesting music in My Blog