Subcategories

Witchery - I Am Legion (2017) [Japanese Ed.]

Posted By: Andi_Deris
Witchery - I Am Legion (2017) [Japanese Ed.]

Witchery - I Am Legion (2017) [Japanese Ed.]
EAC Rip | FLAC: Image+Cue+Log | 356 Mb | MP3 CBR 320 kbps | 122 Mb | Scans | 80 Mb | 47:51
Trooper Ent. | QATE-10102
Blackened Thrash/Speed Metal

‘I Am Legion’ by Witchery is a blackened treasure of metal oozing with maniacal fury. The songwriting, performance, and recording on ‘I Am Legion’ builds upon and transcends their earlier works including the impeccable ‘In His Infernal Majesty’s Service’. This album will infect your soul with captivating music that powerfully tells stories full of evil and malignant intent.

Just when you think a band could not possibly get any better, Witchery comes along with ‘I Am Legion’ and blows that theory all to hell. The malevolent monstrosity of the music on this album surpasses the sheer genius brutality of ‘In His Infernal Majesty’s Service’. Each of the eleven tunes of withering black thrash on ‘I Am Legion’ make for thoroughly enjoyable feast of evil.

Witchery - I Am Legion (2017) [Japanese Ed.]




Track Listing

01. Legion (01:14)
02. True North (04:08)
03. Welcome, Night (03:55)
04. Of Blackened Wing (04:17)
05. Dry Bones (03:59)
06. Amun-Ra (03:30)
07. Seraphic Terror (03:35)
08. A Faustian Deal (03:41)
09. An Unexpected Guest (04:06)
10. Great Northern Plague (01:49)
11. The Alchemist (05:45)
12. Ragnarök (Bonus Track) (03:48)
13. Apex Ghoul (Bonus Track) (04:04)

Produced by Jensen and Daniel Bergstrand

The Band

• Angus Norder - Vocals
• Jensen - Guitars
• Rickard Rimfält - Solo Guitars
• Sharlee D'Angelo - Bass
• Chris Barkensjö - Drums

Exact Audio Copy V1.3 from 2. September 2016

EAC extraction logfile from 21. November 2017, 14:09

Witchery / I Am Legion (Japan)

Used drive : ATAPI iHAS122 W Adapter: 2 ID: 0

Read mode : Secure
Utilize accurate stream : Yes
Defeat audio cache : Yes
Make use of C2 pointers : No

Read offset correction : 48
Overread into Lead-In and Lead-Out : No
Fill up missing offset samples with silence : Yes
Delete leading and trailing silent blocks : No
Null samples used in CRC calculations : Yes
Used interface : Installed external ASPI interface

Used output format : User Defined Encoder
Selected bitrate : 1024 kBit/s
Quality : High
Add ID3 tag : No
Command line compressor : C:\Program Files\FLAC\flac.exe
Additional command line options : -V -8 -T "Date=%year%" -T "Genre=%genre%" -T"COMMENT=Ripped by Ilijan" -8 -V %source%


TOC of the extracted CD

Track | Start | Length | Start sector | End sector
––––––––––––––––––––––––––––-
1 | 0:00.00 | 1:13.43 | 0 | 5517
2 | 1:13.43 | 4:08.19 | 5518 | 24136
3 | 5:21.62 | 3:55.13 | 24137 | 41774
4 | 9:17.00 | 4:17.00 | 41775 | 61049
5 | 13:34.00 | 3:59.15 | 61050 | 78989
6 | 17:33.15 | 3:29.45 | 78990 | 94709
7 | 21:02.60 | 3:34.52 | 94710 | 110811
8 | 24:37.37 | 3:41.08 | 110812 | 127394
9 | 28:18.45 | 4:05.52 | 127395 | 145821
10 | 32:24.22 | 1:49.15 | 145822 | 154011
11 | 34:13.37 | 5:44.36 | 154012 | 179847
12 | 39:57.73 | 3:48.24 | 179848 | 196971
13 | 43:46.22 | 4:03.55 | 196972 | 215251


Range status and errors

Selected range

Filename D:\Vknish + Devastator = Swolo4\Witchery - I Am Legion (Japan).wav

Peak level 100.0 %
Extraction speed 3.7 X
Range quality 100.0 %
Test CRC D4F08588
Copy CRC D4F08588
Copy OK

No errors occurred


AccurateRip summary

Track 1 not present in database
Track 2 not present in database
Track 3 not present in database
Track 4 not present in database
Track 5 not present in database
Track 6 not present in database
Track 7 not present in database
Track 8 not present in database
Track 9 not present in database
Track 10 not present in database
Track 11 not present in database
Track 12 not present in database
Track 13 not present in database

None of the tracks are present in the AccurateRip database

End of status report

–– CUETools DB Plugin V2.1.6

[CTDB TOCID: IUH6iu0h9aKfAL3TMv5hXjx5Teg-] disk not present in database
Submit result: IUH6iu0h9aKfAL3TMv5hXjx5Teg- has been uploaded


==== Log checksum BADD015894649B096E7E8A5A8D6E78902B79CC3A08AEC28573E969E6B9508337 ====


Many thanks to the original uploader: Ilijan

SEE also:
Witchery 2016 In His Infernal Majesty's Service [Japanese Ed.]



Password: pass