Subcategories

Wobbler - Rites At Dawn (2011) [Remixed and Remastered 2013]

Posted By: gribovar
Wobbler - Rites At Dawn (2011) [Remixed and Remastered 2013]

Wobbler - Rites At Dawn (2011) [Remixed and Remastered 2013]
EAC Rip | FLAC (tracks+.cue+log) - 311 MB | MP3 CBR 320 kbps (LAME 3.93) - 108 MB | Covers - 125 MB
Genre: Progressive Rock | RAR 3% Rec. | Label: Termo Records (TERMOCD008)

Wobbler return with another fantastic slice of Norwegian progressive rock, this one titled "Rites at Dawn". Never a band to shun their influences, which include such 70's legends as Yes, The Moody Blues, Genesis, Gentle Giant, King Crimson, and Cathedral, the band take that framework and build upon it, creating music that is rich in prog rock traditions of yesteryear but at the same time all their own. Remarkable lead & backing vocal harmonies, superior musicianship, an appreciation for classic sounds of the 70's, epic songs, a warm & inviting production, all these things are what makes "Rites at Dawn" a truly great album.

Tracklist:
01. Ludic
02. La Bealtaine
03. In Orbit
04. This Past Presence
05. A Faerie's Play
06. The River
07. Lucid Dreams

Total time: 45:54

Exact Audio Copy V1.3 from 2. September 2016

EAC extraction logfile from 11. March 2018, 0:21

Wobbler / Rites At Dawn

Used drive : ATAPI iHAS122 F Adapter: 1 ID: 0

Read mode : Secure
Utilize accurate stream : Yes
Defeat audio cache : Yes
Make use of C2 pointers : No

Read offset correction : 6
Overread into Lead-In and Lead-Out : No
Fill up missing offset samples with silence : Yes
Delete leading and trailing silent blocks : No
Null samples used in CRC calculations : Yes
Used interface : Native Win32 interface for Win NT & 2000
Gap handling : Appended to previous track

Used output format : User Defined Encoder
Selected bitrate : 1024 kBit/s
Quality : High
Add ID3 tag : Yes
Command line compressor : C:\Program Files (x86)\Exact Audio Copy\Flac\flac.exe
Additional command line options : -6 -V -T "ARTIST=%artist%" -T "TITLE=%title%" -T "ALBUM=%albumtitle%" -T "DATE=%year%" -T "TRACKNUMBER=%tracknr%" -T "GENRE=%genre%" -T "COMMENT=%comment%" %hascover%–picture="%coverfile%"%hascover% %source% -o %dest%


TOC of the extracted CD

Track | Start | Length | Start sector | End sector
––––––––––––––––––––––––––––-
1 | 0:00.00 | 1:41.53 | 0 | 7627
2 | 1:41.53 | 7:53.50 | 7628 | 43152
3 | 9:35.28 | 12:30.46 | 43153 | 99448
4 | 22:05.74 | 6:09.68 | 99449 | 127191
5 | 28:15.67 | 5:16.03 | 127192 | 150894
6 | 33:31.70 | 10:04.66 | 150895 | 196260
7 | 43:36.61 | 2:21.15 | 196261 | 206850


Track 1

Filename E:\Music\olaf_alien\Wobbler - Rites At Dawn - 2011 (2013, Termo)\01 - Lucid.wav

Pre-gap length 0:00:02.00

Peak level 98.8 %
Extraction speed 2.8 X
Track quality 100.0 %
Test CRC 46DE66BE
Copy CRC 46DE66BE
Accurately ripped (confidence 5) [D9BA501B] (AR v2)
Copy OK

Track 2

Filename E:\Music\olaf_alien\Wobbler - Rites At Dawn - 2011 (2013, Termo)\02 - La Bealtaine.wav

Pre-gap length 0:00:00.70

Peak level 98.8 %
Extraction speed 4.3 X
Track quality 100.0 %
Test CRC 041E26C2
Copy CRC 041E26C2
Accurately ripped (confidence 5) [49C80708] (AR v2)
Copy OK

Track 3

Filename E:\Music\olaf_alien\Wobbler - Rites At Dawn - 2011 (2013, Termo)\03 - In Orbit.wav

Pre-gap length 0:00:01.66

Peak level 98.8 %
Extraction speed 5.3 X
Track quality 100.0 %
Test CRC BE9959A5
Copy CRC BE9959A5
Accurately ripped (confidence 5) [07EE2CD2] (AR v2)
Copy OK

Track 4

Filename E:\Music\olaf_alien\Wobbler - Rites At Dawn - 2011 (2013, Termo)\04 - This Past Presence.wav

Pre-gap length 0:00:01.57

Peak level 98.8 %
Extraction speed 5.7 X
Track quality 100.0 %
Test CRC F09025C1
Copy CRC F09025C1
Accurately ripped (confidence 5) [5AF2FE3C] (AR v2)
Copy OK

Track 5

Filename E:\Music\olaf_alien\Wobbler - Rites At Dawn - 2011 (2013, Termo)\05 - A Faerie's Play.wav

Pre-gap length 0:00:00.61

Peak level 98.8 %
Extraction speed 5.1 X
Track quality 99.9 %
Test CRC C20DBD71
Copy CRC C20DBD71
Accurately ripped (confidence 5) [B26EA71D] (AR v2)
Copy OK

Track 6

Filename E:\Music\olaf_alien\Wobbler - Rites At Dawn - 2011 (2013, Termo)\06 - The River.wav

Pre-gap length 0:00:00.43

Peak level 98.8 %
Extraction speed 6.1 X
Track quality 99.9 %
Test CRC E34559C7
Copy CRC E34559C7
Accurately ripped (confidence 5) [43A79462] (AR v2)
Copy OK

Track 7

Filename E:\Music\olaf_alien\Wobbler - Rites At Dawn - 2011 (2013, Termo)\07 - Lucid Dreams.wav

Pre-gap length 0:00:02.00

Peak level 98.8 %
Extraction speed 5.9 X
Track quality 100.0 %
Test CRC 05CC1E02
Copy CRC 05CC1E02
Accurately ripped (confidence 5) [2635F5F3] (AR v2)
Copy OK


All tracks accurately ripped

No errors occurred

End of status report

–– CUETools DB Plugin V2.1.6

[CTDB TOCID: zDTeNfzNlK.byHEx9a4YR4.FXoQ-] found
Submit result: zDTeNfzNlK.byHEx9a4YR4.FXoQ- has been confirmed
Track | CTDB Status
1 | (8/8) Accurately ripped
2 | (8/8) Accurately ripped
3 | (8/8) Accurately ripped
4 | (8/8) Accurately ripped
5 | (8/8) Accurately ripped
6 | (8/8) Accurately ripped
7 | (8/8) Accurately ripped


==== Log checksum 37781EF400EF04244765FC4121B648707521CEB875A7C4BBA0EB4F8AC3A98BAD ====

[CUETools log; Date: 11.04.2018 14:01:49; Version: 2.1.4]
[CTDB TOCID: zDTeNfzNlK.byHEx9a4YR4.FXoQ-] found.
Track | CTDB Status
1 | (9/9) Accurately ripped
2 | (9/9) Accurately ripped
3 | (9/9) Accurately ripped
4 | (9/9) Accurately ripped
5 | (9/9) Accurately ripped
6 | (9/9) Accurately ripped
7 | (9/9) Accurately ripped
[AccurateRip ID: 000cafc5-004e029d-540ac607] found.
Track [ CRC | V2 ] Status
01 [28083983|d9ba501b] (0+7/7) Accurately ripped
02 [4cb45cf2|49c80708] (0+7/7) Accurately ripped
03 [c6232a66|07ee2cd2] (0+7/7) Accurately ripped
04 [5d2e8450|5af2fe3c] (0+7/7) Accurately ripped
05 [08352b23|b26ea71d] (0+7/7) Accurately ripped
06 [51aa2d10|43a79462] (0+7/7) Accurately ripped
07 [8e97c3e5|2635f5f3] (0+7/7) Accurately ripped

Track Peak [ CRC32 ] [W/O NULL] [ LOG ]
– 98,8 [EC08A505] [A8904D2F]
01 98,8 [46DE66BE] [35C1B410] CRC32
02 98,8 [041E26C2] [396EFD3E] CRC32
03 98,8 [BE9959A5] [5FCAA836] CRC32
04 98,8 [F09025C1] [042BF266] CRC32
05 98,8 [C20DBD71] [CD57C3AF] CRC32
06 98,8 [E34559C7] [03D8C0E7] CRC32
07 98,8 [05CC1E02] [30893245] CRC32

Thanks to Olaf_alien

See also:
Wobbler - Hinterland (2005) [Reissue 2018, Remixed and Remastered]
Wobbler - Afterglow (2009) [Remixed and Remastered 2015]
Wobbler - From Silence to Somewhere (2017)