Subcategories

Wolfmother - Cosmic Egg (2009) {Japan 1st Press}

Posted By: popsakov
Wolfmother - Cosmic Egg (2009) {Japan 1st Press}

Wolfmother - Cosmic Egg (2009) {Japan 1st Press}
EAC Rip | WavPack (Img) + Cue + Log ~ 503 Mb | MP3 CBR320 ~ 172 Mb
Covers Included (JPG, 300 dpi) | RAR 5% Recovery
Stoner Rock, Hard Rock, Psychedelic Rock | Modular Recordings / Universal Music #UICO-1172

Swapping out his rhythm section, Andrew Stockdale proves beyond a shadow of a doubt that he's the mastermind of Wolfmother on Cosmic Egg, creating a second record that is essentially a replication of the first, equally enamored with all the thick, heavy rock of the '70s, specifically Sabbath and Zeppelin, tempered with a little bit of Jack White caterwaul. All the sounds remain the same, but the songs have changed: with the occasional exception, such as the Stripes-ian salute "White Feather," Stockdale backs away from simple, brutal riff-driven songs, preferring churning exercises in heavy fantasy, sometimes colored with some Deep Purple organ. It's an effective way to show off a tighter, capable band, one that can deliver a serious gut-level punch, and one that is spending more time fusing their influence instead of delivering straight-up hero worship. And, in a sense, that makes Cosmic Egg a mature sophomore effort, particularly if it's just judged on all the sonic textures Wolfmother serves up, but as the album closes with a series of meandering mysticism it's hard not to miss Stockdale's previous reliance on nasty repetitive riffs.
~ Stephen Thomas Erlewine, All Music

***************

Wolfmother - Cosmic Egg (2009) {Japan 1st Press}

Track List:

01. California Queen [0:03:55.44]
02. New Moon Rising [0:03:46.22]
03. White Feather [0:03:05.16]
04. Sundial [0:03:48.51]
05. In The Morning [0:05:40.49]
06. 10,000 Feet [0:04:10.05]
07. Cosmic Egg [0:04:05.63]
08. Far Away [0:04:01.34]
09. Pilgrim [0:04:49.55]
10. Eyes Open [0:05:12.24]
11. Back Round [0:03:57.12]
12. In The Castle [0:05:45.28]
13. Phoenix [0:04:46.36]
14. Violence Of The Sun [0:06:02.43]
15. Don't Let It Bring You Down [0:03:01.07]
16. Sundial (Acoustic) [0:03:53.41]

Personnel:
Andrew Stockdale - lead vocals, lead guitar, mixing
Ian Peres - bass, keyboards
Aidan Nemeth - rhythm guitar
Dave Atkins - drums, strings on «10,000 Feet»

Exact Audio Copy V1.2 from 12. August 2016

EAC extraction logfile from 22. August 2018, 16:51

Wolfmother / Cosmic Egg [UICO-1172]

Used drive : HL-DT-STBD-RE BH10LS38 Adapter: 1 ID: 1

Read mode : Secure
Utilize accurate stream : Yes
Defeat audio cache : Yes
Make use of C2 pointers : No

Read offset correction : 667
Overread into Lead-In and Lead-Out : No
Fill up missing offset samples with silence : Yes
Delete leading and trailing silent blocks : No
Null samples used in CRC calculations : Yes
Used interface : Installed external ASPI interface

Used output format : User Defined Encoder
Selected bitrate : 128 kBit/s
Quality : High
Add ID3 tag : No
Command line compressor : C:\Program Files (x86)\Exact Audio Copy\wavpack-4.60.1\wavpack.exe
Additional command line options : -hm -w "Year=%year%" -w "Genre=%genre%" %source% %dest%


TOC of the extracted CD

Track | Start | Length | Start sector | End sector
––––––––––––––––––––––––––––-
1 | 0:00.00 | 3:55.44 | 0 | 17668
2 | 3:55.44 | 3:46.22 | 17669 | 34640
3 | 7:41.66 | 3:05.16 | 34641 | 48531
4 | 10:47.07 | 3:48.51 | 48532 | 65682
5 | 14:35.58 | 5:40.49 | 65683 | 91231
6 | 20:16.32 | 4:10.05 | 91232 | 109986
7 | 24:26.37 | 4:05.63 | 109987 | 128424
8 | 28:32.25 | 4:01.34 | 128425 | 146533
9 | 32:33.59 | 4:49.55 | 146534 | 168263
10 | 37:23.39 | 5:12.24 | 168264 | 191687
11 | 42:35.63 | 3:57.12 | 191688 | 209474
12 | 46:33.00 | 5:45.28 | 209475 | 235377
13 | 52:18.28 | 4:46.36 | 235378 | 256863
14 | 57:04.64 | 6:02.43 | 256864 | 284056
15 | 63:07.32 | 3:01.07 | 284057 | 297638
16 | 66:08.39 | 3:53.41 | 297639 | 315154


Range status and errors

Selected range

Filename G:\Rips by Alder\Wolfmother - Cosmic Egg [UICO-1172].wav

Peak level 100.0 %
Extraction speed 7.8 X
Range quality 100.0 %
Test CRC A986B0A7
Copy CRC A986B0A7
Copy OK

No errors occurred


AccurateRip summary

Track 1 accurately ripped (confidence 2) [7AAFB17B] (AR v2)
Track 2 accurately ripped (confidence 2) [76D5BB59] (AR v2)
Track 3 accurately ripped (confidence 2) [6CCE4AAC] (AR v2)
Track 4 accurately ripped (confidence 2) [585349A4] (AR v2)
Track 5 accurately ripped (confidence 2) [D67DEAAA] (AR v2)
Track 6 accurately ripped (confidence 2) [93A0294F] (AR v2)
Track 7 accurately ripped (confidence 2) [711829F4] (AR v2)
Track 8 accurately ripped (confidence 2) [9C7F5638] (AR v2)
Track 9 accurately ripped (confidence 2) [0089EC1A] (AR v2)
Track 10 accurately ripped (confidence 2) [2C9D72CE] (AR v2)
Track 11 accurately ripped (confidence 2) [A54A2833] (AR v2)
Track 12 accurately ripped (confidence 2) [8C80D8E6] (AR v2)
Track 13 accurately ripped (confidence 2) [2FF255A0] (AR v2)
Track 14 accurately ripped (confidence 2) [B561AC9C] (AR v2)
Track 15 accurately ripped (confidence 2) [B1F095BB] (AR v2)
Track 16 accurately ripped (confidence 2) [1D39ECA4] (AR v2)

All tracks accurately ripped

End of status report

–– CUETools DB Plugin V2.1.6

[CTDB TOCID: hDb.sB8X2UzyEq2uHzClDl55jk8-] found
Submit result: hDb.sB8X2UzyEq2uHzClDl55jk8- has been confirmed
Track | CTDB Status
1 | (6/6) Accurately ripped
2 | (6/6) Accurately ripped
3 | (6/6) Accurately ripped
4 | (6/6) Accurately ripped
5 | (6/6) Accurately ripped
6 | (6/6) Accurately ripped
7 | (6/6) Accurately ripped
8 | (6/6) Accurately ripped
9 | (6/6) Accurately ripped
10 | (6/6) Accurately ripped
11 | (6/6) Accurately ripped
12 | (6/6) Accurately ripped
13 | (6/6) Accurately ripped
14 | (6/6) Accurately ripped
15 | (6/6) Accurately ripped
16 | (6/6) Accurately ripped


==== Log checksum EB7616E96E646470D324C4CDAF8ACFB152851202DB8E72BE89BE18800EE01A8C ====

[CUETools log; Date: 29.08.2018 18:30:22; Version: 2.1.6]
[CTDB TOCID: hDb.sB8X2UzyEq2uHzClDl55jk8-] found.
Track | CTDB Status
1 | (7/7) Accurately ripped
2 | (7/7) Accurately ripped
3 | (7/7) Accurately ripped
4 | (7/7) Accurately ripped
5 | (7/7) Accurately ripped
6 | (7/7) Accurately ripped
7 | (7/7) Accurately ripped
8 | (7/7) Accurately ripped
9 | (7/7) Accurately ripped
10 | (7/7) Accurately ripped
11 | (7/7) Accurately ripped
12 | (7/7) Accurately ripped
13 | (7/7) Accurately ripped
14 | (7/7) Accurately ripped
15 | (7/7) Accurately ripped
16 | (7/7) Accurately ripped
[AccurateRip ID: 0027b107-01e33300-01106a10] found.
Track [ CRC | V2 ] Status
01 [3a3cabf5|7aafb17b] (0+2/2) Accurately ripped
02 [02c1092a|76d5bb59] (0+2/2) Accurately ripped
03 [3a336c8c|6cce4aac] (0+2/2) Accurately ripped
04 [97f5c9a9|585349a4] (0+2/2) Accurately ripped
05 [f523d4f1|d67deaaa] (0+2/2) Accurately ripped
06 [34e43aa6|93a0294f] (0+2/2) Accurately ripped
07 [98e55043|711829f4] (0+2/2) Accurately ripped
08 [85ce34fb|9c7f5638] (0+2/2) Accurately ripped
09 [e090fc4d|0089ec1a] (0+2/2) Accurately ripped
10 [943e2e2d|2c9d72ce] (0+2/2) Accurately ripped
11 [46780287|a54a2833] (0+2/2) Accurately ripped
12 [8adcd1ae|8c80d8e6] (0+2/2) Accurately ripped
13 [905179e9|2ff255a0] (0+2/2) Accurately ripped
14 [30cae970|b561ac9c] (0+2/2) Accurately ripped
15 [a9fbbcec|b1f095bb] (0+2/2) Accurately ripped
16 [7b985f2a|1d39eca4] (0+2/2) Accurately ripped

Track Peak [ CRC32 ] [W/O NULL] [ LOG ]
– 100,0 [A986B0A7] [67384565] CRC32
01 100,0 [62ADA108] [2B3025AF]
02 100,0 [645FFACE] [226D1A69]
03 100,0 [405765CB] [2C8FAA98]
04 100,0 [FFEF5F09] [99443126]
05 100,0 [46372A32] [0DB52136]
06 92,6 [16850021] [28580EEF]
07 100,0 [FCBC041E] [D6CB18DF]
08 100,0 [3A4E3D01] [CA32227C]
09 100,0 [36504C40] [C12A4A26]
10 92,6 [17D65223] [91116CB3]
11 92,6 [D319647D] [50062C6D]
12 100,0 [5A4230FC] [3E9CDF9E]
13 100,0 [7E275DD1] [5DD52DCB]
14 100,0 [E8837A99] [A37BA849]
15 100,0 [9802AA9A] [31C11125]
16 100,0 [49CA1F72] [F8956F14]

Wolfmother - Cosmic Egg (2009) {Japan 1st Press}

See also:
Wolfmother - Wolfmother (2005) {2015, 10th Anniversary Deluxe Edition}
Wolfmother - Victorious (2016)

All thanks go to Alder

>>> My Blog <<<

Download from icerbox.com: