Subcategories

Wolfmother - Wolfmother (2005) {2015, 10th Anniversary Deluxe Edition}

Posted By: popsakov
Wolfmother - Wolfmother (2005) {2015, 10th Anniversary Deluxe Edition}

Wolfmother - Wolfmother (2015)
2CD | EAC Rip | FLAC (Img) + Cue + Log ~ 1,02 Gb | Scans Included (JPG, 300 dpi) | RAR 5% Recovery
Modular Recordings/Interscope Records/Universal Music #00600753615119
Stoner Rock, Hard Rock, Psychedelic Rock, Alternative Rock, House, Electro

There's no denying Australian heavy rock trio Wolfmother has been raised on rock – specifically, raised on '70s rock. Problem is, from all appearances on their eponymous debut, they made their journey into the past via the twin gateway drugs of the White Stripes and Queens of the Stone Age, and once they dug back to the original Zeppelin and Sabbath texts (stopping along the way for some Soundgarden discs and maybe, for lyrical inspiration, Yes and Rush), they indulged so much it screwed with their sense of aesthetics. They threw everything and anything together, not bothering with minor problems like how their frenzied retro-rock doesn't quite support songs with titles like "The White Unicorn" and "Where Eagles Have Been" – Zeppelin drew inspiration from J.R.R. Tolkien and Sabbath certainly sang about fairies and gnomes, but neither band sounded as precious, inarticulate, or confused as Wolfmother does here. And their naïveté is not limited to guitarist Andrew Stockdale's stock swords 'n' sorcery imagery: they mix up their musical clichés in bewildering ways, as riffs lifted from Soundgarden ("Rusty Cage" provides the opening for "Joker & the Thief") give way to a QOTSA stomp as sung by Jack White (whose ghost is also heard on the title of "Apple Tree," not to mention its frenetic verses), or how a complicated Zep riff is graced by a Jethro Tull flute solo on "Witchcraft." Blame it on their youth – all this stuff was new to them, so they absorbed it all at once then quickly regurgitated it in ways that won't seem to make much sense to anybody familiar with their inspirations (and their clunky funk-rock workout "Love Train" simply won't make sense to anybody anywhere). At times, Wolfmother's unintentionally bizarre amalgams are kind of delightful, and the group does have a basic, brutal sonic force that is pretty appealing, but even at their best, they never banish the specters of the bands that they desperately mimic throughout this promising but muddled debut. They have enough of a good thing going here to suggest that they'd be a killer live band, but not enough to make this record all too memorable on its own terms.
~ Stephen Thomas Erlewine, All Music

Wolfmother - Wolfmother (2005) {2015, 10th Anniversary Deluxe Edition}


***************

Wolfmother - Wolfmother (2005) {2015, 10th Anniversary Deluxe Edition}

Track List CD1:

01. Dimension [0:04:21.62]
02. White Unicorn [0:05:04.53]
03. Woman [0:02:56.28]
04. Where Eagles Have Been [0:05:34.08]
05. Apple Tree [0:03:30.46]
06. Joker & The Thief [0:04:40.59]
07. Colossal [0:05:04.43]
08. Mind's Eye [0:04:54.23]
09. Pyramid [0:04:28.73]
10. Witchcraft [0:03:25.37]
11. Tales [0:03:39.46]
12. Love Train [0:03:03.10]
13. Vagabond [0:03:51.21]
Bonus B-Sides
14. The Earth's Rotation Around The Sun (B-Side) [0:02:47.55]
15. Vagabond (Acoustic Version) [0:02:40.26]
16. Joker & The Thief (Loving Hands Remix) [0:09:18.27]
17. Woman (MSTRKRFT Remix) [0:03:29.74]
18. Love Train (Chicken Lips Malfunction Remix) [0:05:45.26]

Exact Audio Copy V1.1 from 23. June 2015

EAC extraction logfile from 5. May 2016, 9:41

Wolfmother / Wolfmother (Deluxe Edition 2015 ) (CD1)

Used drive : HL-DT-STBD-RE BH10LS38 Adapter: 1 ID: 1

Read mode : Secure
Utilize accurate stream : Yes
Defeat audio cache : Yes
Make use of C2 pointers : No

Read offset correction : 667
Overread into Lead-In and Lead-Out : No
Fill up missing offset samples with silence : Yes
Delete leading and trailing silent blocks : No
Null samples used in CRC calculations : Yes
Used interface : Installed external ASPI interface

Used output format : User Defined Encoder
Selected bitrate : 128 kBit/s
Quality : High
Add ID3 tag : No
Command line compressor : C:\Program Files (x86)\Exact Audio Copy\wavpack-4.60.1\wavpack.exe
Additional command line options : -hm -w "Year=%year%" -w "Genre=%genre%" %source% %dest%


TOC of the extracted CD

Track | Start | Length | Start sector | End sector
––––––––––––––––––––––––––––-
1 | 0:00.00 | 4:21.62 | 0 | 19636
2 | 4:21.62 | 5:04.53 | 19637 | 42489
3 | 9:26.40 | 2:56.28 | 42490 | 55717
4 | 12:22.68 | 5:34.08 | 55718 | 80775
5 | 17:57.01 | 3:30.46 | 80776 | 96571
6 | 21:27.47 | 4:40.59 | 96572 | 117630
7 | 26:08.31 | 5:04.43 | 117631 | 140473
8 | 31:12.74 | 4:54.23 | 140474 | 162546
9 | 36:07.22 | 4:28.73 | 162547 | 182719
10 | 40:36.20 | 3:25.37 | 182720 | 198131
11 | 44:01.57 | 3:39.46 | 198132 | 214602
12 | 47:41.28 | 3:03.10 | 214603 | 228337
13 | 50:44.38 | 3:51.21 | 228338 | 245683
14 | 54:35.59 | 2:47.55 | 245684 | 258263
15 | 57:23.39 | 2:40.26 | 258264 | 270289
16 | 60:03.65 | 9:18.27 | 270290 | 312166
17 | 69:22.17 | 3:29.74 | 312167 | 327915
18 | 72:52.16 | 5:45.26 | 327916 | 353816


Range status and errors

Selected range

Filename G:\Rips by Alder\Wolfmother - Wolfmother (Deluxe Edition 2015 ) (CD1).wav

Peak level 100.0 %
Extraction speed 8.0 X
Range quality 100.0 %
Test CRC 46A5F372
Copy CRC 46A5F372
Copy OK

No errors occurred


AccurateRip summary

Track 1 accurately ripped (confidence 2) [E447F419] (AR v2)
Track 2 accurately ripped (confidence 2) [C2378B4E] (AR v2)
Track 3 accurately ripped (confidence 2) [9ADA6111] (AR v2)
Track 4 accurately ripped (confidence 2) [955820FB] (AR v2)
Track 5 accurately ripped (confidence 2) [E21CDCAF] (AR v2)
Track 6 accurately ripped (confidence 2) [F8FEC804] (AR v2)
Track 7 accurately ripped (confidence 2) [D1E86FDA] (AR v2)
Track 8 accurately ripped (confidence 2) [26F7C74C] (AR v2)
Track 9 accurately ripped (confidence 2) [4B203A70] (AR v2)
Track 10 accurately ripped (confidence 2) [DA463083] (AR v2)
Track 11 accurately ripped (confidence 2) [AB9480CD] (AR v2)
Track 12 accurately ripped (confidence 2) [E5844A64] (AR v2)
Track 13 accurately ripped (confidence 2) [3AB8E2AD] (AR v2)
Track 14 accurately ripped (confidence 1) [FD24A7AF] (AR v2)
Track 15 accurately ripped (confidence 1) [75189EE7] (AR v2)
Track 16 accurately ripped (confidence 1) [2DA99A23] (AR v2)
Track 17 accurately ripped (confidence 1) [BE3A0218] (AR v2)
Track 18 accurately ripped (confidence 1) [950A2D33] (AR v2)

All tracks accurately ripped

End of status report

–– CUETools DB Plugin V2.1.6

[CTDB TOCID: waKQ0GMF595o.t_l9Mnvf3NDyd4-] found
Submit result: waKQ0GMF595o.t_l9Mnvf3NDyd4- has been confirmed
Track | CTDB Status
1 | (10/10) Accurately ripped
2 | (10/10) Accurately ripped
3 | (10/10) Accurately ripped
4 | (10/10) Accurately ripped
5 | (10/10) Accurately ripped
6 | (10/10) Accurately ripped
7 | (10/10) Accurately ripped
8 | (10/10) Accurately ripped
9 | (10/10) Accurately ripped
10 | (10/10) Accurately ripped
11 | (10/10) Accurately ripped
12 | (10/10) Accurately ripped
13 | (10/10) Accurately ripped
14 | (10/10) Accurately ripped
15 | (10/10) Accurately ripped
16 | (10/10) Accurately ripped
17 | (10/10) Accurately ripped
18 | (10/10) Accurately ripped


==== Log checksum 93C335458F4B156069643227467EC147FCFE88655D6F0E80E902F481A7C5114D ====

foobar2000 1.2.6 / Dynamic Range Meter 1.1.1
log date: 2016-05-17 10:17:19

––––––––––––––––––––––––––––––––––––––––
Analyzed: Wolfmother / Wolfmother (Deluxe Edition 2015 ) (CD1)
––––––––––––––––––––––––––––––––––––––––

DR Peak RMS Duration Track
––––––––––––––––––––––––––––––––––––––––
DR3 0.00 dB -4.57 dB 4:22 01-Dimension
DR5 0.00 dB -6.18 dB 5:05 02-White Unicorn
DR4 -0.04 dB -4.94 dB 2:56 03-Woman
DR4 0.00 dB -6.62 dB 5:34 04-Where Eagles Have Been
DR4 -0.11 dB -5.34 dB 3:31 05-Apple Tree
DR4 0.00 dB -5.41 dB 4:41 06-Joker & The Thief
DR4 0.00 dB -5.53 dB 5:05 07-Colossal
DR5 0.00 dB -6.57 dB 4:54 08-Mind's Eye
DR4 -0.02 dB -4.73 dB 4:29 09-Pyramid
DR5 -0.08 dB -6.13 dB 3:25 10-Witchcraft
DR4 -0.07 dB -5.96 dB 3:40 11-Tales
DR4 -0.01 dB -5.18 dB 3:03 12-Love Train
DR4 -0.03 dB -7.95 dB 3:51 13-Vagabond
DR4 0.00 dB -6.51 dB 2:48 14-The Earth's Rotation Around The Sun (B-Side)
DR7 -1.41 dB -9.72 dB 2:40 15-Vagabond (Acoustic Version)
DR6 0.00 dB -6.80 dB 9:18 16-Joker & The Thief (Loving Hands Remix)
DR6 0.00 dB -7.34 dB 3:30 17-Woman (MSTRKRFT Remix)
DR7 0.00 dB -7.94 dB 5:45 18-Love Train (Chicken Lips Malfunction Remix)
––––––––––––––––––––––––––––––––––––––––

Number of tracks: 18
Official DR value: DR5

Samplerate: 44100 Hz
Channels: 2
Bits per sample: 16
Bitrate: 958 kbps
Codec: FLAC
================================================================================

[CUETools log; Date: 17.05.2016 10:17:18; Version: 2.1.5]
[CTDB TOCID: waKQ0GMF595o.t_l9Mnvf3NDyd4-] found.
Track | CTDB Status
1 | (11/11) Accurately ripped
2 | (11/11) Accurately ripped
3 | (11/11) Accurately ripped
4 | (11/11) Accurately ripped
5 | (11/11) Accurately ripped
6 | (11/11) Accurately ripped
7 | (11/11) Accurately ripped
8 | (11/11) Accurately ripped
9 | (11/11) Accurately ripped
10 | (11/11) Accurately ripped
11 | (11/11) Accurately ripped
12 | (11/11) Accurately ripped
13 | (11/11) Accurately ripped
14 | (11/11) Accurately ripped
15 | (11/11) Accurately ripped
16 | (11/11) Accurately ripped
17 | (11/11) Accurately ripped
18 | (11/11) Accurately ripped
[AccurateRip ID: 00327900-029de989-1a126d12] found.
Track [ CRC | V2 ] Status
01 [bfb88890|e447f419] (0+2/2) Accurately ripped
02 [0f2d8b55|c2378b4e] (0+2/2) Accurately ripped
03 [20dfb65f|9ada6111] (0+2/2) Accurately ripped
04 [90ff7ac3|955820fb] (0+2/2) Accurately ripped
05 [83452de9|e21cdcaf] (0+2/2) Accurately ripped
06 [2ca21323|f8fec804] (0+2/2) Accurately ripped
07 [0b0528c7|d1e86fda] (0+2/2) Accurately ripped
08 [29754bd3|26f7c74c] (0+2/2) Accurately ripped
09 [40f2eb81|4b203a70] (0+2/2) Accurately ripped
10 [84c401a5|da463083] (0+2/2) Accurately ripped
11 [3817425f|ab9480cd] (0+2/2) Accurately ripped
12 [105d4c46|e5844a64] (0+2/2) Accurately ripped
13 [3e878905|3ab8e2ad] (0+2/2) Accurately ripped
14 [784110e2|fd24a7af] (0+1/1) Accurately ripped
15 [63fb1f3f|75189ee7] (0+1/1) Accurately ripped
16 [4f57043f|2da99a23] (0+1/1) Accurately ripped
17 [4ca19915|be3a0218] (0+1/1) Accurately ripped
18 [659180c9|950a2d33] (0+1/1) Accurately ripped

Track Peak [ CRC32 ] [W/O NULL] [ LOG ]
– 100,0 [46A5F372] [63552E8A] CRC32
01 99,9 [39E858EC] [C38F6F63]
02 100,0 [8D45E864] [9595713E]
03 99,5 [708C8207] [98B16603]
04 100,0 [1ACC4737] [AED89D60]
05 98,7 [DD65A380] [4B180589]
06 100,0 [4784F225] [229F4364]
07 99,9 [72645C4B] [6F431E2B]
08 100,0 [A98EDA36] [97FC73D7]
09 99,8 [FB703D04] [483422EB]
10 99,1 [2E08A694] [A780785D]
11 99,2 [7DA41690] [BE637933]
12 99,8 [8ACFFD61] [7C482FFE]
13 99,6 [FFA39A20] [E0944323]
14 100,0 [D695A27D] [98CECCDB]
15 84,9 [EB02F1BB] [0E194250]
16 100,0 [D9F8E2C6] [BF60528D]
17 100,0 [1AE06E04] [A67F0476]
18 100,0 [E749F7BB] [A9C0296B]

Wolfmother - Wolfmother (2005) {2015, 10th Anniversary Deluxe Edition}

Track List CD2 - Demos, B-sides & Live:

01. Dimension (Demo) [0:04:16.33]
02. White Unicorn (Demo) [0:08:15.02]
03. Woman (Early Days) (Demo) [0:02:17.52]
04. Apple Tree (Demo) [0:03:26.53]
05. Not Goin' Home (Joker & The Thief) (Demo) [0:04:45.52]
06. Colossal (Demo) [0:05:25.25]
07. Pyramid (Early Jam) (Demo) [0:04:50.43]
08. Witchcraft (Rehearsal Room) (Demo) [0:04:01.44]
09. Love Train (Rehearsal Room) (Demo) [0:02:36.66]
10. Vagabond (Rehearsal Room) (Demo) [0:03:09.08]
11. Woman (Live At The Wireless .2005) [0:04:15.42]
12. Tales From The Forest Of Gnomes (Live At The Wireless 2005 [0:03:48.43]
13. Mind's Eye (Live At The Wireless 2005) [0:05:53.47]
14. Dimension (Live At Big Day Out 2006) [0:06:14.13]
15. Where Eagles Have Been (Live At Lollapolooza 2006) [0:06:04.69]

Exact Audio Copy V1.1 from 23. June 2015

EAC extraction logfile from 5. May 2016, 10:05

Wolfmother / Wolfmother (Deluxe Edition 2015 ) (CD2)

Used drive : HL-DT-STBD-RE BH10LS38 Adapter: 1 ID: 1

Read mode : Secure
Utilize accurate stream : Yes
Defeat audio cache : Yes
Make use of C2 pointers : No

Read offset correction : 667
Overread into Lead-In and Lead-Out : No
Fill up missing offset samples with silence : Yes
Delete leading and trailing silent blocks : No
Null samples used in CRC calculations : Yes
Used interface : Installed external ASPI interface

Used output format : User Defined Encoder
Selected bitrate : 128 kBit/s
Quality : High
Add ID3 tag : No
Command line compressor : C:\Program Files (x86)\Exact Audio Copy\wavpack-4.60.1\wavpack.exe
Additional command line options : -hm -w "Year=%year%" -w "Genre=%genre%" %source% %dest%


TOC of the extracted CD

Track | Start | Length | Start sector | End sector
––––––––––––––––––––––––––––-
1 | 0:00.00 | 4:16.33 | 0 | 19232
2 | 4:16.33 | 8:15.02 | 19233 | 56359
3 | 12:31.35 | 2:17.52 | 56360 | 66686
4 | 14:49.12 | 3:26.53 | 66687 | 82189
5 | 18:15.65 | 4:45.52 | 82190 | 103616
6 | 23:01.42 | 5:25.25 | 103617 | 128016
7 | 28:26.67 | 4:50.43 | 128017 | 149809
8 | 33:17.35 | 4:01.44 | 149810 | 167928
9 | 37:19.04 | 2:36.66 | 167929 | 179694
10 | 39:55.70 | 3:09.08 | 179695 | 193877
11 | 43:05.03 | 4:15.42 | 193878 | 213044
12 | 47:20.45 | 3:48.43 | 213045 | 230187
13 | 51:09.13 | 5:53.47 | 230188 | 256709
14 | 57:02.60 | 6:14.13 | 256710 | 284772
15 | 63:16.73 | 6:04.69 | 284773 | 312141


Range status and errors

Selected range

Filename G:\Rips by Alder\Wolfmother - Wolfmother (Deluxe Edition 2015 ) (CD2).wav

Peak level 100.0 %
Extraction speed 7.1 X
Range quality 100.0 %
Test CRC FD311601
Copy CRC FD311601
Copy OK

No errors occurred


AccurateRip summary

Track 1 accurately ripped (confidence 1) [FB7D9FDA] (AR v2)
Track 2 accurately ripped (confidence 1) [52FAF521] (AR v2)
Track 3 accurately ripped (confidence 1) [13BC8F89] (AR v2)
Track 4 accurately ripped (confidence 1) [623C10B3] (AR v2)
Track 5 accurately ripped (confidence 1) [D82C4E6F] (AR v2)
Track 6 accurately ripped (confidence 1) [DB7BF8A6] (AR v2)
Track 7 accurately ripped (confidence 1) [2477AB94] (AR v2)
Track 8 accurately ripped (confidence 1) [AB833D41] (AR v2)
Track 9 accurately ripped (confidence 1) [BA6EDD15] (AR v2)
Track 10 accurately ripped (confidence 1) [90DB9A82] (AR v2)
Track 11 accurately ripped (confidence 1) [268EF08C] (AR v2)
Track 12 accurately ripped (confidence 1) [1281A4AC] (AR v2)
Track 13 accurately ripped (confidence 1) [B361E468] (AR v2)
Track 14 accurately ripped (confidence 1) [A6D8D204] (AR v2)
Track 15 accurately ripped (confidence 1) [EFD9F546] (AR v2)

All tracks accurately ripped

End of status report

–– CUETools DB Plugin V2.1.6

[CTDB TOCID: jb1DVYhU6FV3.iPi85EjLIxPf8E-] found
Submit result: jb1DVYhU6FV3.iPi85EjLIxPf8E- has been confirmed
Track | CTDB Status
1 | (9/9) Accurately ripped
2 | (9/9) Accurately ripped
3 | (9/9) Accurately ripped
4 | (9/9) Accurately ripped
5 | (9/9) Accurately ripped
6 | (9/9) Accurately ripped
7 | (9/9) Accurately ripped
8 | (9/9) Accurately ripped
9 | (9/9) Accurately ripped
10 | (9/9) Accurately ripped
11 | (9/9) Accurately ripped
12 | (9/9) Accurately ripped
13 | (9/9) Accurately ripped
14 | (9/9) Accurately ripped
15 | (9/9) Accurately ripped


==== Log checksum C591053C1F9B8A14C091044252572BC3B9A94189B4C0EBEBC3CE9CF9F1984431 ====

foobar2000 1.2.6 / Dynamic Range Meter 1.1.1
log date: 2016-05-17 10:17:49

––––––––––––––––––––––––––––––––––––––––
Analyzed: Wolfmother / Wolfmother (Deluxe Edition 2015 ) (CD2)
––––––––––––––––––––––––––––––––––––––––

DR Peak RMS Duration Track
––––––––––––––––––––––––––––––––––––––––
DR5 -0.12 dB -6.56 dB 4:16 01-Dimension (Demo)
DR5 -0.10 dB -8.08 dB 8:15 02-White Unicorn (Demo)
DR5 0.00 dB -6.42 dB 2:18 03-Woman (Early Days) (Demo)
DR5 0.00 dB -6.31 dB 3:27 04-Apple Tree (Demo)
DR4 0.00 dB -5.93 dB 4:46 05-Not Goin' Home (Joker & The Thief) (Demo)
DR4 -0.06 dB -5.68 dB 5:25 06-Colossal (Demo)
DR4 0.00 dB -5.70 dB 4:51 07-Pyramid (Early Jam) (Demo)
DR5 0.00 dB -5.89 dB 4:02 08-Witchcraft (Rehearsal Room) (Demo)
DR4 0.00 dB -5.54 dB 2:37 09-Love Train (Rehearsal Room) (Demo)
DR5 -0.18 dB -10.32 dB 3:09 10-Vagabond (Rehearsal Room) (Demo)
DR6 -0.09 dB -6.91 dB 4:16 11-Woman (Live At The Wireless .2005)
DR6 -0.02 dB -8.29 dB 3:49 12-Tales From The Forest Of Gnomes (Live At The Wireless 2005
DR4 -0.06 dB -7.95 dB 5:54 13-Mind's Eye (Live At The Wireless 2005)
DR6 -0.05 dB -6.87 dB 6:14 14-Dimension (Live At Big Day Out 2006)
DR4 -0.07 dB -6.18 dB 6:05 15-Where Eagles Have Been (Live At Lollapolooza 2006)
––––––––––––––––––––––––––––––––––––––––

Number of tracks: 15
Official DR value: DR5

Samplerate: 44100 Hz
Channels: 2
Bits per sample: 16
Bitrate: 886 kbps
Codec: FLAC
================================================================================

[CUETools log; Date: 17.05.2016 10:17:53; Version: 2.1.5]
[CTDB TOCID: jb1DVYhU6FV3.iPi85EjLIxPf8E-] found.
Track | CTDB Status
1 | (10/10) Accurately ripped
2 | (10/10) Accurately ripped
3 | (10/10) Accurately ripped
4 | (10/10) Accurately ripped
5 | (10/10) Accurately ripped
6 | (10/10) Accurately ripped
7 | (10/10) Accurately ripped
8 | (10/10) Accurately ripped
9 | (10/10) Accurately ripped
10 | (10/10) Accurately ripped
11 | (10/10) Accurately ripped
12 | (10/10) Accurately ripped
13 | (10/10) Accurately ripped
14 | (10/10) Accurately ripped
15 | (10/10) Accurately ripped
[AccurateRip ID: 00254bf2-01a2dfaa-f510410f] found.
Track [ CRC | V2 ] Status
01 [0f83aef2|fb7d9fda] (0+1/1) Accurately ripped
02 [a5ded621|52faf521] (0+1/1) Accurately ripped
03 [14304d8f|13bc8f89] (0+1/1) Accurately ripped
04 [91828383|623c10b3] (0+1/1) Accurately ripped
05 [5413df5d|d82c4e6f] (0+1/1) Accurately ripped
06 [2fce35d3|db7bf8a6] (0+1/1) Accurately ripped
07 [497765c0|2477ab94] (0+1/1) Accurately ripped
08 [819cc756|ab833d41] (0+1/1) Accurately ripped
09 [34787f72|ba6edd15] (0+1/1) Accurately ripped
10 [c6dfa89b|90db9a82] (0+1/1) Accurately ripped
11 [d6881ead|268ef08c] (0+1/1) Accurately ripped
12 [615b47ff|1281a4ac] (0+1/1) Accurately ripped
13 [1e41002f|b361e468] (0+1/1) Accurately ripped
14 [78c73136|a6d8d204] (0+1/1) Accurately ripped
15 [e847595c|efd9f546] (0+1/1) Accurately ripped

Track Peak [ CRC32 ] [W/O NULL] [ LOG ]
– 100,0 [FD311601] [D6166467] CRC32
01 98,5 [8631EBB1] [E5E119A8]
02 98,8 [749F0771] [9741443D]
03 100,0 [73B8A2B0] [3A24AB4A]
04 100,0 [41B86BF3] [FD7EA56D]
05 99,9 [4DECC4BB] [92174F88]
06 99,3 [A6266F4D] [080CCD71]
07 100,0 [2A6228A9] [EA475599]
08 100,0 [49AF199C] [1C72D997]
09 100,0 [FFFE9F72] [0B2FD321]
10 97,9 [9DFC29A9] [D523A74D]
11 98,9 [31187D2D] [57F537A7]
12 99,7 [CA29FFD9] [3A3679B7]
13 99,3 [3F0FADF2] [27496C9D]
14 99,4 [E49D63B2] [4A192471]
15 99,2 [29B2EAD5] [9EF66773]

Personnel:

Andrew Stockdale – lead vocals, lead and rhythm guitar
Chris Ross – bass, keyboard
Myles Heskett – drums

Guest Musicians:
Lenny Castro – percussion on «Apple Tree», «Witchcraft» and «Love Train»
Dan Higgins – flute on «Witchcraft»

Wolfmother - Wolfmother (2005) {2015, 10th Anniversary Deluxe Edition}

All thanks go to Alder

Visit my blog!

Download:
Nitroflare: CD1-part 1 | CD1-part 2 | CD2
Salefiles: CD1-part 1 | CD1-part 2 | CD2