Subcategories

Wolfmother - Cosmic Egg (2009) [Deluxe Edition]

Posted By: Necromandus
Wolfmother - Cosmic Egg (2009) [Deluxe Edition]

Wolfmother - Cosmic Egg (2009) [Deluxe Edition]
EAC Rip | WV, IMG+CUE+LOG | 530 MB | MP3 CBR 320 Kbps | 170 MB | Complete Scans | 35 MB
Hard Rock/Stoner Rock | Label: Modular Recordings | Catalog Number: MODCD112 | RAR 3% Rec. | RS.com
… Digipak, Deluxe Edition with 4 bonus tracks..

"Cosmic Egg is like you are in a fight with Guile from Street Fighter. It is a complete assault on all your senses. But what I love most about this album is Wolfmother is not afraid to experiment with more psychedelic rock. Several tracks were clearly influenced by The Beatles trip to India and the Rolling Stones psychedelic ride. I think this shows that Wolfmother isn't just going to rest on the sound that made them popular, but going to try and get better and push the envelope in terms of their own sound. It is a perfect follow up to their breakthrough first record. Shit if you are a fan of Led Zeppelin, The Beatles, The Rolling Stones, you need to buy the record because you are guaranteed to find something you love about it."

~ StonerRock.com
Tracklist:

1. California Queen - 3:55
2. New Moon Rising - 3:46
3. White Feather - 5:40
4. Sundial - 3:48
5. In the Morning - 5:40
6. 10,000 Feet - 4:09
7. Cosmic Egg - 4:04
8. Far Away - 4:00
9. Cosmonaut (Bonus Track) - 4:48
10. Pilgrim - 4:50
11. Eyes Open (Bonus Track) - 5:11
12. Back Round (Bonus Track) - 3:56
13. In the Castle - 5:42
14. Caroline (Bonus Track) - 4:31
15. Phoenix - 4:45
16. Violence of the Sun - 6:02

Exact Audio Copy V0.99 prebeta 4 from 23. January 2008

EAC extraction logfile from 23. December 2009, 21:59

Wolfmother / Cosmic Egg

Used drive : Optiarc DVD RW AD-7191A Adapter: 1 ID: 0

Read mode : Secure
Utilize accurate stream : Yes
Defeat audio cache : Yes
Make use of C2 pointers : No

Read offset correction : 6
Overread into Lead-In and Lead-Out : No
Fill up missing offset samples with silence : Yes
Delete leading and trailing silent blocks : No
Null samples used in CRC calculations : Yes
Used interface : Installed external ASPI interface

Used output format : Internal WAV Routines
Sample format : 44.100 Hz; 16 Bit; Stereo


TOC of the extracted CD

Track | Start | Length | Start sector | End sector
––––––––––––––––––––––––––––-
1 | 0:00.00 | 3:54.60 | 0 | 17609
2 | 3:54.60 | 3:45.43 | 17610 | 34527
3 | 7:40.28 | 3:04.01 | 34528 | 48328
4 | 10:44.29 | 3:47.56 | 48329 | 65409
5 | 14:32.10 | 5:39.52 | 65410 | 90886
6 | 20:11.62 | 4:08.66 | 90887 | 109552
7 | 24:20.53 | 4:04.31 | 109553 | 127883
8 | 28:25.09 | 4:00.12 | 127884 | 145895
9 | 32:25.21 | 4:48.28 | 145896 | 167523
10 | 37:13.49 | 4:50.05 | 167524 | 189278
11 | 42:03.54 | 5:11.35 | 189279 | 212638
12 | 47:15.14 | 3:56.12 | 212639 | 230350
13 | 51:11.26 | 5:42.11 | 230351 | 256011
14 | 56:53.37 | 4:30.40 | 256012 | 276301
15 | 61:24.02 | 4:45.10 | 276302 | 297686
16 | 66:09.12 | 6:02.11 | 297687 | 324847


Range status and errors

Selected range

Filename G:\-= lossless work =-\Wolfmother - Cosmic Egg.wav

Peak level 92.6 %
Range quality 99.9 %
Test CRC B39A0376
Copy CRC B39A0376
Copy OK

No errors occurred


AccurateRip summary

Track 1 accurately ripped (confidence 7) [5C150FA4]
Track 2 accurately ripped (confidence 6) [C4912434]
Track 3 accurately ripped (confidence 6) [1AC54D00]
Track 4 accurately ripped (confidence 6) [5607CC00]
Track 5 accurately ripped (confidence 6) [9A6F64A6]
Track 6 accurately ripped (confidence 6) [D769B4EC]
Track 7 accurately ripped (confidence 6) [EDE2D56E]
Track 8 accurately ripped (confidence 6) [35BD7631]
Track 9 accurately ripped (confidence 6) [E682F387]
Track 10 accurately ripped (confidence 6) [710487B5]
Track 11 accurately ripped (confidence 6) [4D56CBB8]
Track 12 accurately ripped (confidence 6) [4BB6205F]
Track 13 accurately ripped (confidence 6) [95CAD813]
Track 14 accurately ripped (confidence 6) [A91C6567]
Track 15 accurately ripped (confidence 6) [B2927876]
Track 16 accurately ripped (confidence 6) [3B6BCA4C]

All tracks accurately ripped

End of status report

• Andrew Stockdale - vocals and guitar
• Dave Atkins - drums
• Ian Peres - bass guitars and keys
• Aidan Nemeth - rhytm guitar

All songs written by Andrew Stockdale.

"Pilgrim" inspired by: Dead Meadow "Everything's Going On":
Domino US Publishing Company (SESAC)

Produced and mixed by Alan Moulder. Engineered by Joe Barresi.
Recorded at Sunset Sound and Sound City, Los Angeles, CA
Overdubs at JHOC, Pasadena, CA

Bonus tracks: Cosmonaut, Eyes Open and Caroline recorded in LA, Back Round recorded at home, all mixed by Alan Moulder

lossless* (wv, 530Mb):
LOS.part1.rar
LOS.part2.rar
LOS.part3.rar
LOS.part4.rar
LOS.part5.rar
LOS.part6.rar

mp3 (cbr320, 170Mb):
MP3.part1.rar
MP3.part2.rar

covers (300dpi, 35Mb):
COV.rar

PASSWORD: Necromandus
* - EAC Image, standard LOG, embedded cuesheet, Foobar2000 ready