Wonderland - The Spirit Of Earth Wind & Fire (2012)

Posted By: JET 1
Wonderland - The Spirit Of Earth Wind & Fire (2012)

Wonderland - The Spirit Of Earth Wind & Fire (2012)
EAC Rip | FLAC (Tracks) +CUE, LOG | 706 MB | Covers Included
Soul | Label: Expansion | Catalog Number: CD EXP 40

20 Tracks recorded by different artists either produced or written by Earth Wind and Fire. Dee Dee Bridgewater ‘Tequila Mockingbird’, Alton McClain and Destiny ‘ Answer To My Prayer’, Pockets ‘Got To Find my Way’ , Valarie Carter ‘City Lights’, Sylvia St James ‘let Love Groove Me’ and Emotions ‘There’ll Never Be Another Moment’ sit alongside instrumentals Ramsey Lewis ‘Sun Goddess’, Gene Harris ‘Theme For Relana’ and Caldera ‘Ancient Source’. A great tribute to one of the album great bands.

The extraordinary journey of Earth, Wind & Fire begins with Maurice White in Chicago in 1970 and continues through to this day. Along the way these musical giants took their unique blend of soul and jazz to the highest levels of creativity and pop success. In 1969 Maurice White founded The Salty Peppers ahead of relocation to Los Angels, California and a name change to Earth, Wind & Fire. Maurice re-configured the group in 1972 making the nucleus himself, brother Verdine White, Philip Bailey, Larry Dunn, Al McKay, Ralph Johnson, and began building a horn section around Andrew Woolfolk, Don Myrick, Louis Satterfield, Rahmlee Davis, Michael Harris, and George Bohanon.

These are the musicians who created a sound like no other and a style Maurice White would bring to other artists looking to share in its glory. He formed Kalimba Productions and it's music from those sessions that formed the idea for this collection songs, musical or vocal contributions, and productions by members of Earth Wind & Fire in the spirit of Earth, Wind & Fire outside of the group themselves. The Kalimba artists include The Emotions (with whom EW&F collaborated with on Boogie Wonderland, inspiring the title of this compilation), Pockets, Deniece Williams, and Ramsey Lewis.

Other inclusions are Tequila Mockingbird, a Larry Dunn creation recorded here by Dee Dee Bridgewater (Ramsey Lewis also recorded this); Glow Love by gospel group The Mighty Clouds Of Joy (The original CD sells on eBay for upwards of £100); Answer To My Prayer (first time on CD) composed by EW&F hit songwriter Skip Scarborough (whose jazz work out Theme For Relana is also included here); Lover's Touch, a rare Chaka Khan recording not on any of her albums (composed by Beloyd Taylor who sang with EW&F on their "I Am" album and co-wrote Getaway for the group); and music by jazz fusion artists Ronnie Laws (an original player with EW&F), bass man Abraham Laboriel (featuring Philip Bailey), Paulinho Da Costa, Flora Purim; and soul groups Stargard, Blue Magic, and Tavares. Expansionrecords.com



Exact Audio Copy V1.0 beta 3 from 29. August 2011

EAC extraction logfile from 4. October 2014, 10:53

Various Artists / Wonderland - The Spirit Of Earth Wind & Fire

Used drive : GENERIC CDRCB05 Adapter: 4 ID: 0

Read mode : Secure
Utilize accurate stream : Yes
Defeat audio cache : Yes
Make use of C2 pointers : No

Read offset correction : 102
Overread into Lead-In and Lead-Out : No
Fill up missing offset samples with silence : Yes
Delete leading and trailing silent blocks : No
Null samples used in CRC calculations : Yes
Used interface : Native Win32 interface for Win NT & 2000
Gap handling : Appended to previous track

Used output format : User Defined Encoder
Selected bitrate : 1024 kBit/s
Quality : High
Add ID3 tag : No
Command line compressor : C:\Program Files\FLAC\flac.exe
Additional command line options : -8 -V -T "ARTIST=%artist%" -T "TITLE=%title%" -T "ALBUM=%albumtitle%" -T "DATE=%year%" -T "TRACKNUMBER=%tracknr%" -T "GENRE=%genre%" -T "PERFORMER=%albuminterpret%" -T "COMPOSER=%composer%" %haslyrics%–tag-from-file=LYRICS="%lyricsfile%"%haslyrics% -T "ALBUMARTIST=%albumartist%" -T "DISCNUMBER=%cdnumber%" -T "TOTALDISCS=%totalcds%" -T "TOTALTRACKS=%numtracks%" -T "COMMENT=%comment%" %source% -o %dest%


TOC of the extracted CD

Track | Start | Length | Start sector | End sector
––––––––––––––––––––––––––––-
1 | 0:00.00 | 4:01.09 | 0 | 18083
2 | 4:01.09 | 3:43.33 | 18084 | 34841
3 | 7:44.42 | 3:32.63 | 34842 | 50804
4 | 11:17.30 | 2:54.23 | 50805 | 63877
5 | 14:11.53 | 3:33.65 | 63878 | 79917
6 | 17:45.43 | 3:28.65 | 79918 | 95582
7 | 21:14.33 | 3:29.54 | 95583 | 111311
8 | 24:44.12 | 5:40.32 | 111312 | 136843
9 | 30:24.44 | 3:01.63 | 136844 | 150481
10 | 33:26.32 | 3:33.08 | 150482 | 166464
11 | 36:59.40 | 3:03.01 | 166465 | 180190
12 | 40:02.41 | 4:32.59 | 180191 | 200649
13 | 44:35.25 | 3:07.72 | 200650 | 214746
14 | 47:43.22 | 3:14.44 | 214747 | 229340
15 | 50:57.66 | 4:26.32 | 229341 | 249322
16 | 55:24.23 | 5:15.04 | 249323 | 272951
17 | 60:39.27 | 4:30.65 | 272952 | 293266
18 | 65:10.17 | 3:24.48 | 293267 | 308614
19 | 68:34.65 | 4:37.69 | 308615 | 329458
20 | 73:12.59 | 6:32.25 | 329459 | 358883


Track 1

Filename F:\0\!!!!!POST!!!!\Various - Wonderland - The Spirit Of Earth Wind & Fire (2012)\01 Tequila Mockingbird.wav

Pre-gap length 0:00:02.00

Peak level 100.0 %
Extraction speed 2.4 X
Track quality 100.0 %
Test CRC 8F151471
Copy CRC 8F151471
Accurately ripped (confidence 3) [1C5C2E75] (AR v2)
Copy OK

Track 2

Filename F:\0\!!!!!POST!!!!\Various - Wonderland - The Spirit Of Earth Wind & Fire (2012)\02 Got To Find My Way.wav

Pre-gap length 0:00:00.86

Peak level 100.0 %
Extraction speed 2.3 X
Track quality 99.9 %
Test CRC 3EB1C79F
Copy CRC 3EB1C79F
Accurately ripped (confidence 3) [C8713508] (AR v2)
Copy OK

Track 3

Filename F:\0\!!!!!POST!!!!\Various - Wonderland - The Spirit Of Earth Wind & Fire (2012)\03 The Boy I Left Behind.wav

Pre-gap length 0:00:00.86

Peak level 65.3 %
Extraction speed 2.4 X
Track quality 99.9 %
Test CRC F1EDB3DA
Copy CRC F1EDB3DA
Accurately ripped (confidence 3) [F6F6513E] (AR v2)
Copy OK

Track 4

Filename F:\0\!!!!!POST!!!!\Various - Wonderland - The Spirit Of Earth Wind & Fire (2012)\04 Glow Love.wav

Pre-gap length 0:00:00.86

Peak level 77.6 %
Extraction speed 2.4 X
Track quality 99.9 %
Test CRC CF6490BA
Copy CRC CF6490BA
Accurately ripped (confidence 3) [90E99661] (AR v2)
Copy OK

Track 5

Filename F:\0\!!!!!POST!!!!\Various - Wonderland - The Spirit Of Earth Wind & Fire (2012)\05 Let Love Groove Me.wav

Pre-gap length 0:00:00.86

Peak level 77.6 %
Extraction speed 3.0 X
Track quality 100.0 %
Test CRC 3EB9ABF7
Copy CRC 3EB9ABF7
Accurately ripped (confidence 3) [997509AB] (AR v2)
Copy OK

Track 6

Filename F:\0\!!!!!POST!!!!\Various - Wonderland - The Spirit Of Earth Wind & Fire (2012)\06 Love Uprising (Single Version).wav

Pre-gap length 0:00:01.86

Peak level 75.5 %
Extraction speed 3.1 X
Track quality 100.0 %
Test CRC D76B03E1
Copy CRC D76B03E1
Accurately ripped (confidence 3) [D77DB681] (AR v2)
Copy OK

Track 7

Filename F:\0\!!!!!POST!!!!\Various - Wonderland - The Spirit Of Earth Wind & Fire (2012)\07 Answer To My Prayer.wav

Pre-gap length 0:00:01.86

Peak level 78.5 %
Extraction speed 3.3 X
Track quality 100.0 %
Test CRC 85CF1972
Copy CRC 85CF1972
Accurately ripped (confidence 3) [05D7B528] (AR v2)
Copy OK

Track 8

Filename F:\0\!!!!!POST!!!!\Various - Wonderland - The Spirit Of Earth Wind & Fire (2012)\08 Let's Get Together.wav

Pre-gap length 0:00:00.86

Peak level 74.1 %
Extraction speed 3.7 X
Track quality 100.0 %
Test CRC DCC0C2F0
Copy CRC DCC0C2F0
Accurately ripped (confidence 3) [A955BB54] (AR v2)
Copy OK

Track 9

Filename F:\0\!!!!!POST!!!!\Various - Wonderland - The Spirit Of Earth Wind & Fire (2012)\09 Dancin'.wav

Pre-gap length 0:00:00.86

Peak level 78.5 %
Extraction speed 3.5 X
Track quality 100.0 %
Test CRC E136F2D1
Copy CRC E136F2D1
Accurately ripped (confidence 3) [2D6F2E7B] (AR v2)
Copy OK

Track 10

Filename F:\0\!!!!!POST!!!!\Various - Wonderland - The Spirit Of Earth Wind & Fire (2012)\10 Angels.wav

Pre-gap length 0:00:00.86

Peak level 77.6 %
Extraction speed 3.3 X
Track quality 99.9 %
Test CRC 15D96C2C
Copy CRC 15D96C2C
Accurately ripped (confidence 3) [9245D1E5] (AR v2)
Copy OK

Track 11

Filename F:\0\!!!!!POST!!!!\Various - Wonderland - The Spirit Of Earth Wind & Fire (2012)\11 All For You.wav

Pre-gap length 0:00:00.86

Peak level 78.5 %
Extraction speed 3.8 X
Track quality 100.0 %
Test CRC 269AABED
Copy CRC 269AABED
Accurately ripped (confidence 3) [83191D0C] (AR v2)
Copy OK

Track 12

Filename F:\0\!!!!!POST!!!!\Various - Wonderland - The Spirit Of Earth Wind & Fire (2012)\12 There'll Never Be Another Moment.wav

Pre-gap length 0:00:00.86

Peak level 77.6 %
Extraction speed 4.1 X
Track quality 100.0 %
Test CRC 080851A3
Copy CRC 080851A3
Accurately ripped (confidence 3) [9974F1DA] (AR v2)
Copy OK

Track 13

Filename F:\0\!!!!!POST!!!!\Various - Wonderland - The Spirit Of Earth Wind & Fire (2012)\13 Sun Goddess (Single Version).wav

Pre-gap length 0:00:00.86

Peak level 78.5 %
Extraction speed 4.0 X
Track quality 100.0 %
Test CRC ED498614
Copy CRC ED498614
Accurately ripped (confidence 3) [5AEA0084] (AR v2)
Copy OK

Track 14

Filename F:\0\!!!!!POST!!!!\Various - Wonderland - The Spirit Of Earth Wind & Fire (2012)\14 City Lights.wav

Pre-gap length 0:00:00.86

Peak level 77.6 %
Extraction speed 4.2 X
Track quality 100.0 %
Test CRC B3E09859
Copy CRC B3E09859
Accurately ripped (confidence 3) [17679BC4] (AR v2)
Copy OK

Track 15

Filename F:\0\!!!!!POST!!!!\Various - Wonderland - The Spirit Of Earth Wind & Fire (2012)\15 Ancient Source.wav

Pre-gap length 0:00:00.86

Peak level 77.6 %
Extraction speed 4.5 X
Track quality 100.0 %
Test CRC 078BC771
Copy CRC 078BC771
Accurately ripped (confidence 3) [2A1AB199] (AR v2)
Copy OK

Track 16

Filename F:\0\!!!!!POST!!!!\Various - Wonderland - The Spirit Of Earth Wind & Fire (2012)\16 And I Do.wav

Pre-gap length 0:00:00.86

Peak level 79.4 %
Extraction speed 4.3 X
Track quality 99.9 %
Test CRC 09394929
Copy CRC 09394929
Accurately ripped (confidence 3) [F7FABB2F] (AR v2)
Copy OK

Track 17

Filename F:\0\!!!!!POST!!!!\Various - Wonderland - The Spirit Of Earth Wind & Fire (2012)\17 Lover's Touch.wav

Pre-gap length 0:00:00.86

Peak level 77.6 %
Extraction speed 4.8 X
Track quality 100.0 %
Test CRC 0158B14E
Copy CRC 0158B14E
Accurately ripped (confidence 3) [F2D92C02] (AR v2)
Copy OK

Track 18

Filename F:\0\!!!!!POST!!!!\Various - Wonderland - The Spirit Of Earth Wind & Fire (2012)\18 I Waited.wav

Pre-gap length 0:00:00.86

Peak level 77.6 %
Extraction speed 4.7 X
Track quality 100.0 %
Test CRC A5E4E894
Copy CRC A5E4E894
Accurately ripped (confidence 3) [E553F1D1] (AR v2)
Copy OK

Track 19

Filename F:\0\!!!!!POST!!!!\Various - Wonderland - The Spirit Of Earth Wind & Fire (2012)\19 (Once In A Lifetime) Dream Come True.wav

Pre-gap length 0:00:00.86

Peak level 78.5 %
Extraction speed 4.7 X
Track quality 100.0 %
Test CRC 1EC6AECF
Copy CRC 1EC6AECF
Accurately ripped (confidence 3) [EE933731] (AR v2)
Copy OK

Track 20

Filename F:\0\!!!!!POST!!!!\Various - Wonderland - The Spirit Of Earth Wind & Fire (2012)\20 Theme For Relana.wav

Pre-gap length 0:00:00.86

Peak level 78.5 %
Extraction speed 5.3 X
Track quality 100.0 %
Test CRC 063C3838
Copy CRC 063C3838
Accurately ripped (confidence 3) [EC6BCCD9] (AR v2)
Copy OK


All tracks accurately ripped

No errors occurred

End of status report

==== Log checksum 158B94C85EDB6127069D62E12845E77BAB8855A8E9C1DCFDFABAF799AB67133E ====


Tracklist:

1. Dee Dee Bridgewater - Tequila Mockingbird
2. Pockets - Got To Find My Way
3. Deniece Williams - The Boy I Left Behind
4. Mighty Clouds Of Joy - Glow Love
5. Sylvia St. James - Let Love Groove Me
6. Tavares - Love Uprising
7. Alton Mcclain & Destiny - Answer To My Prayer
8. Paulinho Da Costa - Let's Get Together
9. Grey & Hanks - Dancin'
10. Flora Purim - Angels
11. Ronnie Laws - All For You
12. The Emotions - Never Be Another Moment
13. Ramsey Lewis - Sun Goddess
14. Valerie Carter - City Lights
15. Caldera - Ancient Source
16. Abraham Laboriel feat. Philip Bailey - And I Do
17. Chaka Khan - Lover's Touch
18. Blue Magic - I Waited
19. Stargard - Dream Come True
20. Gene Harris - Theme for Relana