Subcategories

Xhol (Xhol Caravan, Soul Caravan) - 6 Albums (1971-2009) (Re-up)

Posted By: gribovar
Xhol (Xhol Caravan, Soul Caravan) - 6 Albums (1971-2009) (Re-up)

Xhol (Xhol Caravan, Soul Caravan) - 6 Albums (1971-2009)
EAC Rip | WavPack, FLAC (image+.cue+log) - 2,07 GB | MP3 CBR 320 kbps (LAME 3.93) - 899 MB | Covers - 655 MB
Genre: Progressive Rock, Krautrock, Jazz Rock | RAR 3% Rec. | Label: Garden of Delights, ZYX Music

Xhol was one of the first bands who participated at the send of the 60s to the launch of the Krautrock movement in Germany. Nevertheless their music cannot be categorised. Their roots came from rhythm'n blues with soul tendencies. With their second album "Electrip" they rapidly found their own style which can be considered as an original fusion of free jazz, psychedelic rock and electronic experimentations. Very dynamic their jazz rock can sometimes be compared with the spirit of the psychedelic soul developed by Soft Machine. However the unusual use of electric instruments and electronic manipulations made Xhol absolutely unique. After "Electric", the band carries on their musical adventure with two great and totally free jazz rock albums. Dominated by endless, electric and cool improvisations "Hau Ruk" is a must for fusion and jazz lovers. Their last studio album "Motherf**kers GmbH" recorded in 1972 is a monument. All the compositions have their own feelings, sometimes delivering captivating and powerful blues, kraut, and jazz elements. However this album put the stress on a second fascinating side of Xhol's musical universe: experimental organ works and psych/ folk interludes. This last album is nearer to Krautrock mesmerizing musical themes, more twisted, spacey and devoted to avant-garde. Xhol's influence on a bench of german prog bands and on the adepts of free rock music in general is undeniable.

Xhol (Xhol Caravan, Soul Caravan) - 6 Albums (1971-2009) (Re-up)

Xhol - Hau-RUK (1971) [Reissue 2002]
EAC Rip | WavPack (image+.cue+log) - 351 MB | MP3 CBR 320 kbps (LAME 3.93) - 157 MB | Covers - 109 MB
Genre: Progressive Rock, Krautrock, Jazz Rock | RAR 3% Rec. | Label: Garden of Delights (CD 076)

Tracklist:
01. Breit
02. Schaukel
03. Süden twi Westen (Bonus track)

Total time: 01:06:59

Exact Audio Copy V0.99 prebeta 4 from 23. January 2008

EAC extraction logfile from 20. March 2009, 18:59

Xhol / Hau-RUK

Used drive : HL-DT-STDVD-RAM GSA-H20L Adapter: 0 ID: 1

Read mode : Secure
Utilize accurate stream : Yes
Defeat audio cache : Yes
Make use of C2 pointers : No

Read offset correction : 102
Overread into Lead-In and Lead-Out : No
Fill up missing offset samples with silence : Yes
Delete leading and trailing silent blocks : No
Null samples used in CRC calculations : Yes
Used interface : Installed external ASPI interface

Used output format : Internal WAV Routines
Sample format : 44.100 Hz; 16 Bit; Stereo


TOC of the extracted CD

Track | Start | Length | Start sector | End sector
––––––––––––––––––––––––––––-
1 | 0:00.00 | 24:02.70 | 0 | 108219
2 | 24:02.70 | 21:04.22 | 108220 | 203041
3 | 45:07.17 | 21:51.35 | 203042 | 301401


Range status and errors

Selected range

Filename K:\X\Xhol\Hau-RUK\LossLess\Xhol - Hau-RUK.wav

Peak level 100.0 %
Range quality 100.0 %
Copy CRC 507AC729
Copy OK

No errors occurred


AccurateRip summary

Track 1 not present in database
Track 2 not present in database
Track 3 not present in database

None of the tracks are present in the AccurateRip database

End of status report

[CUETools log; Date: 01.08.2020 16:58:28; Version: 2.1.4]
[CTDB TOCID: 40ubSOF0KffCzct9C111wuCBi3I-] found.
Track | CTDB Status
1 | (12/12) Accurately ripped
2 | (12/12) Accurately ripped
3 | (12/12) Accurately ripped
[AccurateRip ID: 00095938-001efe47-210fb203] found.
Track [ CRC | V2 ] Status
01 [9b7f3849|41956607] (1+1/3) Accurately ripped
02 [3b5a52ad|0117ddd9] (1+1/3) Accurately ripped
03 [632b0916|1692a7d9] (1+1/3) Accurately ripped
Offsetted by -96:
01 [e8481e89] (1/3) Accurately ripped
02 [f362112d] (1/3) Accurately ripped
03 [c54a0a96] (1/3) Accurately ripped

Track Peak [ CRC32 ] [W/O NULL] [ LOG ]
– 100,0 [507AC729] [4D244FB8] CRC32
01 100,0 [63AE4A12] [102E3C6A]
02 100,0 [8E8F0319] [AF5B126F]
03 100,0 [EF2AA277] [89FDCF43]

Xhol (Xhol Caravan, Soul Caravan) - 6 Albums (1971-2009) (Re-up)

Xhol - Motherf**kers GmbH & Co. KG (1972) [Reissue 1999]
EAC Rip | FLAC (image+.cue+log) - 188 MB | MP3 CBR 320 kbps (LAME 3.93) - 96 MB | Covers - 20 MB
Genre: Progressive Rock, Krautrock, Jazz Rock | RAR 3% Rec. | Label: ZYX Music (OHR 70040-2)

Tracklist:
01. Radio
02. Leistungsprinzig
03. Orgelsolo
04. Side 1 First Day
05. Grille
06. Love Potion 25

Total time: 40:50

Exact Audio Copy V0.99 prebeta 4 from 23. January 2008

EAC extraction logfile from 7. May 2010, 21:22

Xhol / Motherfuckers GmbH & Co. KG

Used drive : TEAC CD-W516EB Adapter: 1 ID: 0

Read mode : Secure
Utilize accurate stream : Yes
Defeat audio cache : Yes
Make use of C2 pointers : No

Read offset correction : 685
Overread into Lead-In and Lead-Out : No
Fill up missing offset samples with silence : Yes
Delete leading and trailing silent blocks : No
Null samples used in CRC calculations : Yes
Used interface : Native Win32 interface for Win NT & 2000

Used output format : Internal WAV Routines
Sample format : 44.100 Hz; 16 Bit; Stereo


TOC of the extracted CD

Track | Start | Length | Start sector | End sector
––––––––––––––––––––––––––––-
1 | 0:00.00 | 2:24.38 | 0 | 10837
2 | 2:24.38 | 1:41.09 | 10838 | 18421
3 | 4:05.47 | 9:27.21 | 18422 | 60967
4 | 13:32.68 | 7:08.56 | 60968 | 93123
5 | 20:41.49 | 6:57.22 | 93124 | 124420
6 | 27:38.71 | 13:11.26 | 124421 | 183771


Range status and errors

Selected range

Filename C:\Xhol - Motherfuckers GmbH & Co. KG.wav

Peak level 100.0 %
Range quality 99.9 %
Test CRC 2BA74B4D
Copy CRC 2BA74B4D
Copy OK

No errors occurred


AccurateRip summary

Track 1 not present in database
Track 2 not present in database
Track 3 not present in database
Track 4 not present in database
Track 5 not present in database
Track 6 not present in database

None of the tracks are present in the AccurateRip database

End of status report

[CUETools log; Date: 01.08.2020 16:56:39; Version: 2.1.4]
[CTDB TOCID: lVOTeRXIaaNHTpv7ptn_NOZA1Ik-] found.
Track | CTDB Status
1 | (18/18) Accurately ripped
2 | (18/18) Accurately ripped
3 | (18/18) Accurately ripped
4 | (18/18) Accurately ripped
5 | (18/18) Accurately ripped
6 | (18/18) Accurately ripped
[AccurateRip ID: 00078019-002b0525-3e099206] found.
Track [ CRC | V2 ] Status
01 [bab4096a|df4d5bc1] (0+4/6) Accurately ripped
02 [9e51ce1d|b1f75aaf] (0+4/6) Accurately ripped
03 [529f8a20|363db97e] (0+4/6) Accurately ripped
04 [3e46dabb|cea4ce77] (0+4/6) Accurately ripped
05 [7639c08c|b9b35468] (0+4/6) Accurately ripped
06 [ae78e8bd|0132f050] (0+4/6) Accurately ripped
Offsetted by 682:
01 [20bd049b] (2/6) Accurately ripped
02 [993e55ac] (2/6) Accurately ripped
03 [ece84b17] (2/6) Accurately ripped
04 [458c269c] (2/6) Accurately ripped
05 [f80407c2] (2/6) Accurately ripped
06 [9310b9c3] (2/6) Accurately ripped

Track Peak [ CRC32 ] [W/O NULL] [ LOG ]
– 100,0 [2BA74B4D] [1F63D920] CRC32
01 63,6 [4897B23A] [9481974F]
02 93,7 [955A3519] [20E1509B]
03 82,1 [24AA3434] [969691B0]
04 100,0 [0D0E08CF] [E06C12B1]
05 67,7 [D36E534E] [D446B461]
06 98,8 [E6AF3784] [DF508123]

Xhol (Xhol Caravan, Soul Caravan) - 6 Albums (1971-2009) (Re-up)

Soul Caravan - Live 1969 (2006)
EAC Rip | WavPack (image+.cue+log) - 200 MB | MP3 CBR 320 kbps (LAME 3.93) - 88 MB | Covers - 135 MB
Genre: Progressive Rock, Krautrock, Jazz Rock | RAR 3% Rec. | Label: Garden of Delights (CD 115)

Tracklist:
01. My Favorite Things
02. All Green
03. Skipping
04. Sitting On The Dock Of The Bay
05. Lick A Stick

Total time: 37:26

Exact Audio Copy V0.99 prebeta 4 from 23. January 2008

EAC extraction logfile from 3. March 2010, 22:34

Soul Caravan / Live 1969

Used drive : PIONEER DVD-RW DVR-109 Adapter: 0 ID: 0

Read mode : Secure
Utilize accurate stream : Yes
Defeat audio cache : Yes
Make use of C2 pointers : No

Read offset correction : 48
Overread into Lead-In and Lead-Out : No
Fill up missing offset samples with silence : Yes
Delete leading and trailing silent blocks : No
Null samples used in CRC calculations : Yes
Used interface : Installed external ASPI interface

Used output format : User Defined Encoder
Selected bitrate : 128 kBit/s
Quality : High
Add ID3 tag : No
Command line compressor : C:\Programme\WavePack\wavpack.exe
Additional command line options : -femx4 %s %d


TOC of the extracted CD

Track | Start | Length | Start sector | End sector
––––––––––––––––––––––––––––-
1 | 0:00.00 | 8:36.50 | 0 | 38749
2 | 8:36.50 | 13:13.02 | 38750 | 98226
3 | 21:49.52 | 4:01.00 | 98227 | 116301
4 | 25:50.52 | 4:15.20 | 116302 | 135446
5 | 30:05.72 | 7:19.65 | 135447 | 168436


Range status and errors

Selected range

Filename K:\S\Soul Caravan\Live 1969\LossLess\Soul Caravan - Live 1969.wav

Peak level 89.1 %
Range quality 100.0 %
Test CRC 27DC55F5
Copy CRC 27DC55F5
Copy OK

No errors occurred


AccurateRip summary

Track 1 not present in database
Track 2 not present in database
Track 3 not present in database
Track 4 not present in database
Track 5 not present in database

None of the tracks are present in the AccurateRip database

End of status report

[CUETools log; Date: 01.08.2020 16:57:09; Version: 2.1.4]
[CTDB TOCID: YPjwBFjszfIhwIQx6VvWPaoh9nc-] found.
Track | CTDB Status
1 | (5/5) Accurately ripped
2 | (5/5) Accurately ripped
3 | (5/5) Accurately ripped
4 | (5/5) Accurately ripped
5 | (5/5) Accurately ripped
[AccurateRip ID: 0008806b-0026883f-3308c505] found.
Track [ CRC | V2 ] Status
01 [8f957c23|977b2449] (2+0/2) Accurately ripped
02 [16368dee|3d422f07] (2+0/2) Accurately ripped
03 [0f6668ee|23fd715b] (2+0/2) Accurately ripped
04 [68226e78|d7e2f363] (2+0/2) Accurately ripped
05 [4f3782b4|5884bde5] (2+0/2) Accurately ripped

Track Peak [ CRC32 ] [W/O NULL] [ LOG ]
– 89,1 [27DC55F5] [489D7684] CRC32
01 89,1 [43495833] [AA9A5FAC]
02 89,1 [646395A8] [9B0C2F3B]
03 89,1 [1ABA8553] [88ED07D5]
04 89,1 [5E47FD23] [5396A442]
05 89,1 [6D608002] [47B129AC]

Xhol (Xhol Caravan, Soul Caravan) - 6 Albums (1971-2009) (Re-up)

Xhol Caravan - Altena 1969 (2006)
EAC Rip | WavPack (image+.cue+log) - 493 MB | MP3 CBR 320 kbps (LAME 3.93) - 189 MB | Covers - 108 MB
Genre: Progressive Rock, Krautrock, Jazz Rock | RAR 3% Rec. | Label: Garden of Delights (CD 116)

Tracklist:
01. Olé
02. So Damn, So Down And So Blue
03. Psychedelic Sally
04. Emptiness
05. Freedom Opera

Total time: 01:20:20

Exact Audio Copy V0.99 prebeta 4 from 23. January 2008

EAC extraction logfile from 3. February 2010, 20:39

Xhol Caravan / Altena 1969

Used drive : PIONEER DVD-RW DVR-109 Adapter: 0 ID: 0

Read mode : Secure
Utilize accurate stream : Yes
Defeat audio cache : Yes
Make use of C2 pointers : No

Read offset correction : 48
Overread into Lead-In and Lead-Out : No
Fill up missing offset samples with silence : Yes
Delete leading and trailing silent blocks : No
Null samples used in CRC calculations : Yes
Used interface : Installed external ASPI interface

Used output format : User Defined Encoder
Selected bitrate : 128 kBit/s
Quality : High
Add ID3 tag : No
Command line compressor : C:\Programme\WavePack\wavpack.exe
Additional command line options : -femx4 %s %d


TOC of the extracted CD

Track | Start | Length | Start sector | End sector
––––––––––––––––––––––––––––-
1 | 0:00.00 | 10:10.07 | 0 | 45756
2 | 10:10.07 | 4:38.09 | 45757 | 66615
3 | 14:48.16 | 4:11.62 | 66616 | 85502
4 | 19:00.03 | 4:36.20 | 85503 | 106222
5 | 23:36.23 | 56:43.72 | 106223 | 361519


Range status and errors

Selected range

Filename K:\X\Xhol Caravan\Altena 1969\LossLess\Xhol Caravan - Altena 1969.wav

Peak level 99.9 %
Range quality 100.0 %
Test CRC 68A23C86
Copy CRC 68A23C86
Copy OK

No errors occurred


AccurateRip summary

Track 1 not present in database
Track 2 not present in database
Track 3 not present in database
Track 4 not present in database
Track 5 not present in database

None of the tracks are present in the AccurateRip database

End of status report

[CUETools log; Date: 01.08.2020 16:59:12; Version: 2.1.4]
[CTDB TOCID: kRUbsy7TN7ulQ1tYaUlfXDhpCok-] found.
Track | CTDB Status
1 | (5/5) Accurately ripped
2 | (5/5) Accurately ripped
3 | (5/5) Accurately ripped
4 | (5/5) Accurately ripped
5 | (5/5) Accurately ripped
[AccurateRip ID: 000a2813-0032ddea-3212d405] found.
Track [ CRC | V2 ] Status
01 [44db4e1d|ea8e163b] (1+1/3) Accurately ripped
02 [763d137c|98c16a8f] (1+1/3) Accurately ripped
03 [776bc0bb|86b2109a] (1+1/3) Accurately ripped
04 [2aff98c6|493393e8] (1+1/3) Accurately ripped
05 [7ac3cc3a|135e9d19] (1+1/3) Accurately ripped
Offsetted by -72:
01 [d7e1c1ee] (1/3) Accurately ripped
02 [26842f4e] (1/3) Accurately ripped
03 [25d8db48] (1/3) Accurately ripped
04 [ec7ce658] (1/3) Accurately ripped
05 [b8f56c50] (1/3) Accurately ripped

Track Peak [ CRC32 ] [W/O NULL] [ LOG ]
– 99,9 [68A23C86] [11AEAC0A] CRC32
01 87,6 [660528D1] [AA962048]
02 90,6 [1313C763] [78629725]
03 99,9 [388681F2] [1F0A9F8F]
04 92,2 [FAE3AC04] [3DB8A049]
05 99,9 [5572D418] [C4468B85]

Xhol (Xhol Caravan, Soul Caravan) - 6 Albums (1971-2009) (Re-up)

Xhol - Altena 1970 (2006)
EAC Rip | WavPack (image+.cue+log) - 522 MB | MP3 CBR 320 kbps (LAME 3.93) - 192 MB | Covers - 150 MB
Genre: Progressive Rock, Krautrock, Jazz Rock | RAR 3% Rec. | Label: Garden of Delights (CD 117)

Tracklist:
01. I Can't Wait
02. Electric Fun Fair
03. Xholenium

Total time: 01:21:31

Exact Audio Copy V0.99 prebeta 4 from 23. January 2008

EAC extraction logfile from 10. October 2009, 20:33

Xhol / Altena 1970

Used drive : PIONEER DVD-RW DVR-109 Adapter: 0 ID: 0

Read mode : Secure
Utilize accurate stream : Yes
Defeat audio cache : Yes
Make use of C2 pointers : No

Read offset correction : 48
Overread into Lead-In and Lead-Out : No
Fill up missing offset samples with silence : Yes
Delete leading and trailing silent blocks : No
Null samples used in CRC calculations : Yes
Used interface : Installed external ASPI interface

Used output format : Internal WAV Routines
Sample format : 44.100 Hz; 16 Bit; Stereo


TOC of the extracted CD

Track | Start | Length | Start sector | End sector
––––––––––––––––––––––––––––-
1 | 0:00.00 | 35:11.40 | 0 | 158364
2 | 35:11.40 | 9:26.22 | 158365 | 200836
3 | 44:37.62 | 36:53.22 | 200837 | 366833


Range status and errors

Selected range

Filename K:\X\Xhol\Altena 1970\LossLess\Xhol - Altena 1970.wav

Peak level 99.9 %
Range quality 100.0 %
Copy CRC 058C3436
Copy OK

No errors occurred


AccurateRip summary

Track 1 not present in database
Track 2 not present in database
Track 3 not present in database

None of the tracks are present in the AccurateRip database

End of status report

[CUETools log; Date: 01.08.2020 17:00:04; Version: 2.1.4]
[CTDB TOCID: 4YeHohCnWyrNjvC2ulPwCTZHHaY-] found.
Track | CTDB Status
1 | (6/6) Accurately ripped
2 | (6/6) Accurately ripped
3 | (6/6) Accurately ripped
[AccurateRip ID: 000b1414-00246a92-21131b03] found.
Track [ CRC | V2 ] Status
01 [08b3e252|341ab753] (0+3/3) Accurately ripped
02 [c84ad88b|4de7fddd] (0+3/3) Accurately ripped
03 [6813672f|a74713e9] (2+3/5) Accurately ripped

Track Peak [ CRC32 ] [W/O NULL] [ LOG ]
– 99,9 [058C3436] [CFCE6910] CRC32
01 99,9 [477F28AB] [F0E57A56]
02 79,9 [AC7A75C7] [4D490527]
03 73,5 [A6BB8B3E] [32999A71]

Xhol (Xhol Caravan, Soul Caravan) - 6 Albums (1971-2009) (Re-up)

Xhol - Essen 1970 (2009)
EAC Rip | WavPack (image+.cue+log) - 322 MB | MP3 CBR 320 kbps (LAME 3.93) - 117 MB | Covers - 133 MB
Genre: Progressive Rock, Krautrock, Jazz Rock | RAR 3% Rec. | Label: Garden of Delights (CD 152)

Tracklist:
01. Sparkling Geysers
02. "A" Freak-Out Blues
03. Weird Bossa
04. Surrealistic Scenery

Total time: 49:40

Exact Audio Copy V0.99 prebeta 4 from 23. January 2008

EAC extraction logfile from 28. January 2010, 17:11

Xhol / Essen 1970

Used drive : PIONEER DVD-RW DVR-109 Adapter: 0 ID: 0

Read mode : Secure
Utilize accurate stream : Yes
Defeat audio cache : Yes
Make use of C2 pointers : No

Read offset correction : 48
Overread into Lead-In and Lead-Out : No
Fill up missing offset samples with silence : Yes
Delete leading and trailing silent blocks : No
Null samples used in CRC calculations : Yes
Used interface : Installed external ASPI interface

Used output format : User Defined Encoder
Selected bitrate : 128 kBit/s
Quality : High
Add ID3 tag : No
Command line compressor : C:\Programme\WavePack\wavpack.exe
Additional command line options : -femx4 %s %d


TOC of the extracted CD

Track | Start | Length | Start sector | End sector
––––––––––––––––––––––––––––-
1 | 0:00.00 | 23:26.68 | 0 | 105517
2 | 23:26.68 | 7:44.59 | 105518 | 140376
3 | 31:11.52 | 6:16.44 | 140377 | 168620
4 | 37:28.21 | 12:11.56 | 168621 | 223501


Range status and errors

Selected range

Filename K:\X\Xhol\Essen 1970\LossLess\Xhol - Essen 1970.wav

Peak level 99.8 %
Range quality 100.0 %
Test CRC 2F50E41E
Copy CRC 2F50E41E
Copy OK

No errors occurred


AccurateRip summary

Track 1 not present in database
Track 2 not present in database
Track 3 not present in database
Track 4 not present in database

None of the tracks are present in the AccurateRip database

End of status report

[CUETools log; Date: 01.08.2020 17:01:23; Version: 2.1.4]
[CTDB TOCID: OzqcTv787yVu1DNF1ZTErMoR.qc-] found.
Track | CTDB Status
1 | (6/6) Accurately ripped
2 | (6/6) Accurately ripped
3 | (6/6) Accurately ripped
4 | (6/6) Accurately ripped
[AccurateRip ID: 0009bc42-0024fd62-2b0ba404] found.
Track [ CRC | V2 ] Status
01 [d5e8d6a6|8654287e] (0+2/2) Accurately ripped
02 [b307cf33|7aa65620] (0+2/2) Accurately ripped
03 [6d0b2e09|38a9e06f] (0+2/2) Accurately ripped
04 [6102a472|f0349fcd] (0+2/2) Accurately ripped

Track Peak [ CRC32 ] [W/O NULL] [ LOG ]
– 99,8 [2F50E41E] [4770DA3C] CRC32
01 99,8 [3E9F37B6] [5A40D87F]
02 99,8 [0F388264] [B3F7E01A]
03 99,8 [3875D3F7] [568B290A]
04 99,8 [2E165202] [D8F13F50]

Thanks to Antikalk & mmdd